osu file format v14

[General]
AudioFilename: audio.mp3
AudioLeadIn: 0
PreviewTime: 13750
Countdown: 0
SampleSet: Soft
StackLeniency: 0.7
Mode: 2
LetterboxInBreaks: 0
WidescreenStoryboard: 0

[Editor]
Bookmarks: 13754
DistanceSpacing: 1.5
BeatDivisor: 6
GridSize: 4
TimelineZoom: 2.4

[Metadata]
Title:dogcheck
TitleUnicode:dogcheck
Artist:Toby Fox
ArtistUnicode:Toby Fox
Creator:Stardust Prism
Version:dogtarune
Source:DELTARUNE
Tags:video game electronic instrumental undertale annoying dog papyrus sans bone joke soundtrack vg vgm chill calm soft peaceful
BeatmapID:4057684
BeatmapSetID:1958525

[Difficulty]
HPDrainRate:5
CircleSize:3.7
OverallDifficulty:7.7
ApproachRate:7.7
SliderMultiplier:1.83
SliderTickRate:1

[Events]
//Background and Video events
0,0,"doge.png",0,0
//Break Periods
//Storyboard Layer 0 (Background)
//Storyboard Layer 1 (Fail)
//Storyboard Layer 2 (Pass)
//Storyboard Layer 3 (Foreground)
//Storyboard Layer 4 (Overlay)
//Storyboard Sound Samples

[TimingPoints]
36,428.571428571429,4,2,1,20,1,0
893,-100,4,2,1,5,0,0
1036,-100,4,2,1,20,0,0
2607,-100,4,2,1,5,0,0
2750,-100,4,2,1,20,0,0
4321,-100,4,2,1,5,0,0
4464,-100,4,2,1,20,0,0
6036,-100,4,2,1,5,0,0
6178,-100,4,2,1,20,0,0
7750,-100,4,2,1,5,0,0
7893,-100,4,2,1,20,0,0
9464,-100,4,2,1,5,0,0
9607,-100,4,2,1,20,0,0
11178,-100,4,2,1,5,0,0
11321,-100,4,2,1,20,0,0
12893,-100,4,2,1,5,0,0
13036,-100,4,2,1,20,0,0
13750,-100,4,2,1,30,0,0
27464,-100,4,2,1,40,0,0
37750,-100,4,2,1,20,0,0

[Colours]
Combo1 : 0,255,64
Combo2 : 255,0,0
Combo3 : 255,255,0
Combo4 : 0,128,255

[HitObjects]
110,324,36,6,0,P|51:162|227:142,1,366,2|0,0:3|0:0,0:0:0:0:
302,281,1750,2,0,P|341:190|136:88,1,366,2|0,0:3|0:0,0:0:0:0:
368,319,3464,6,0,P|476:168|344:103,1,366,2|0,0:3|0:0,0:0:0:0:
209,325,5178,2,0,P|186:205|360:34,1,366,2|0,0:0|0:0,0:0:0:0:
153,325,6893,6,0,P|43:213|185:73,1,366,2|0,0:3|0:0,0:0:0:0:
358,335,8607,2,0,P|478:242|334:198,1,366,2|0,0:0|0:0,0:0:0:0:
136,205,10321,6,0,L|531:148,1,366,2|0,0:3|0:0,0:0:0:0:
336,299,12036,2,0,P|40:203|-2:130,1,366,2|0,0:0|0:0,0:0:0:0:
359,341,13750,6,0,P|432:310|447:186,1,183,6|8,0:3|0:3,0:0:0:0:
337,206,14464,1,0,3:3:0:0:
153,312,14893,1,4,0:3:0:0:
288,314,15036,2,0,P|314:244|258:223,1,122,8|0,0:3|3:3,0:0:0:0:
70,226,15464,6,0,P|18:180|91:113,1,183,6|8,0:3|0:3,0:0:0:0:
203,146,16178,1,0,3:3:0:0:
386,140,16607,1,4,0:3:0:0:
251,130,16750,2,0,L|98:130,1,122,8|0,0:3|3:3,0:0:0:0:
346,283,17178,6,0,P|404:232|320:178,1,183,6|8,0:3|0:3,0:0:0:0:
221,177,17893,1,0,3:3:0:0:
404,265,18321,1,4,0:3:0:0:
269,237,18464,2,0,P|272:171|334:162,1,122,8|0,0:3|3:3,0:0:0:0:
100,285,18893,6,0,L|79:82,1,183,6|8,0:3|0:3,0:0:0:0:
203,139,19607,2,0,L|131:136,1,61,0|8,3:3|0:3,0:0:0:0:
265,232,20036,1,4,0:3:0:0:
130,234,20178,2,0,L|119:85,1,122,8|0,0:3|3:3,0:0:0:0:
338,262,20607,6,0,P|383:210|286:158,1,183,6|8,0:3|0:3,0:0:0:0:
191,155,21321,1,0,3:3:0:0:
8,163,21750,1,4,0:3:0:0:
145,147,21893,2,0,L|306:146,1,122,8|0,0:3|3:3,0:0:0:0:
53,212,22321,6,0,P|41:142|139:97,1,183,6|8,0:3|0:3,0:0:0:0:
252,265,23036,1,0,3:0:0:0:
313,212,23178,2,0,L|143:206,1,122,0|4,0:3|0:3,0:0:0:0:
328,160,23607,1,8,0:3:0:0:
451,112,23893,1,0,3:3:0:0:
234,271,24036,6,0,P|180:240|258:175,1,183,6|8,0:3|0:3,0:0:0:0:
363,162,24750,1,0,3:3:0:0:
181,144,25178,1,4,0:3:0:0:
316,263,25321,2,0,L|326:108,1,122,8|0,0:3|3:3,0:0:0:0:
107,191,25750,6,0,L|37:190,2,68.625,6|0|0,0:3|0:0|0:0,0:0:0:0:
229,272,26178,2,0,L|287:156,1,114.375,8|4,0:3|3:3,0:0:0:0:
121,235,26607,2,0,L|89:100,1,122,8|4,0:3|3:3,0:0:0:0:
243,133,27036,2,0,L|348:19,1,122,8|0,0:3|3:0,0:0:0:0:
118,206,27464,6,0,L|323:196,1,183,6|8,0:3|0:3,0:0:0:0:
178,174,28178,1,0,3:0:0:0:
38,252,28321,2,0,L|26:57,1,183,0|8,0:0|0:3,0:0:0:0:
154,117,29036,1,0,3:3:0:0:
362,253,29178,6,0,P|424:221|344:190,1,183,6|8,0:3|0:3,0:0:0:0:
233,238,29893,1,0,3:0:0:0:
373,232,30036,2,0,L|375:97,1,122,0|4,0:0|0:3,0:0:0:0:
307,105,30464,1,8,0:3:0:0:
436,168,30750,1,0,3:3:0:0:
226,270,30893,6,0,P|158:250|225:208,1,183,6|8,0:3|0:3,0:0:0:0:
343,190,31607,1,0,3:3:0:0:
203,201,31750,2,0,L|12:196,1,183,0|8,0:0|0:3,0:0:0:0:
149,144,32464,1,0,3:0:0:0:
361,305,32607,6,0,P|470:264|469:189,1,183,6|8,0:3|0:3,0:0:0:0:
355,217,33321,1,4,3:3:0:0:
144,326,33464,2,0,P|71:285|59:175,1,183,10|8,0:3|0:3,0:3:0:0:
175,192,34178,1,0,3:3:0:0:
377,322,34321,6,0,L|446:325,2,68.625,6|0|0,0:3|0:0|0:0,0:0:0:0:
314,316,34750,2,0,P|296:243|408:208,1,183,8|0,0:3|0:0,0:0:0:0:
500,231,35464,1,4,0:3:0:0:
364,206,35607,2,0,L|496:195,1,122,8|0,0:3|0:0,0:0:0:0:
271,356,36036,6,0,P|217:314|291:241,1,183,6|8,0:3|0:3,0:0:0:0:
396,225,36750,1,0,3:0:0:0:
253,206,36893,2,0,L|37:201,1,183,0|8,0:3|0:3,0:0:0:0:
192,160,37607,1,0,0:0:0:0:
409,237,37750,5,6,0:0:0:0:
256,192,38178,12,0,41036,0:0:0:0:
