osu file format v14

[General]
AudioFilename: audio.mp3
AudioLeadIn: 0
PreviewTime: 13750
Countdown: 0
SampleSet: Soft
StackLeniency: 0.7
Mode: 2
LetterboxInBreaks: 0
WidescreenStoryboard: 1

[Editor]
Bookmarks: 13754
DistanceSpacing: 1.5
BeatDivisor: 8
GridSize: 4
TimelineZoom: 1

[Metadata]
Title:dogcheck
TitleUnicode:dogcheck
Artist:Toby Fox
ArtistUnicode:Toby Fox
Creator:Stardust Prism
Version:salad
Source:DELTARUNE
Tags:video game electronic instrumental undertale annoying dog papyrus sans bone joke soundtrack vg vgm chill calm soft peaceful
BeatmapID:4057968
BeatmapSetID:1958525

[Difficulty]
HPDrainRate:4
CircleSize:3.3
OverallDifficulty:6.7
ApproachRate:6.7
SliderMultiplier:1.68
SliderTickRate:1

[Events]
//Background and Video events
0,0,"doge.png",0,0
//Break Periods
//Storyboard Layer 0 (Background)
//Storyboard Layer 1 (Fail)
//Storyboard Layer 2 (Pass)
//Storyboard Layer 3 (Foreground)
//Storyboard Layer 4 (Overlay)
//Storyboard Sound Samples

[TimingPoints]
36,428.571428571429,4,2,1,20,1,0
893,-100,4,2,1,5,0,0
1036,-100,4,2,1,20,0,0
2607,-100,4,2,1,5,0,0
2750,-100,4,2,1,20,0,0
4321,-100,4,2,1,5,0,0
4464,-100,4,2,1,20,0,0
6036,-100,4,2,1,5,0,0
6178,-100,4,2,1,20,0,0
7750,-100,4,2,1,5,0,0
7893,-100,4,2,1,20,0,0
9464,-100,4,2,1,5,0,0
9607,-100,4,2,1,20,0,0
11178,-100,4,2,1,5,0,0
11321,-100,4,2,1,20,0,0
12893,-100,4,2,1,5,0,0
13036,-100,4,2,1,20,0,0
13750,-100,4,2,1,30,0,0
27464,-100,4,2,1,40,0,0
37750,-100,4,2,1,20,0,0

[Colours]
Combo1 : 0,255,64
Combo2 : 255,0,0
Combo3 : 255,255,0
Combo4 : 0,128,255

[HitObjects]
121,361,36,6,0,L|112:22,1,336,2|0,0:3|0:0,0:0:0:0:
326,362,1750,2,0,L|350:25,1,336,2|0,0:3|0:0,0:0:0:0:
138,258,3464,6,0,P|131:171|344:71,1,336,2|0,0:3|0:0,0:0:0:0:
139,352,5178,2,0,P|66:194|137:57,1,336,2|0,0:0|0:0,0:0:0:0:
313,297,6893,6,0,P|395:290|408:83,1,336,2|0,0:3|0:0,0:0:0:0:
219,312,8607,2,0,P|89:278|150:120,1,336,2|0,0:0|0:0,0:0:0:0:
354,227,10321,6,0,L|-4:171,1,336,2|0,0:3|0:0,0:0:0:0:
193,317,12036,2,0,L|513:191,1,336,2|0,0:0|0:0,0:0:0:0:
209,332,13750,6,0,L|41:287,1,168,6|8,0:3|0:3,0:0:0:0:
159,273,14464,1,0,3:3:0:0:
327,260,14893,1,4,0:3:0:0:
383,248,15036,2,0,P|408:193|360:163,1,112,8|0,0:3|3:3,0:0:0:0:
239,177,15464,6,0,L|64:171,1,168,6|8,0:3|0:3,0:0:0:0:
185,277,16178,2,0,P|243:237|228:147,1,168,0|4,3:3|0:3,0:0:0:0:
172,155,16750,1,8,0:3:0:0:
58,150,17036,1,0,3:3:0:0:
198,336,17178,6,0,P|248:266|163:244,1,168,6|8,0:3|0:3,0:0:0:0:
84,229,17893,1,0,3:3:0:0:
252,243,18321,1,4,0:3:0:0:
319,243,18464,2,0,P|343:187|272:134,1,112,8|0,0:3|3:3,0:0:0:0:
179,116,18893,6,0,L|3:117,1,168,6|8,0:3|0:3,0:0:0:0:
179,240,19750,2,0,L|387:235,1,168,8|8,0:3|0:3,0:0:0:0:
459,228,20464,1,0,3:3:0:0:
318,285,20607,6,0,P|245:276|232:155,1,168,6|8,0:3|0:3,0:0:0:0:
324,190,21321,1,0,3:3:0:0:
492,162,21750,1,4,0:3:0:0:
436,162,21893,2,0,L|284:158,1,112,8|0,0:3|3:3,0:0:0:0:
183,304,22321,6,0,P|130:253|200:213,1,168,6|8,0:3|0:3,0:0:0:0:
349,175,23178,2,0,L|214:163,1,112,0|4,0:3|0:3,0:0:0:0:
68,138,23893,1,0,3:3:0:0:
205,253,24036,6,0,P|262:221|192:182,1,168,6|8,0:3|0:3,0:0:0:0:
89,139,24750,1,0,3:3:0:0:
258,145,25178,2,0,L|260:77,1,56,4|8,0:3|0:3,0:0:0:0:
148,248,25607,1,0,3:3:0:0:
282,259,25750,5,6,0:3:0:0:
338,258,25911,1,0,0:0:0:0:
338,258,26071,1,0,0:0:0:0:
282,259,26178,1,8,0:3:0:0:
166,264,26464,2,0,P|100:234|173:142,1,224,4|8,3:3|0:3,0:0:0:0:
463,144,27464,6,0,L|288:134,2,168,6|8|0,0:3|0:3|0:0,0:0:0:0:
294,294,28750,2,0,L|285:167,1,112,8|0,0:3|3:3,0:0:0:0:
145,152,29178,6,0,P|104:103|170:42,1,168,6|8,0:3|0:3,0:0:0:0:
335,266,30036,2,0,L|483:259,1,112,0|4,0:0|0:3,0:0:0:0:
392,237,30464,1,8,0:3:0:0:
279,234,30750,1,0,3:3:0:0:
134,227,30893,6,0,P|88:183|148:119,1,168,6|8,0:3|0:3,0:0:0:0:
311,128,31750,2,0,L|176:121,1,112,0|0,0:0|0:0,0:0:0:0:
140,122,32178,1,8,0:3:0:0:
252,129,32464,1,0,3:0:0:0:
397,283,32607,6,0,P|453:233|369:184,1,168,6|8,0:3|0:3,0:0:0:0:
99,252,33464,2,0,P|47:194|122:152,1,168,10|0,0:3|0:3,0:0:0:0:
215,140,34178,1,0,3:3:0:0:
355,272,34321,6,0,P|407:215|311:166,1,168,6|8,0:3|0:3,0:0:0:0:
182,272,35178,2,0,P|160:210|199:184,1,112,0|4,0:0|0:3,0:0:0:0:
245,156,35607,1,8,0:3:0:0:
362,145,35893,1,0,0:0:0:0:
222,238,36036,6,0,L|42:241,1,168,6|8,0:3|0:3,0:0:0:0:
224,309,36893,2,0,P|277:254|205:223,1,168,0|8,0:3|0:3,0:0:0:0:
103,139,37607,1,0,0:0:0:0:
245,224,37750,5,6,0:0:0:0:
256,192,38178,12,0,41036,0:0:0:0:
