osu file format v14

[General]
AudioFilename: audio.ogg
AudioLeadIn: 0
PreviewTime: 619
Countdown: 0
SampleSet: Normal
StackLeniency: 0.7
Mode: 1
LetterboxInBreaks: 0
WidescreenStoryboard: 1

[Editor]
DistanceSpacing: 1.1
BeatDivisor: 4
GridSize: 32
TimelineZoom: 2.9

[Metadata]
Title:alarm_titlescreen
TitleUnicode:alarm_titlescreen
Artist:Toby Fox
ArtistUnicode:Toby Fox
Creator:realy0_
Version:Oni
Source:DELTARUNE
Tags:annoying dog doggo delta rune undertale car joke video game chiptune instrumental alarm titlescreen deltarune: chapter 2 two 8bit 8-bit dogcheck
BeatmapID:3415525
BeatmapSetID:1616932

[Difficulty]
HPDrainRate:5
CircleSize:5
OverallDifficulty:5
ApproachRate:5
SliderMultiplier:1.4
SliderTickRate:1

[Events]
//Background and Video events
0,0,"doggos.jpg",0,-10
//Break Periods
//Storyboard Layer 0 (Background)
//Storyboard Layer 1 (Fail)
//Storyboard Layer 2 (Pass)
//Storyboard Layer 3 (Foreground)
//Storyboard Layer 4 (Overlay)
//Storyboard Sound Samples

[TimingPoints]
710,363.636363636364,4,1,0,75,1,0
11982,-99.009900990099,4,1,0,75,0,0
12073,-98.0392156862745,4,1,0,75,0,0
12164,-97.0873786407767,4,1,0,75,0,0
12255,-96.1538461538461,4,1,0,75,0,0
12346,-95.2380952380952,4,1,0,75,0,1
16619,-95.2380952380952,4,1,0,75,0,0
16891,-100,4,1,0,75,0,0
18164,363.636363636364,4,1,0,75,1,8
18169,363.636363636364,4,1,0,75,1,0
29442,-99.009900990099,4,1,0,75,0,0
29533,-98.0392156862745,4,1,0,75,0,0
29624,-97.0873786407767,4,1,0,75,0,0
29715,-96.1538461538461,4,1,0,75,0,0
29805,-95.2380952380952,4,1,0,75,0,1
34078,-95.2380952380952,4,1,0,75,0,0
34351,-100,4,1,0,75,0,0

[HitObjects]
334,207,710,5,8,1:0:0:0:
334,200,891,1,0,1:0:0:0:
298,194,1073,1,8,1:0:0:0:
297,188,1255,1,0,1:0:0:0:
297,187,1346,1,0,1:0:0:0:
292,88,1437,1,8,1:0:0:0:
298,33,1619,1,8,1:0:0:0:
297,52,1800,1,8,1:0:0:0:
297,53,1891,1,0,1:0:0:0:
297,53,1982,1,8,1:0:0:0:
297,53,2073,1,8,1:0:0:0:
297,55,2164,1,0,1:0:0:0:
363,128,2346,1,8,1:0:0:0:
363,128,2528,1,0,1:0:0:0:
333,109,2710,1,0,1:0:0:0:
332,108,2800,1,0,1:0:0:0:
331,106,2891,1,8,1:0:0:0:
250,67,3073,1,0,1:0:0:0:
250,67,3255,1,0,1:0:0:0:
250,67,3346,1,8,1:0:0:0:
251,67,3619,1,8,1:0:0:0:
376,196,3800,1,0,1:0:0:0:
379,202,3982,1,8,1:0:0:0:
338,171,4164,1,8,1:0:0:0:
338,171,4255,1,8,1:0:0:0:
338,171,4346,1,0,1:0:0:0:
338,171,4528,1,8,1:0:0:0:
338,171,4710,1,0,1:0:0:0:
338,171,4800,1,0,1:0:0:0:
338,171,4891,1,8,1:0:0:0:
338,171,4982,1,8,1:0:0:0:
338,171,5073,1,0,1:0:0:0:
338,171,5437,1,0,1:0:0:0:
278,63,5619,1,0,1:0:0:0:
278,63,5800,1,8,1:0:0:0:
282,62,5891,1,8,1:0:0:0:
282,61,5982,1,0,1:0:0:0:
283,60,6073,1,8,1:0:0:0:
283,58,6164,1,0,1:0:0:0:
283,58,6346,1,8,1:0:0:0:
283,58,6437,1,0,1:0:0:0:
283,58,6528,1,8,1:0:0:0:
349,160,6710,1,8,1:0:0:0:
388,65,6891,1,0,1:0:0:0:
369,146,7073,1,0,1:0:0:0:
369,145,7164,1,0,1:0:0:0:
369,144,7255,1,8,1:0:0:0:
368,144,7437,1,8,1:0:0:0:
368,142,7619,1,0,1:0:0:0:
361,109,7710,1,0,1:0:0:0:
360,106,7800,1,8,1:0:0:0:
359,103,7891,1,0,1:0:0:0:
359,103,7982,1,8,1:0:0:0:
358,103,8164,1,8,1:0:0:0:
251,103,8346,1,0,1:0:0:0:
253,126,8528,1,8,1:0:0:0:
251,123,8619,1,0,1:0:0:0:
251,123,8710,1,8,1:0:0:0:
251,122,8891,1,8,1:0:0:0:
251,122,9073,1,0,1:0:0:0:
251,122,9164,1,8,1:0:0:0:
250,148,9437,1,8,1:0:0:0:
196,217,9619,1,8,1:0:0:0:
193,215,9800,1,0,1:0:0:0:
152,253,9982,1,8,1:0:0:0:
153,252,10073,1,8,1:0:0:0:
153,252,10164,1,0,1:0:0:0:
301,237,10346,1,8,1:0:0:0:
301,235,10528,1,8,1:0:0:0:
301,235,10619,1,0,1:0:0:0:
301,235,10710,1,8,1:0:0:0:
301,233,10800,1,8,1:0:0:0:
301,233,10891,1,0,1:0:0:0:
351,74,11255,1,8,1:0:0:0:
221,36,11437,1,0,1:0:0:0:
222,35,11619,1,8,1:0:0:0:
222,35,11710,1,8,1:0:0:0:
222,35,11800,1,0,1:0:0:0:
313,232,11982,1,8,1:0:0:0:
313,232,12073,1,8,1:0:0:0:
313,232,12164,1,0,1:0:0:0:
313,232,12255,1,0,1:0:0:0:
313,232,12346,1,8,1:0:0:0:
286,98,12528,1,8,1:0:0:0:
285,257,12619,1,0,1:0:0:0:
278,260,12710,1,8,1:0:0:0:
286,98,12891,1,8,1:0:0:0:
365,78,12982,1,8,1:0:0:0:
286,98,13073,1,0,1:0:0:0:
271,245,13255,1,8,1:0:0:0:
286,98,13437,1,8,1:0:0:0:
296,141,13528,1,0,1:0:0:0:
296,141,13710,1,0,1:0:0:0:
296,141,13800,1,8,1:0:0:0:
360,119,13982,1,0,1:0:0:0:
360,117,14073,1,0,1:0:0:0:
359,116,14164,1,8,1:0:0:0:
266,223,14346,1,8,1:0:0:0:
290,264,14437,1,0,1:0:0:0:
398,105,14528,1,8,1:0:0:0:
398,105,14710,1,8,1:0:0:0:
389,172,14891,1,0,1:0:0:0:
389,169,14982,1,8,1:0:0:0:
389,167,15164,1,8,1:0:0:0:
389,167,15255,1,0,1:0:0:0:
269,134,15437,1,8,1:0:0:0:
287,137,15619,1,8,1:0:0:0:
274,132,15800,1,0,1:0:0:0:
332,195,15891,1,8,1:0:0:0:
250,72,15982,1,0,1:0:0:0:
266,174,16073,1,8,0:0:0:0:
250,72,16164,1,0,1:0:0:0:
251,72,16346,1,8,1:0:0:0:
255,71,16437,1,0,1:0:0:0:
255,71,16528,1,0,1:0:0:0:
255,71,16619,1,8,1:0:0:0:
371,107,17255,1,0,1:0:0:0:
375,114,17346,1,0,1:0:0:0:
371,107,17437,1,8,1:0:0:0:
361,102,17619,1,0,1:0:0:0:
361,102,17710,1,8,1:0:0:0:
356,102,17891,1,0,1:0:0:0:
356,102,17982,1,8,1:0:0:0:
264,102,18169,1,8,1:0:0:0:
334,200,18351,1,0,1:0:0:0:
298,194,18533,1,8,1:0:0:0:
297,188,18715,1,8,1:0:0:0:
297,187,18805,1,8,1:0:0:0:
292,88,18896,1,0,1:0:0:0:
298,33,19078,1,8,1:0:0:0:
297,52,19260,1,8,1:0:0:0:
297,53,19351,1,0,1:0:0:0:
297,53,19442,1,8,1:0:0:0:
297,53,19533,1,8,1:0:0:0:
297,55,19624,1,0,1:0:0:0:
363,128,19805,1,8,1:0:0:0:
363,128,19987,1,0,1:0:0:0:
333,109,20169,1,0,1:0:0:0:
332,108,20260,1,0,1:0:0:0:
331,106,20351,1,8,1:0:0:0:
250,67,20533,1,0,1:0:0:0:
250,67,20715,1,0,1:0:0:0:
250,67,20805,1,8,1:0:0:0:
251,67,21078,1,8,1:0:0:0:
376,196,21260,1,0,1:0:0:0:
379,202,21442,1,8,1:0:0:0:
338,171,21624,1,0,1:0:0:0:
338,171,21715,1,0,1:0:0:0:
338,171,21805,1,8,1:0:0:0:
338,171,21987,1,8,1:0:0:0:
338,171,22169,1,0,1:0:0:0:
338,171,22260,1,0,1:0:0:0:
338,171,22351,1,8,1:0:0:0:
338,171,22442,1,8,1:0:0:0:
338,171,22533,1,0,1:0:0:0:
338,171,22896,1,0,1:0:0:0:
278,63,23078,1,0,1:0:0:0:
278,63,23260,1,8,1:0:0:0:
282,62,23351,1,8,1:0:0:0:
282,61,23442,1,0,1:0:0:0:
283,60,23533,1,8,1:0:0:0:
283,58,23624,1,0,1:0:0:0:
283,58,23805,1,8,1:0:0:0:
283,58,23896,1,0,1:0:0:0:
283,58,23987,1,8,1:0:0:0:
349,160,24169,1,8,1:0:0:0:
388,65,24351,1,0,1:0:0:0:
369,146,24533,1,8,1:0:0:0:
369,145,24624,1,8,1:0:0:0:
369,144,24715,1,0,1:0:0:0:
368,144,24896,1,8,1:0:0:0:
368,142,25078,1,0,1:0:0:0:
361,109,25169,1,0,1:0:0:0:
360,106,25260,1,8,1:0:0:0:
359,103,25351,1,0,1:0:0:0:
359,103,25442,1,8,1:0:0:0:
358,103,25624,1,8,1:0:0:0:
251,103,25805,1,0,1:0:0:0:
253,126,25987,1,8,1:0:0:0:
251,123,26078,1,0,1:0:0:0:
251,123,26169,1,8,1:0:0:0:
251,122,26351,1,8,1:0:0:0:
251,122,26533,1,0,1:0:0:0:
251,122,26624,1,8,1:0:0:0:
250,148,26896,1,8,1:0:0:0:
196,217,27078,1,8,1:0:0:0:
193,215,27260,1,0,1:0:0:0:
152,253,27442,1,0,1:0:0:0:
153,252,27533,1,0,1:0:0:0:
153,252,27624,1,8,1:0:0:0:
301,237,27805,1,8,1:0:0:0:
301,235,27987,1,8,1:0:0:0:
301,235,28078,1,0,1:0:0:0:
301,235,28169,1,8,1:0:0:0:
301,233,28260,1,8,1:0:0:0:
301,233,28351,1,0,1:0:0:0:
351,74,28715,1,8,1:0:0:0:
221,36,28896,1,0,1:0:0:0:
222,35,29078,1,8,1:0:0:0:
222,35,29169,1,8,1:0:0:0:
222,35,29260,1,0,1:0:0:0:
313,232,29442,1,0,1:0:0:0:
313,232,29533,1,8,1:0:0:0:
313,232,29624,1,0,1:0:0:0:
313,232,29715,1,0,1:0:0:0:
313,232,29805,1,8,1:0:0:0:
286,98,29987,1,8,1:0:0:0:
365,78,30078,1,8,1:0:0:0:
286,98,30169,1,0,1:0:0:0:
286,98,30351,1,8,1:0:0:0:
286,98,30442,1,0,1:0:0:0:
307,183,30533,1,8,1:0:0:0:
286,98,30715,1,0,1:0:0:0:
286,98,30896,1,8,1:0:0:0:
296,141,30987,1,0,1:0:0:0:
296,141,31169,1,0,1:0:0:0:
296,141,31260,1,8,1:0:0:0:
340,207,31442,1,8,1:0:0:0:
267,190,31533,1,0,1:0:0:0:
359,116,31624,1,8,1:0:0:0:
398,105,31805,1,0,1:0:0:0:
360,117,31896,1,0,1:0:0:0:
398,105,31987,1,8,1:0:0:0:
398,105,32169,1,8,1:0:0:0:
389,172,32351,1,0,1:0:0:0:
389,169,32442,1,8,1:0:0:0:
389,167,32624,1,8,1:0:0:0:
389,167,32715,1,0,1:0:0:0:
269,134,32896,1,8,1:0:0:0:
287,137,33078,1,8,1:0:0:0:
274,132,33260,1,0,1:0:0:0:
332,195,33351,1,8,1:0:0:0:
250,72,33442,1,0,1:0:0:0:
167,181,33533,1,8,0:0:0:0:
250,72,33624,1,0,1:0:0:0:
251,72,33805,1,8,1:0:0:0:
255,71,33896,1,0,1:0:0:0:
255,71,33987,1,0,1:0:0:0:
255,71,34078,1,8,1:0:0:0:
371,107,34715,1,0,1:0:0:0:
375,114,34805,1,0,1:0:0:0:
371,107,34896,1,8,1:0:0:0:
361,102,35078,1,0,1:0:0:0:
361,102,35169,1,8,1:0:0:0:
356,102,35351,1,0,1:0:0:0:
356,102,35442,1,8,1:0:0:0:
