osu file format v14

[General]
AudioFilename: audio.ogg
AudioLeadIn: 0
PreviewTime: 619
Countdown: 0
SampleSet: Normal
StackLeniency: 0.7
Mode: 1
LetterboxInBreaks: 0
WidescreenStoryboard: 1

[Editor]
DistanceSpacing: 1.1
BeatDivisor: 4
GridSize: 32
TimelineZoom: 1.5

[Metadata]
Title:alarm_titlescreen
TitleUnicode:alarm_titlescreen
Artist:Toby Fox
ArtistUnicode:Toby Fox
Creator:realy0_
Version:Kantan
Source:DELTARUNE
Tags:annoying dog doggo delta rune undertale car joke video game chiptune instrumental alarm titlescreen deltarune: chapter 2 two 8bit 8-bit dogcheck
BeatmapID:3495397
BeatmapSetID:1616932

[Difficulty]
HPDrainRate:8
CircleSize:5
OverallDifficulty:2
ApproachRate:5
SliderMultiplier:1.4
SliderTickRate:1

[Events]
//Background and Video events
0,0,"doggos.jpg",0,-10
//Break Periods
//Storyboard Layer 0 (Background)
//Storyboard Layer 1 (Fail)
//Storyboard Layer 2 (Pass)
//Storyboard Layer 3 (Foreground)
//Storyboard Layer 4 (Overlay)
//Storyboard Sound Samples

[TimingPoints]
710,363.636363636364,4,1,0,75,1,0
710,-111.111111111111,4,1,0,75,0,0
11982,-111.111111111111,4,1,0,75,0,0
12073,-111.111111111111,4,1,0,75,0,0
12164,-111.111111111111,4,1,0,75,0,0
12255,-111.111111111111,4,1,0,75,0,0
12346,-111.111111111111,4,1,0,75,0,1
16619,-111.111111111111,4,1,0,75,0,0
16891,-111.111111111111,4,1,0,75,0,0
18164,363.636363636364,4,1,0,75,1,8
18169,363.636363636364,4,1,0,75,1,0
18169,-111.111111111111,4,1,0,75,0,0
29442,-111.111111111111,4,1,0,75,0,0
29533,-111.111111111111,4,1,0,75,0,0
29624,-111.111111111111,4,1,0,75,0,0
29715,-111.111111111111,4,1,0,75,0,0
29805,-111.111111111111,4,1,0,75,0,1
34078,-111.111111111111,4,1,0,75,0,0
34351,-111.111111111111,4,1,0,75,0,0

[HitObjects]
240,195,710,5,8,0:0:0:0:
231,192,1437,1,0,0:0:0:0:
227,181,1800,1,8,0:0:0:0:
227,181,2164,1,0,0:0:0:0:
226,181,2891,1,8,0:0:0:0:
193,191,3619,1,0,0:0:0:0:
284,209,4346,1,8,0:0:0:0:
284,209,4710,1,8,0:0:0:0:
284,209,5073,1,0,0:0:0:0:
238,175,6528,1,8,0:0:0:0:
309,214,7255,1,0,0:0:0:0:
309,214,7619,1,0,0:0:0:0:
309,214,7982,1,8,0:0:0:0:
309,214,8710,1,8,0:0:0:0:
309,214,9437,1,0,0:0:0:0:
266,205,10164,1,8,0:0:0:0:
266,205,10528,1,8,0:0:0:0:
266,205,10891,1,0,0:0:0:0:
283,178,11982,1,0,0:0:0:0:
285,179,12346,1,8,0:0:0:0:
286,181,12710,1,8,0:0:0:0:
276,183,13073,1,0,0:0:0:0:
252,178,13800,1,8,0:0:0:0:
208,168,14164,1,0,0:0:0:0:
208,168,14528,1,0,0:0:0:0:
208,168,14891,1,8,0:0:0:0:
208,168,15255,1,0,0:0:0:0:
206,115,15982,1,8,0:0:0:0:
206,115,16346,1,0,0:0:0:0:
206,115,16619,1,8,0:0:0:0:
241,176,18169,1,8,0:0:0:0:
231,192,18533,1,0,0:0:0:0:
227,181,18896,1,8,0:0:0:0:
227,181,19624,1,0,0:0:0:0:
193,191,20351,1,8,0:0:0:0:
260,161,21078,1,0,0:0:0:0:
258,162,21442,1,0,0:0:0:0:
284,209,21806,1,8,0:0:0:0:
284,209,22533,1,0,0:0:0:0:
238,175,23988,1,8,0:0:0:0:
309,214,24351,1,8,0:0:0:0:
309,214,24715,1,0,0:0:0:0:
309,214,25442,1,8,0:0:0:0:
309,214,26170,1,8,0:0:0:0:
309,214,26897,1,0,0:0:0:0:
309,214,27260,1,8,0:0:0:0:
266,205,27624,1,0,0:0:0:0:
266,205,28351,1,8,0:0:0:0:
283,178,29441,1,0,0:0:0:0:
285,179,29805,1,8,0:0:0:0:
286,181,30169,1,8,0:0:0:0:
276,183,30532,1,0,0:0:0:0:
252,178,31260,1,8,0:0:0:0:
208,168,31623,1,8,0:0:0:0:
208,168,31987,1,0,0:0:0:0:
208,168,32350,1,0,0:0:0:0:
208,168,32714,1,8,0:0:0:0:
206,115,33441,1,8,0:0:0:0:
206,115,33805,1,0,0:0:0:0:
206,115,34078,1,8,0:0:0:0:
278,208,34896,1,0,0:0:0:0:
278,208,35442,1,0,0:0:0:0:
