osu file format v14

[General]
AudioFilename: audio.ogg
AudioLeadIn: 0
PreviewTime: 619
Countdown: 0
SampleSet: Normal
StackLeniency: 0.7
Mode: 1
LetterboxInBreaks: 0
WidescreenStoryboard: 1

[Editor]
DistanceSpacing: 1.1
BeatDivisor: 4
GridSize: 32
TimelineZoom: 2.4

[Metadata]
Title:alarm_titlescreen
TitleUnicode:alarm_titlescreen
Artist:Toby Fox
ArtistUnicode:Toby Fox
Creator:realy0_
Version:Futsuu
Source:DELTARUNE
Tags:annoying dog doggo delta rune undertale car joke video game chiptune instrumental alarm titlescreen deltarune: chapter 2 two 8bit 8-bit dogcheck
BeatmapID:3415611
BeatmapSetID:1616932

[Difficulty]
HPDrainRate:7
CircleSize:5
OverallDifficulty:3
ApproachRate:5
SliderMultiplier:1.4
SliderTickRate:1

[Events]
//Background and Video events
0,0,"doggos.jpg",0,-10
//Break Periods
//Storyboard Layer 0 (Background)
//Storyboard Layer 1 (Fail)
//Storyboard Layer 2 (Pass)
//Storyboard Layer 3 (Foreground)
//Storyboard Layer 4 (Overlay)
//Storyboard Sound Samples

[TimingPoints]
710,363.636363636364,4,1,0,75,1,0
710,-105.263157894737,4,1,0,75,0,0
11982,-105.263157894737,4,1,0,75,0,0
12073,-105.263157894737,4,1,0,75,0,0
12164,-105.263157894737,4,1,0,75,0,0
12255,-105.263157894737,4,1,0,75,0,0
12346,-105.263157894737,4,1,0,75,0,1
16619,-105.263157894737,4,1,0,75,0,0
16891,-105.263157894737,4,1,0,75,0,0
18164,363.636363636364,4,1,0,75,1,8
18169,363.636363636364,4,1,0,75,1,0
18169,-105.263157894737,4,1,0,75,0,0
29442,-105.263157894737,4,1,0,75,0,0
29533,-105.263157894737,4,1,0,75,0,0
29624,-105.263157894737,4,1,0,75,0,0
29715,-105.263157894737,4,1,0,75,0,0
29805,-105.263157894737,4,1,0,75,0,1
34078,-105.263157894737,4,1,0,75,0,0
34351,-105.263157894737,4,1,0,75,0,0

[HitObjects]
274,188,710,5,8,0:0:0:0:
224,161,1073,1,8,0:0:0:0:
288,161,1255,1,0,0:0:0:0:
238,186,1437,1,0,0:0:0:0:
288,160,1800,1,8,0:0:0:0:
288,160,2164,1,0,0:0:0:0:
288,160,2891,1,8,0:0:0:0:
355,154,3255,1,0,0:0:0:0:
352,155,3619,1,8,0:0:0:0:
353,152,3982,1,8,0:0:0:0:
353,152,4164,1,8,0:0:0:0:
353,152,4346,1,0,0:0:0:0:
353,152,4710,1,8,0:0:0:0:
353,152,5073,1,0,0:0:0:0:
289,90,5800,1,8,0:0:0:0:
364,97,6073,1,8,0:0:0:0:
364,97,6346,1,0,0:0:0:0:
364,97,6528,1,8,0:0:0:0:
274,186,6891,1,8,0:0:0:0:
288,161,7073,1,0,0:0:0:0:
288,161,7255,1,8,0:0:0:0:
288,160,7618,1,8,0:0:0:0:
288,160,7982,1,0,0:0:0:0:
288,160,8709,1,8,0:0:0:0:
355,154,9073,1,0,0:0:0:0:
352,155,9437,1,8,0:0:0:0:
353,152,9800,1,0,0:0:0:0:
353,152,9982,1,0,0:0:0:0:
353,152,10164,1,8,0:0:0:0:
353,152,10528,1,8,0:0:0:0:
353,152,10891,1,0,0:0:0:0:
289,90,11618,5,8,0:0:0:0:
267,183,11982,1,0,0:0:0:0:
364,97,12164,1,0,0:0:0:0:
364,97,12346,1,8,0:0:0:0:
234,174,12710,1,8,0:0:0:0:
234,174,12891,1,0,0:0:0:0:
234,174,13073,1,8,0:0:0:0:
232,169,13437,1,8,0:0:0:0:
228,158,13710,1,0,0:0:0:0:
333,81,14164,1,8,0:0:0:0:
331,90,14346,1,8,0:0:0:0:
329,98,14528,1,0,0:0:0:0:
328,95,14891,1,0,0:0:0:0:
327,93,15164,1,8,0:0:0:0:
367,144,15619,1,0,0:0:0:0:
366,144,15800,1,0,0:0:0:0:
366,144,15982,1,8,0:0:0:0:
363,142,16164,1,8,0:0:0:0:
363,142,16346,1,0,0:0:0:0:
363,142,16619,1,8,0:0:0:0:
351,133,17437,1,0,0:0:0:0:
351,133,17710,1,0,0:0:0:0:
351,133,17982,1,0,0:0:0:0:
274,188,18169,5,8,0:0:0:0:
274,186,18532,1,8,0:0:0:0:
288,161,18714,1,8,0:0:0:0:
288,161,18896,1,0,0:0:0:0:
288,160,19259,1,8,0:0:0:0:
288,160,19623,1,0,0:0:0:0:
288,160,20350,1,8,0:0:0:0:
355,154,20714,1,0,0:0:0:0:
352,155,21078,1,8,0:0:0:0:
353,152,21441,1,8,0:0:0:0:
353,152,21623,1,0,0:0:0:0:
353,152,21805,1,0,0:0:0:0:
353,152,22169,1,8,0:0:0:0:
353,152,22532,1,0,0:0:0:0:
289,90,23259,1,8,0:0:0:0:
364,97,23532,1,8,0:0:0:0:
364,97,23805,1,0,0:0:0:0:
364,97,23987,1,8,0:0:0:0:
274,186,24350,1,0,0:0:0:0:
288,161,24532,1,0,0:0:0:0:
288,161,24714,1,8,0:0:0:0:
288,160,25077,1,8,0:0:0:0:
288,160,25441,1,0,0:0:0:0:
288,160,26168,1,8,0:0:0:0:
355,154,26532,1,0,0:0:0:0:
352,155,26896,1,8,0:0:0:0:
353,152,27259,1,8,0:0:0:0:
353,152,27441,1,0,0:0:0:0:
353,152,27623,1,8,0:0:0:0:
353,152,27987,1,8,0:0:0:0:
353,152,28350,1,0,0:0:0:0:
289,90,29077,5,8,0:0:0:0:
267,183,29441,1,0,0:0:0:0:
364,97,29623,1,0,0:0:0:0:
364,97,29805,1,8,0:0:0:0:
234,174,30169,1,8,0:0:0:0:
234,174,30350,1,8,0:0:0:0:
234,174,30532,1,0,0:0:0:0:
232,169,30896,1,8,0:0:0:0:
228,158,31169,1,0,0:0:0:0:
333,81,31623,1,8,0:0:0:0:
331,90,31805,1,0,0:0:0:0:
329,98,31987,1,8,0:0:0:0:
328,95,32350,1,0,0:0:0:0:
327,93,32623,1,8,0:0:0:0:
367,144,33078,1,8,0:0:0:0:
366,144,33259,1,0,0:0:0:0:
366,144,33441,1,8,0:0:0:0:
363,142,33623,1,8,0:0:0:0:
363,142,33805,1,0,0:0:0:0:
363,142,34078,1,8,0:0:0:0:
351,133,34896,1,0,0:0:0:0:
351,133,35169,1,0,0:0:0:0:
351,133,35441,1,0,0:0:0:0:
