osu file format v14

[General]
AudioFilename: audio.ogg
AudioLeadIn: 0
PreviewTime: 619
Countdown: 0
SampleSet: Normal
StackLeniency: 0.7
Mode: 1
LetterboxInBreaks: 0
WidescreenStoryboard: 0

[Editor]
DistanceSpacing: 1.1
BeatDivisor: 4
GridSize: 32
TimelineZoom: 2.999999

[Metadata]
Title:alarm_titlescreen
TitleUnicode:alarm_titlescreen
Artist:Toby Fox
ArtistUnicode:Toby Fox
Creator:realy0_
Version:Dog Alert!
Source:DELTARUNE
Tags:annoying dog doggo delta rune undertale car joke video game chiptune instrumental alarm titlescreen deltarune: chapter 2 two 8bit 8-bit dogcheck
BeatmapID:3301531
BeatmapSetID:1616932

[Difficulty]
HPDrainRate:6
CircleSize:5
OverallDifficulty:6
ApproachRate:5
SliderMultiplier:1.4
SliderTickRate:1

[Events]
//Background and Video events
0,0,"doggos.jpg",0,-10
//Break Periods
//Storyboard Layer 0 (Background)
//Storyboard Layer 1 (Fail)
//Storyboard Layer 2 (Pass)
//Storyboard Layer 3 (Foreground)
//Storyboard Layer 4 (Overlay)
//Storyboard Sound Samples

[TimingPoints]
710,363.636363636364,4,1,0,75,1,0
889,-101.010101010101,4,1,0,75,0,0
1071,-102.040816326531,4,1,0,75,0,0
1162,-102.564102564103,4,1,0,75,0,0
1253,-103.092783505155,4,1,0,75,0,0
1344,-103.626943005181,4,1,0,75,0,0
1435,-104.166666666667,4,1,0,75,0,0
1526,-104.712041884817,4,1,0,75,0,0
1617,-105.263157894737,4,1,0,75,0,0
1798,-106.382978723404,4,1,0,75,0,0
1889,-106.951871657754,4,1,0,75,0,0
1980,-107.52688172043,4,1,0,75,0,0
2071,-108.108108108108,4,1,0,75,0,0
2162,-108.695652173913,4,1,0,75,0,0
2344,-109.89010989011,4,1,0,75,0,0
2435,-110.497237569061,4,1,0,75,0,0
2526,-111.111111111111,4,1,0,75,0,0
2617,-111.731843575419,4,1,0,75,0,0
2708,-112.359550561798,4,1,0,75,0,0
2798,-116.279069767442,4,1,0,75,0,0
2844,-114.942528735632,4,1,0,75,0,0
2889,-113.636363636364,4,1,0,75,0,0
2980,-114.285714285714,4,1,0,75,0,0
3071,-114.942528735632,4,1,0,75,0,0
3162,-115.606936416185,4,1,0,75,0,0
3253,-116.279069767442,4,1,0,75,0,0
3344,-116.959064327485,4,1,0,75,0,0
3435,-108.695652173913,4,1,0,75,0,0
3480,-106.382978723404,4,1,0,75,0,0
3526,-104.166666666667,4,1,0,75,0,0
3571,-102.040816326531,4,1,0,75,0,0
3617,-100,4,1,0,75,0,0
3798,-101.010101010101,4,1,0,75,0,0
3980,-102.040816326531,4,1,0,75,0,0
4071,-102.564102564103,4,1,0,75,0,0
4162,-103.092783505155,4,1,0,75,0,0
4253,-103.626943005181,4,1,0,75,0,0
4344,-104.166666666667,4,1,0,75,0,0
4435,-104.712041884817,4,1,0,75,0,0
4526,-105.263157894737,4,1,0,75,0,0
4708,-106.382978723404,4,1,0,75,0,0
4798,-106.951871657754,4,1,0,75,0,0
4889,-107.52688172043,4,1,0,75,0,0
4980,-108.108108108108,4,1,0,75,0,0
5071,-108.695652173913,4,1,0,75,0,0
5253,-109.89010989011,4,1,0,75,0,0
5344,-110.497237569061,4,1,0,75,0,0
5435,-111.111111111111,4,1,0,75,0,0
5526,-111.731843575419,4,1,0,75,0,0
5617,-112.359550561798,4,1,0,75,0,0
5708,-112.994350282486,4,1,0,75,0,0
5798,-106.951871657754,4,1,0,75,0,0
5889,-108.108108108108,4,1,0,75,0,0
5980,-109.289617486339,4,1,0,75,0,0
6071,-110.497237569061,4,1,0,75,0,0
6162,-111.731843575419,4,1,0,75,0,0
6253,-112.994350282486,4,1,0,75,0,0
6344,-108.695652173913,4,1,0,75,0,0
6389,-106.382978723404,4,1,0,75,0,0
6435,-104.166666666667,4,1,0,75,0,0
6480,-102.040816326531,4,1,0,75,0,0
6526,-100,4,1,0,75,0,0
6708,-101.010101010101,4,1,0,75,0,0
6889,-102.040816326531,4,1,0,75,0,0
6980,-102.564102564103,4,1,0,75,0,0
7071,-103.092783505155,4,1,0,75,0,0
7162,-103.626943005181,4,1,0,75,0,0
7253,-104.166666666667,4,1,0,75,0,0
7344,-104.712041884817,4,1,0,75,0,0
7435,-105.263157894737,4,1,0,75,0,0
7617,-106.382978723404,4,1,0,75,0,0
7708,-106.951871657754,4,1,0,75,0,0
7798,-107.52688172043,4,1,0,75,0,0
7889,-108.108108108108,4,1,0,75,0,0
7980,-108.695652173913,4,1,0,75,0,0
8162,-109.89010989011,4,1,0,75,0,0
8253,-110.497237569061,4,1,0,75,0,0
8344,-111.111111111111,4,1,0,75,0,0
8435,-111.731843575419,4,1,0,75,0,0
8526,-112.359550561798,4,1,0,75,0,0
8617,-116.279069767442,4,1,0,75,0,0
8662,-114.942528735632,4,1,0,75,0,0
8708,-113.636363636364,4,1,0,75,0,0
8798,-114.285714285714,4,1,0,75,0,0
8889,-114.942528735632,4,1,0,75,0,0
8980,-115.606936416185,4,1,0,75,0,0
9071,-116.279069767442,4,1,0,75,0,0
9162,-116.959064327485,4,1,0,75,0,0
9253,-108.695652173913,4,1,0,75,0,0
9298,-106.382978723404,4,1,0,75,0,0
9344,-104.166666666667,4,1,0,75,0,0
9389,-102.040816326531,4,1,0,75,0,0
9435,-100,4,1,0,75,0,0
9617,-101.010101010101,4,1,0,75,0,0
9798,-102.040816326531,4,1,0,75,0,0
9889,-102.564102564103,4,1,0,75,0,0
9980,-103.092783505155,4,1,0,75,0,0
10071,-103.626943005181,4,1,0,75,0,0
10162,-104.166666666667,4,1,0,75,0,0
10253,-104.712041884817,4,1,0,75,0,0
10344,-105.263157894737,4,1,0,75,0,0
10526,-106.382978723404,4,1,0,75,0,0
10617,-106.951871657754,4,1,0,75,0,0
10708,-107.52688172043,4,1,0,75,0,0
10798,-108.108108108108,4,1,0,75,0,0
10889,-108.695652173913,4,1,0,75,0,0
11071,-109.89010989011,4,1,0,75,0,0
11162,-110.497237569061,4,1,0,75,0,0
11253,-111.111111111111,4,1,0,75,0,0
11344,-111.731843575419,4,1,0,75,0,0
11435,-112.359550561798,4,1,0,75,0,0
11526,-112.994350282486,4,1,0,75,0,0
11617,-106.951871657754,4,1,0,75,0,0
11708,-108.108108108108,4,1,0,75,0,0
11798,-109.289617486339,4,1,0,75,0,0
11889,-110.497237569061,4,1,0,75,0,0
11980,-111.731843575419,4,1,0,75,0,0
12071,-112.359550561798,4,1,0,75,0,0
12162,-112.994350282486,4,1,0,75,0,0
12253,-113.636363636364,4,1,0,75,0,0
12346,-95.2380952380952,4,1,0,75,0,1
12435,-94.7867298578199,4,1,0,75,0,1
12526,-94.3396226415094,4,1,0,75,0,1
12617,-93.8967136150235,4,1,0,75,0,1
12708,-93.4579439252336,4,1,0,75,0,1
12798,-93.0232558139535,4,1,0,75,0,1
12889,-92.5925925925926,4,1,0,75,0,1
12980,-92.1658986175115,4,1,0,75,0,1
13071,-91.743119266055,4,1,0,75,0,1
13162,-91.324200913242,4,1,0,75,0,1
13253,-90.9090909090909,4,1,0,75,0,1
13344,-90.4977375565611,4,1,0,75,0,1
13435,-90.0900900900901,4,1,0,75,0,1
13526,-89.6860986547085,4,1,0,75,0,1
13617,-89.2857142857143,4,1,0,75,0,1
13708,-88.8888888888889,4,1,0,75,0,1
13798,-88.4955752212389,4,1,0,75,0,1
13889,-88.8888888888889,4,1,0,75,0,1
13980,-89.2857142857143,4,1,0,75,0,1
14071,-89.6860986547085,4,1,0,75,0,1
14162,-90.0900900900901,4,1,0,75,0,1
14253,-90.4977375565611,4,1,0,75,0,1
14344,-90.9090909090909,4,1,0,75,0,1
14435,-91.324200913242,4,1,0,75,0,1
14526,-91.743119266055,4,1,0,75,0,1
14617,-92.1658986175115,4,1,0,75,0,1
14708,-92.5925925925926,4,1,0,75,0,1
14798,-93.0232558139535,4,1,0,75,0,1
14889,-93.4579439252336,4,1,0,75,0,1
14980,-93.8967136150235,4,1,0,75,0,1
15071,-94.3396226415094,4,1,0,75,0,1
15162,-94.7867298578199,4,1,0,75,0,1
15253,-95.2380952380952,4,1,0,75,0,1
15435,-89.2857142857143,4,1,0,75,0,1
15526,-89.6860986547085,4,1,0,75,0,1
15617,-90.0900900900901,4,1,0,75,0,1
15708,-90.4977375565611,4,1,0,75,0,1
15798,-90.9090909090909,4,1,0,75,0,1
15889,-91.324200913242,4,1,0,75,0,1
15980,-91.743119266055,4,1,0,75,0,1
16071,-92.1658986175115,4,1,0,75,0,1
16162,-92.5925925925926,4,1,0,75,0,1
16253,-93.0232558139535,4,1,0,75,0,1
16344,-93.4579439252336,4,1,0,75,0,1
16435,-93.8967136150235,4,1,0,75,0,1
16526,-94.3396226415094,4,1,0,75,0,1
16619,-94.7867298578199,4,1,0,75,0,0
16708,-95.2380952380952,4,1,0,75,0,0
16889,-100,4,1,0,75,0,0
17344,-101.010101010101,4,1,0,75,0,0
17435,-102.040816326531,4,1,0,75,0,0
17526,-106.382978723404,4,1,0,75,0,0
17617,-107.52688172043,4,1,0,75,0,0
17708,-108.695652173913,4,1,0,75,0,0
17798,-113.636363636364,4,1,0,75,0,0
17889,-114.942528735632,4,1,0,75,0,0
17980,-116.279069767442,4,1,0,75,0,0
18071,-121.951219512195,4,1,0,75,0,0
18162,-100,4,1,0,75,0,0
18164,363.636363636364,4,1,0,75,1,8
18169,363.636363636364,4,1,0,75,1,0
18349,-101.010101010101,4,1,0,75,0,0
18531,-102.040816326531,4,1,0,75,0,0
18622,-102.564102564103,4,1,0,75,0,0
18713,-103.092783505155,4,1,0,75,0,0
18803,-103.626943005181,4,1,0,75,0,0
18894,-104.166666666667,4,1,0,75,0,0
18985,-104.712041884817,4,1,0,75,0,0
19076,-105.263157894737,4,1,0,75,0,0
19258,-106.382978723404,4,1,0,75,0,0
19349,-106.951871657754,4,1,0,75,0,0
19440,-107.52688172043,4,1,0,75,0,0
19531,-108.108108108108,4,1,0,75,0,0
19622,-108.695652173913,4,1,0,75,0,0
19803,-109.89010989011,4,1,0,75,0,0
19894,-110.497237569061,4,1,0,75,0,0
19985,-111.111111111111,4,1,0,75,0,0
20076,-111.731843575419,4,1,0,75,0,0
20167,-112.359550561798,4,1,0,75,0,0
20258,-116.279069767442,4,1,0,75,0,0
20303,-114.942528735632,4,1,0,75,0,0
20349,-113.636363636364,4,1,0,75,0,0
20440,-114.285714285714,4,1,0,75,0,0
20531,-114.942528735632,4,1,0,75,0,0
20622,-115.606936416185,4,1,0,75,0,0
20713,-116.279069767442,4,1,0,75,0,0
20803,-116.959064327485,4,1,0,75,0,0
20894,-108.695652173913,4,1,0,75,0,0
20940,-106.382978723404,4,1,0,75,0,0
20985,-104.166666666667,4,1,0,75,0,0
21031,-102.040816326531,4,1,0,75,0,0
21076,-100,4,1,0,75,0,0
21258,-101.010101010101,4,1,0,75,0,0
21440,-102.040816326531,4,1,0,75,0,0
21531,-102.564102564103,4,1,0,75,0,0
21622,-103.092783505155,4,1,0,75,0,0
21713,-103.626943005181,4,1,0,75,0,0
21803,-104.166666666667,4,1,0,75,0,0
21894,-104.712041884817,4,1,0,75,0,0
21985,-105.263157894737,4,1,0,75,0,0
22167,-106.382978723404,4,1,0,75,0,0
22258,-106.951871657754,4,1,0,75,0,0
22349,-107.52688172043,4,1,0,75,0,0
22440,-108.108108108108,4,1,0,75,0,0
22531,-108.695652173913,4,1,0,75,0,0
22713,-109.89010989011,4,1,0,75,0,0
22803,-110.497237569061,4,1,0,75,0,0
22894,-111.111111111111,4,1,0,75,0,0
22985,-111.731843575419,4,1,0,75,0,0
23076,-112.359550561798,4,1,0,75,0,0
23167,-112.994350282486,4,1,0,75,0,0
23258,-106.951871657754,4,1,0,75,0,0
23349,-108.108108108108,4,1,0,75,0,0
23440,-109.289617486339,4,1,0,75,0,0
23531,-110.497237569061,4,1,0,75,0,0
23622,-111.731843575419,4,1,0,75,0,0
23713,-112.994350282486,4,1,0,75,0,0
23803,-108.695652173913,4,1,0,75,0,0
23849,-106.382978723404,4,1,0,75,0,0
23894,-104.166666666667,4,1,0,75,0,0
23940,-102.040816326531,4,1,0,75,0,0
23985,-100,4,1,0,75,0,0
24167,-101.010101010101,4,1,0,75,0,0
24349,-102.040816326531,4,1,0,75,0,0
24440,-102.564102564103,4,1,0,75,0,0
24531,-103.092783505155,4,1,0,75,0,0
24622,-103.626943005181,4,1,0,75,0,0
24713,-104.166666666667,4,1,0,75,0,0
24803,-104.712041884817,4,1,0,75,0,0
24894,-105.263157894737,4,1,0,75,0,0
25076,-106.382978723404,4,1,0,75,0,0
25167,-106.951871657754,4,1,0,75,0,0
25258,-107.52688172043,4,1,0,75,0,0
25349,-108.108108108108,4,1,0,75,0,0
25440,-108.695652173913,4,1,0,75,0,0
25622,-109.89010989011,4,1,0,75,0,0
25713,-110.497237569061,4,1,0,75,0,0
25803,-111.111111111111,4,1,0,75,0,0
25894,-111.731843575419,4,1,0,75,0,0
25985,-112.359550561798,4,1,0,75,0,0
26076,-116.279069767442,4,1,0,75,0,0
26122,-114.942528735632,4,1,0,75,0,0
26167,-113.636363636364,4,1,0,75,0,0
26258,-114.285714285714,4,1,0,75,0,0
26349,-114.942528735632,4,1,0,75,0,0
26440,-115.606936416185,4,1,0,75,0,0
26531,-116.279069767442,4,1,0,75,0,0
26622,-116.959064327485,4,1,0,75,0,0
26713,-108.695652173913,4,1,0,75,0,0
26758,-106.382978723404,4,1,0,75,0,0
26803,-104.166666666667,4,1,0,75,0,0
26849,-102.040816326531,4,1,0,75,0,0
26894,-100,4,1,0,75,0,0
27076,-101.010101010101,4,1,0,75,0,0
27258,-102.040816326531,4,1,0,75,0,0
27349,-102.564102564103,4,1,0,75,0,0
27440,-103.092783505155,4,1,0,75,0,0
27531,-103.626943005181,4,1,0,75,0,0
27622,-104.166666666667,4,1,0,75,0,0
27713,-104.712041884817,4,1,0,75,0,0
27803,-105.263157894737,4,1,0,75,0,0
27985,-106.382978723404,4,1,0,75,0,0
28076,-106.951871657754,4,1,0,75,0,0
28167,-107.52688172043,4,1,0,75,0,0
28258,-108.108108108108,4,1,0,75,0,0
28349,-108.695652173913,4,1,0,75,0,0
28531,-109.89010989011,4,1,0,75,0,0
28622,-110.497237569061,4,1,0,75,0,0
28713,-111.111111111111,4,1,0,75,0,0
28803,-111.731843575419,4,1,0,75,0,0
28894,-112.359550561798,4,1,0,75,0,0
28985,-112.994350282486,4,1,0,75,0,0
29076,-106.951871657754,4,1,0,75,0,0
29167,-108.108108108108,4,1,0,75,0,0
29258,-109.289617486339,4,1,0,75,0,0
29349,-110.497237569061,4,1,0,75,0,0
29440,-111.731843575419,4,1,0,75,0,0
29531,-112.359550561798,4,1,0,75,0,0
29622,-112.994350282486,4,1,0,75,0,0
29713,-113.636363636364,4,1,0,75,0,0
29805,-95.2380952380952,4,1,0,75,0,1
29894,-94.7867298578199,4,1,0,75,0,1
29985,-94.3396226415094,4,1,0,75,0,1
30076,-93.8967136150235,4,1,0,75,0,1
30167,-93.4579439252336,4,1,0,75,0,1
30258,-93.0232558139535,4,1,0,75,0,1
30349,-92.5925925925926,4,1,0,75,0,1
30440,-92.1658986175115,4,1,0,75,0,1
30531,-91.743119266055,4,1,0,75,0,1
30622,-91.324200913242,4,1,0,75,0,1
30713,-90.9090909090909,4,1,0,75,0,1
30803,-90.4977375565611,4,1,0,75,0,1
30894,-90.0900900900901,4,1,0,75,0,1
30985,-89.6860986547085,4,1,0,75,0,1
31076,-89.2857142857143,4,1,0,75,0,1
31167,-88.8888888888889,4,1,0,75,0,1
31258,-88.4955752212389,4,1,0,75,0,1
31349,-88.8888888888889,4,1,0,75,0,1
31440,-89.2857142857143,4,1,0,75,0,1
31531,-89.6860986547085,4,1,0,75,0,1
31622,-90.0900900900901,4,1,0,75,0,1
31713,-90.4977375565611,4,1,0,75,0,1
31803,-90.9090909090909,4,1,0,75,0,1
31894,-91.324200913242,4,1,0,75,0,1
31985,-91.743119266055,4,1,0,75,0,1
32076,-92.1658986175115,4,1,0,75,0,1
32167,-92.5925925925926,4,1,0,75,0,1
32258,-93.0232558139535,4,1,0,75,0,1
32349,-93.4579439252336,4,1,0,75,0,1
32440,-93.8967136150235,4,1,0,75,0,1
32531,-94.3396226415094,4,1,0,75,0,1
32622,-94.7867298578199,4,1,0,75,0,1
32713,-95.2380952380952,4,1,0,75,0,1
32894,-89.2857142857143,4,1,0,75,0,1
32985,-89.6860986547085,4,1,0,75,0,1
33076,-90.0900900900901,4,1,0,75,0,1
33167,-90.4977375565611,4,1,0,75,0,1
33258,-90.9090909090909,4,1,0,75,0,1
33349,-91.324200913242,4,1,0,75,0,1
33440,-91.743119266055,4,1,0,75,0,1
33531,-92.1658986175115,4,1,0,75,0,1
33622,-92.5925925925926,4,1,0,75,0,1
33713,-93.0232558139535,4,1,0,75,0,1
33803,-93.4579439252336,4,1,0,75,0,1
33894,-93.8967136150235,4,1,0,75,0,1
33985,-94.3396226415094,4,1,0,75,0,1
34078,-94.7867298578199,4,1,0,75,0,0
34167,-95.2380952380952,4,1,0,75,0,0
34349,-100,4,1,0,75,0,0
34803,-101.010101010101,4,1,0,75,0,0
34894,-102.040816326531,4,1,0,75,0,0
34985,-106.382978723404,4,1,0,75,0,0
35076,-107.52688172043,4,1,0,75,0,0
35167,-108.695652173913,4,1,0,75,0,0
35258,-113.636363636364,4,1,0,75,0,0
35349,-114.942528735632,4,1,0,75,0,0
35440,-116.279069767442,4,1,0,75,0,0
35531,-121.951219512195,4,1,0,75,0,0
35622,-100,4,1,0,75,0,0

[HitObjects]
229,137,710,5,8,1:0:0:0:
229,137,891,1,8,1:0:0:0:
218,91,1073,1,0,1:0:0:0:
272,142,1164,1,0,1:0:0:0:
218,91,1255,1,8,1:0:0:0:
226,131,1346,1,8,1:0:0:0:
226,131,1437,1,0,1:0:0:0:
206,121,1528,1,8,1:0:0:0:
226,131,1619,1,8,1:0:0:0:
226,131,1800,1,0,1:0:0:0:
341,169,1891,1,8,1:0:0:0:
341,169,1982,1,0,1:0:0:0:
341,169,2073,1,0,1:0:0:0:
337,172,2164,1,8,1:0:0:0:
301,128,2346,1,8,1:0:0:0:
445,86,2437,1,8,1:0:0:0:
307,199,2528,1,0,1:0:0:0:
205,116,2619,1,0,1:0:0:0:
205,116,2710,1,8,1:0:0:0:
379,204,2800,1,0,1:0:0:0:
261,182,2846,1,0,1:0:0:0:
261,182,2891,1,8,1:0:0:0:
10,190,2982,1,0,1:0:0:0:
345,245,3073,1,8,1:0:0:0:
345,245,3164,1,0,1:0:0:0:
345,245,3255,1,8,1:0:0:0:
345,245,3346,1,8,1:0:0:0:
328,188,3482,1,0,1:0:0:0:
345,245,3528,1,0,1:0:0:0:
328,188,3573,1,0,1:0:0:0:
329,67,3619,1,8,1:0:0:0:
229,137,3800,1,8,1:0:0:0:
218,91,3982,1,0,1:0:0:0:
272,142,4073,1,0,1:0:0:0:
218,91,4164,1,8,1:0:0:0:
226,131,4255,1,8,1:0:0:0:
226,131,4346,1,0,1:0:0:0:
206,121,4437,1,0,1:0:0:0:
226,131,4528,1,8,1:0:0:0:
226,131,4710,1,8,1:0:0:0:
341,169,4800,1,0,1:0:0:0:
341,169,4891,1,8,1:0:0:0:
341,169,4982,1,8,1:0:0:0:
337,172,5073,1,0,1:0:0:0:
301,128,5255,1,8,1:0:0:0:
445,86,5346,1,0,1:0:0:0:
307,199,5437,1,8,1:0:0:0:
205,116,5528,1,8,1:0:0:0:
205,116,5619,1,0,1:0:0:0:
379,204,5710,1,0,1:0:0:0:
261,182,5800,1,8,1:0:0:0:
10,190,5891,1,8,1:0:0:0:
345,245,5982,1,0,1:0:0:0:
345,245,6073,1,8,1:0:0:0:
345,245,6164,1,8,1:0:0:0:
345,245,6255,1,0,1:0:0:0:
345,245,6346,1,8,1:0:0:0:
183,116,6391,1,8,1:0:0:0:
345,245,6437,1,0,1:0:0:0:
183,116,6482,1,0,1:0:0:0:
329,67,6528,1,8,1:0:0:0:
219,96,6710,1,0,1:0:0:0:
288,110,6891,1,8,1:0:0:0:
273,147,6982,1,0,1:0:0:0:
219,96,7073,1,8,1:0:0:0:
227,136,7164,1,8,1:0:0:0:
227,136,7255,1,0,1:0:0:0:
207,126,7346,1,0,1:0:0:0:
227,136,7437,1,8,1:0:0:0:
227,136,7619,1,0,1:0:0:0:
342,174,7710,1,8,1:0:0:0:
342,174,7800,1,0,1:0:0:0:
342,174,7891,1,0,1:0:0:0:
338,177,7982,1,8,1:0:0:0:
302,133,8164,1,8,1:0:0:0:
446,91,8255,1,8,1:0:0:0:
308,204,8346,1,0,1:0:0:0:
206,121,8437,1,0,1:0:0:0:
206,121,8528,1,8,1:0:0:0:
380,209,8619,1,0,1:0:0:0:
262,187,8664,1,0,1:0:0:0:
262,187,8710,1,8,1:0:0:0:
11,195,8800,1,0,1:0:0:0:
346,250,8891,1,8,1:0:0:0:
346,250,8982,1,8,1:0:0:0:
346,250,9073,1,0,1:0:0:0:
346,250,9164,1,8,1:0:0:0:
329,193,9300,1,0,1:0:0:0:
346,250,9346,1,0,1:0:0:0:
329,193,9391,1,0,1:0:0:0:
330,72,9437,1,8,1:0:0:0:
219,96,9619,1,0,1:0:0:0:
230,142,9800,1,8,1:0:0:0:
273,147,9891,1,0,1:0:0:0:
219,96,9982,1,8,1:0:0:0:
227,136,10073,1,8,1:0:0:0:
227,136,10164,1,0,1:0:0:0:
207,126,10255,1,0,1:0:0:0:
227,136,10346,1,8,1:0:0:0:
342,174,10528,1,8,1:0:0:0:
227,136,10619,1,0,1:0:0:0:
342,174,10710,1,8,1:0:0:0:
342,174,10800,1,8,1:0:0:0:
338,177,10891,1,0,1:0:0:0:
302,133,11073,1,8,1:0:0:0:
446,91,11164,1,0,1:0:0:0:
308,204,11255,1,8,1:0:0:0:
206,121,11346,1,8,1:0:0:0:
206,121,11437,1,0,1:0:0:0:
380,209,11528,1,0,1:0:0:0:
262,187,11619,1,8,1:0:0:0:
11,195,11710,1,8,1:0:0:0:
346,250,11800,1,8,1:0:0:0:
346,250,11891,1,0,1:0:0:0:
346,250,11982,1,8,1:0:0:0:
346,250,12073,1,8,1:0:0:0:
346,250,12164,1,0,1:0:0:0:
346,250,12255,1,0,1:0:0:0:
330,72,12346,1,8,1:0:0:0:
445,266,12437,1,0,1:0:0:0:
289,115,12528,1,8,1:0:0:0:
445,266,12619,1,0,1:0:0:0:
289,115,12710,1,8,1:0:0:0:
236,105,12800,1,8,1:0:0:0:
236,105,12891,1,0,1:0:0:0:
236,105,12982,1,0,1:0:0:0:
234,99,13073,1,8,1:0:0:0:
234,99,13164,1,0,1:0:0:0:
234,99,13255,1,8,1:0:0:0:
234,99,13346,1,0,1:0:0:0:
234,99,13437,1,8,1:0:0:0:
272,122,13528,1,8,1:0:0:0:
272,122,13619,1,0,1:0:0:0:
272,122,13710,1,8,1:0:0:0:
272,122,13800,1,8,1:0:0:0:
260,97,13891,1,0,1:0:0:0:
260,97,13982,1,8,1:0:0:0:
259,100,14073,1,0,1:0:0:0:
260,97,14164,1,8,1:0:0:0:
259,100,14255,1,8,1:0:0:0:
260,97,14346,1,0,1:0:0:0:
259,100,14437,1,0,1:0:0:0:
244,85,14528,1,8,1:0:0:0:
241,85,14619,1,0,1:0:0:0:
241,86,14710,1,8,1:0:0:0:
244,85,14800,1,0,1:0:0:0:
241,86,14891,1,8,1:0:0:0:
239,75,14982,1,8,1:0:0:0:
239,75,15073,1,0,1:0:0:0:
239,75,15164,1,8,1:0:0:0:
248,142,15255,1,0,1:0:0:0:
248,142,15437,1,8,1:0:0:0:
225,117,15528,1,0,1:0:0:0:
225,117,15619,1,8,1:0:0:0:
236,137,15710,1,8,1:0:0:0:
236,137,15800,1,0,1:0:0:0:
236,137,15891,1,0,1:0:0:0:
236,137,15982,1,8,1:0:0:0:
223,125,16073,1,0,1:0:0:0:
223,125,16164,1,8,1:0:0:0:
223,125,16255,1,8,1:0:0:0:
223,125,16346,1,0,1:0:0:0:
223,125,16437,1,8,1:0:0:0:
223,125,16528,1,8,1:0:0:0:
257,172,16619,1,0,1:0:0:0:
256,148,17255,1,0,1:0:0:0:
256,148,17346,1,0,1:0:0:0:
256,148,17437,1,8,1:0:0:0:
256,148,17528,1,0,1:0:0:0:
256,148,17619,1,0,1:0:0:0:
252,131,17710,1,8,1:0:0:0:
252,124,17800,1,0,1:0:0:0:
251,124,17891,1,0,1:0:0:0:
252,124,17982,1,8,1:0:0:0:
229,137,18073,1,0,1:0:0:0:
229,137,18169,1,8,1:0:0:0:
218,91,18351,1,0,1:0:0:0:
229,137,18533,1,8,1:0:0:0:
272,142,18624,1,0,1:0:0:0:
218,91,18715,1,8,1:0:0:0:
226,131,18805,1,8,1:0:0:0:
226,131,18896,1,0,1:0:0:0:
206,121,18987,1,8,1:0:0:0:
226,131,19078,1,8,1:0:0:0:
226,131,19260,1,0,1:0:0:0:
341,169,19351,1,8,1:0:0:0:
341,169,19442,1,0,1:0:0:0:
341,169,19533,1,0,1:0:0:0:
337,172,19624,1,8,1:0:0:0:
301,128,19805,1,8,1:0:0:0:
445,86,19896,1,8,1:0:0:0:
307,199,19987,1,0,1:0:0:0:
205,116,20078,1,0,1:0:0:0:
205,116,20169,1,8,1:0:0:0:
379,204,20260,1,0,1:0:0:0:
261,182,20305,1,0,1:0:0:0:
261,182,20351,1,8,1:0:0:0:
10,190,20442,1,0,1:0:0:0:
345,245,20533,1,8,1:0:0:0:
345,245,20624,1,0,1:0:0:0:
345,245,20715,1,8,1:0:0:0:
345,245,20805,1,8,1:0:0:0:
328,188,20942,1,0,1:0:0:0:
345,245,20987,1,0,1:0:0:0:
328,188,21033,1,0,1:0:0:0:
329,67,21078,1,8,1:0:0:0:
229,137,21260,1,0,1:0:0:0:
218,91,21441,1,8,1:0:0:0:
272,142,21533,1,0,1:0:0:0:
218,91,21624,1,8,1:0:0:0:
226,131,21715,1,8,1:0:0:0:
226,131,21805,1,0,1:0:0:0:
206,121,21896,1,0,1:0:0:0:
226,131,21987,1,8,1:0:0:0:
226,131,22169,1,8,1:0:0:0:
341,169,22260,1,0,1:0:0:0:
341,169,22351,1,8,1:0:0:0:
341,169,22442,1,8,1:0:0:0:
337,172,22533,1,0,1:0:0:0:
301,128,22715,1,8,1:0:0:0:
445,86,22805,1,0,1:0:0:0:
307,199,22896,1,8,1:0:0:0:
205,116,22987,1,8,1:0:0:0:
205,116,23078,1,0,1:0:0:0:
379,204,23169,1,0,1:0:0:0:
261,182,23260,1,8,1:0:0:0:
10,190,23351,1,8,1:0:0:0:
345,245,23442,1,0,1:0:0:0:
345,245,23533,1,8,1:0:0:0:
345,245,23624,1,8,1:0:0:0:
345,245,23715,1,0,1:0:0:0:
345,245,23805,1,8,1:0:0:0:
183,116,23851,1,8,1:0:0:0:
345,245,23896,1,0,1:0:0:0:
183,116,23942,1,0,1:0:0:0:
329,67,23987,1,8,1:0:0:0:
288,110,24169,1,8,1:0:0:0:
219,96,24351,1,0,1:0:0:0:
273,147,24442,1,0,1:0:0:0:
219,96,24533,1,8,1:0:0:0:
227,136,24624,1,8,1:0:0:0:
227,136,24715,1,0,1:0:0:0:
207,126,24805,1,0,1:0:0:0:
227,136,24896,1,8,1:0:0:0:
227,136,25078,1,0,1:0:0:0:
342,174,25169,1,8,1:0:0:0:
342,174,25260,1,0,1:0:0:0:
342,174,25351,1,0,1:0:0:0:
338,177,25442,1,8,1:0:0:0:
302,133,25624,1,8,1:0:0:0:
446,91,25715,1,8,1:0:0:0:
308,204,25805,1,0,1:0:0:0:
206,121,25896,1,0,1:0:0:0:
206,121,25987,1,8,1:0:0:0:
380,209,26078,1,0,1:0:0:0:
262,187,26124,1,0,1:0:0:0:
262,187,26169,1,8,1:0:0:0:
11,195,26260,1,0,1:0:0:0:
346,250,26351,1,8,1:0:0:0:
346,250,26442,1,8,1:0:0:0:
346,250,26533,1,0,1:0:0:0:
346,250,26624,1,8,1:0:0:0:
329,193,26760,1,0,1:0:0:0:
346,250,26805,1,0,1:0:0:0:
329,193,26851,1,0,1:0:0:0:
330,72,26896,1,8,1:0:0:0:
230,142,27078,1,8,1:0:0:0:
219,96,27260,1,0,1:0:0:0:
273,147,27351,1,0,1:0:0:0:
219,96,27442,1,8,1:0:0:0:
227,136,27533,1,8,1:0:0:0:
227,136,27624,1,0,1:0:0:0:
207,126,27715,1,0,1:0:0:0:
227,136,27805,1,8,1:0:0:0:
342,174,27987,1,8,1:0:0:0:
227,136,28078,1,0,1:0:0:0:
342,174,28169,1,8,1:0:0:0:
342,174,28260,1,8,1:0:0:0:
338,177,28351,1,0,1:0:0:0:
302,133,28533,1,8,1:0:0:0:
446,91,28624,1,0,1:0:0:0:
308,204,28715,1,8,1:0:0:0:
206,121,28805,1,8,1:0:0:0:
206,121,28896,1,0,1:0:0:0:
380,209,28987,1,0,1:0:0:0:
262,187,29078,1,8,1:0:0:0:
11,195,29169,1,8,1:0:0:0:
346,250,29260,1,8,1:0:0:0:
346,250,29351,1,0,1:0:0:0:
346,250,29442,1,8,1:0:0:0:
346,250,29533,1,8,1:0:0:0:
346,250,29624,1,0,1:0:0:0:
346,250,29715,1,0,1:0:0:0:
330,72,29805,1,8,1:0:0:0:
445,266,29896,1,0,1:0:0:0:
289,115,29987,1,8,1:0:0:0:
445,266,30078,1,0,1:0:0:0:
289,115,30169,1,8,1:0:0:0:
236,105,30260,1,8,1:0:0:0:
236,105,30351,1,0,1:0:0:0:
236,105,30442,1,0,1:0:0:0:
234,99,30533,1,8,1:0:0:0:
234,99,30624,1,0,1:0:0:0:
234,99,30715,1,8,1:0:0:0:
234,99,30805,1,0,1:0:0:0:
234,99,30896,1,8,1:0:0:0:
272,122,30987,1,8,1:0:0:0:
272,122,31078,1,0,1:0:0:0:
272,122,31169,1,8,1:0:0:0:
272,122,31260,1,8,1:0:0:0:
260,97,31351,1,0,1:0:0:0:
260,97,31442,1,8,1:0:0:0:
259,100,31533,1,0,1:0:0:0:
260,97,31624,1,8,1:0:0:0:
259,100,31715,1,8,1:0:0:0:
260,97,31805,1,0,1:0:0:0:
259,100,31896,1,0,1:0:0:0:
244,85,31987,1,8,1:0:0:0:
241,85,32078,1,0,1:0:0:0:
241,86,32169,1,8,1:0:0:0:
244,85,32260,1,0,1:0:0:0:
241,86,32351,1,8,1:0:0:0:
239,75,32442,1,8,1:0:0:0:
239,75,32533,1,0,1:0:0:0:
239,75,32624,1,8,1:0:0:0:
248,142,32715,1,0,1:0:0:0:
248,142,32896,1,8,1:0:0:0:
225,117,32987,1,0,1:0:0:0:
225,117,33078,1,8,1:0:0:0:
236,137,33169,1,8,1:0:0:0:
236,137,33260,1,0,1:0:0:0:
236,137,33351,1,0,1:0:0:0:
236,137,33442,1,8,1:0:0:0:
223,125,33533,1,0,1:0:0:0:
223,125,33624,1,8,1:0:0:0:
223,125,33715,1,8,1:0:0:0:
223,125,33805,1,0,1:0:0:0:
223,125,33896,1,8,1:0:0:0:
223,125,33987,1,8,1:0:0:0:
257,172,34078,1,0,1:0:0:0:
256,148,34715,1,0,1:0:0:0:
256,148,34805,1,0,1:0:0:0:
256,148,34896,1,8,1:0:0:0:
256,148,34987,1,0,1:0:0:0:
256,148,35078,1,0,1:0:0:0:
252,131,35169,1,8,1:0:0:0:
252,124,35260,1,0,1:0:0:0:
251,124,35351,1,0,1:0:0:0:
252,124,35442,1,8,1:0:0:0:
229,137,35533,1,0,1:0:0:0:
