osu file format v14

[General]
AudioFilename: audio.mp3
AudioLeadIn: 0
PreviewTime: -1
Countdown: 1
SampleSet: Soft
StackLeniency: 0.7
Mode: 0
LetterboxInBreaks: 0
WidescreenStoryboard: 1

[Editor]
DistanceSpacing: 1
BeatDivisor: 4
GridSize: 16
TimelineZoom: 1

[Metadata]
Title:Vs. Lancer
TitleUnicode:Vs. Lancer
Artist:Toby Fox
ArtistUnicode:Toby Fox
Creator:kulau
Version:Insane
Source:Deltarune
Tags:deltarune undertale toby fox ralsei lancer fight boss
BeatmapID:1851236
BeatmapSetID:885737

[Difficulty]
HPDrainRate:4
CircleSize:4
OverallDifficulty:6
ApproachRate:8
SliderMultiplier:2.00000000596047
SliderTickRate:1

[Events]
//Background and Video events
0,0,"deltarune_by_soursopful-dcs4617.png",0,0
//Break Periods
//Storyboard Layer 0 (Background)
//Storyboard Layer 1 (Fail)
//Storyboard Layer 2 (Pass)
//Storyboard Layer 3 (Foreground)
//Storyboard Sound Samples

[TimingPoints]
0,-200,4,2,0,65,0,0
48.2703152302971,333.333333333333,4,2,0,65,1,0
2881,-100,4,2,0,65,0,0
21548,-200,4,2,0,65,0,0
22048,-100,4,2,0,90,0,1
28548,-166.666666666667,4,2,0,90,0,1
28881,-100,4,2,0,90,0,1
31381,-166.666666666667,4,2,0,90,0,1
32714,-100,4,2,0,90,0,1
39214,-166.666666666667,4,2,0,90,0,1
39548,-100,4,2,0,90,0,1
41381,-100,4,2,0,90,0,0

[HitObjects]
154,275,214,6,0,P|114:244|87:202,2,100.000000298023
245,235,714,6,0,P|285:203|351:193,1,100.000000298023
429,217,1048,1,0,0:0:0:0:
480,132,1214,1,0,0:0:0:0:
412,57,1381,2,0,P|364:32|304:45,1,100.000000298023
247,106,1714,1,0,0:0:0:0:
183,28,1881,1,0,0:0:0:0:
151,123,2048,6,0,B|184:183|153:249|153:249|191:232|223:258,1,200.000000596047
336,245,2548,2,0,B|303:185|334:119|334:119|296:136|264:110,1,200.000000596047
169,98,3048,2,0,P|121:76|94:27,1,100.000000298023
58,130,3381,6,0,L|31:232,3,100.000000298023
98,301,4048,2,0,L|123:204,3,100.000000298023
210,155,4714,5,0,0:0:0:0:
276,230,4881,1,0,0:0:0:0:
287,100,5048,1,0,0:0:0:0:
352,247,5214,1,0,0:0:0:0:
153,277,5548,6,0,P|186:318|254:331,2,100.000000298023
125,180,6048,2,0,P|134:111|192:76,1,100.000000298023
249,64,6381,1,0,0:0:0:0:
301,149,6548,1,0,0:0:0:0:
350,62,6714,2,0,P|391:98|395:161,1,100.000000298023
384,240,7048,1,0,0:0:0:0:
290,205,7214,1,0,0:0:0:0:
297,304,7381,6,0,P|236:335|191:331,1,100.000000298023
112,297,7714,1,0,0:0:0:0:
145,202,7881,2,0,P|171:152|214:119,1,100.000000298023
300,95,8214,2,0,P|347:84|397:99,2,100.000000298023
203,122,8714,5,0,0:0:0:0:
157,211,8881,1,0,0:0:0:0:
147,42,9048,5,0,0:0:0:0:
101,131,9215,1,0,0:0:0:0:
58,46,9381,6,0,P|38:91|-1:120,1,100.000000298023
76,227,9714,2,0,P|33:260|17:324,1,100.000000298023
117,308,10048,1,0,0:0:0:0:
215,296,10214,1,0,0:0:0:0:
274,212,10381,1,0,0:0:0:0:
333,292,10548,2,0,L|388:318,2,50.0000001490117
375,201,10881,5,0,0:0:0:0:
358,183,11048,1,0,0:0:0:0:
342,164,11214,1,0,0:0:0:0:
248,127,11381,6,0,P|196:127|145:150,1,100.000000298023
163,244,11714,1,0,0:0:0:0:
260,220,11881,1,0,0:0:0:0:
248,127,12048,2,0,P|198:123|160:91,1,100.000000298023
103,9,12381,1,0,0:0:0:0:
78,106,12548,1,0,0:0:0:0:
48,201,12714,6,0,P|34:250|162:318,1,200.000000596047
235,346,13214,2,0,P|222:269|110:246,1,200.000000596047
131,342,13714,1,0,0:0:0:0:
217,292,13881,1,0,0:0:0:0:
237,193,14048,6,0,L|253:76,3,100.000000298023
350,98,14714,2,0,L|363:-1,3,100.000000298023
446,56,15381,5,0,0:0:0:0:
419,159,15548,1,0,0:0:0:0:
324,83,15714,1,0,0:0:0:0:
199,180,15881,1,0,0:0:0:0:
359,299,16214,6,0,P|399:324|461:324,2,100.000000298023
289,226,16714,2,0,P|249:184|194:173,1,100.000000298023
111,195,17048,1,0,0:0:0:0:
157,283,17214,1,0,0:0:0:0:
230,214,17381,2,0,P|273:183|349:206,1,100.000000298023
410,226,17714,1,0,0:0:0:0:
404,326,17881,1,0,0:0:0:0:
313,363,18048,6,0,L|330:259,1,100.000000298023
240,310,18381,1,0,0:0:0:0:
240,310,18548,2,0,L|257:206,1,100.000000298023
234,113,18881,2,0,B|169:119|151:188|151:188,2,100.000000298023
385,155,19381,5,0,0:0:0:0:
260,185,19548,1,0,0:0:0:0:
403,239,19714,5,0,0:0:0:0:
278,269,19881,1,0,0:0:0:0:
394,363,20048,6,0,L|281:342,1,100.000000298023
198,321,20381,2,0,L|85:300,1,100.000000298023
89,203,20714,2,0,P|136:222|192:212,2,100.000000298023
147,121,21214,1,0,0:0:0:0:
147,121,21298,1,0,0:0:0:0:
147,121,21381,1,0,0:0:0:0:
205,68,21548,6,0,L|249:102,1,50.0000001490117
270,171,21881,1,0,0:0:0:0:
240,249,22048,6,0,L|189:323,3,50.0000001490117
312,295,22381,2,0,L|340:253,3,50.0000001490117
467,228,22714,6,0,L|414:214,1,50.0000001490117
280,169,22881,2,0,L|333:155,1,50.0000001490117
473,131,23048,2,0,L|420:117,1,50.0000001490117
268,74,23214,1,0,0:0:0:0:
292,67,23298,1,0,0:0:0:0:
320,59,23381,6,0,B|392:92|457:63|457:63|438:122,1,200.000000596047
348,161,23881,2,0,P|295:177|211:294,1,200.000000596047
216,306,24298,1,0,0:0:0:0:
221,322,24381,1,0,0:0:0:0:
126,305,24548,6,0,L|141:353,2,50.0000001490117
161,211,24881,2,0,P|183:167|168:86,1,100.000000298023
103,55,25214,1,0,0:0:0:0:
181,117,25381,2,0,P|225:143|290:135,1,100.000000298023
355,85,25714,1,0,0:0:0:0:
382,181,25881,1,0,0:0:0:0:
410,277,26048,6,0,L|453:340,3,50.0000001490117
361,346,26381,6,0,L|332:304,3,50.0000001490117
254,334,26714,5,0,0:0:0:0:
210,147,26881,1,0,0:0:0:0:
165,239,27048,1,0,0:0:0:0:
256,244,27214,1,0,0:0:0:0:
336,192,27381,1,0,0:0:0:0:
361,85,27548,6,0,L|401:129,2,50.0000001490117
285,138,27881,6,0,L|308:185,2,50.0000001490117
195,163,28214,5,0,0:0:0:0:
199,187,28298,1,0,0:0:0:0:
204,212,28381,1,0,0:0:0:0:
131,261,28548,6,0,P|154:287|188:298,1,59.9999983477595
321,259,28881,2,0,L|274:274,2,50.0000001490117
276,189,29214,6,0,L|227:185,2,50.0000001490117
283,101,29548,5,0,0:0:0:0:
258,96,29631,1,0,0:0:0:0:
233,91,29714,1,0,0:0:0:0:
98,29,29881,1,0,0:0:0:0:
127,131,30048,5,0,0:0:0:0:
105,266,30214,1,0,0:0:0:0:
203,145,30381,5,0,0:0:0:0:
191,272,30548,1,0,0:0:0:0:
143,107,30714,5,0,0:0:0:0:
114,275,30880,1,0,0:0:0:0:
237,124,31047,5,0,0:0:0:0:
223,283,31214,1,0,0:0:0:0:
334,119,31381,6,0,P|326:82|291:51,2,59.9999983477595
294,318,31881,1,0,0:0:0:0:
192,223,32214,5,0,0:0:0:0:
183,210,32381,1,0,0:0:0:0:
174,198,32548,1,0,0:0:0:0:
165,184,32714,6,0,L|182:128,3,50.0000001490117
265,136,33048,6,0,L|247:200,3,50.0000001490117
360,130,33381,6,0,L|375:73,1,50.0000001490117
435,161,33548,2,0,L|420:217,1,50.0000001490117
324,246,33714,2,0,L|341:186,1,50.0000001490117
400,278,33881,1,0,0:0:0:0:
396,289,33964,1,0,0:0:0:0:
392,299,34048,6,0,P|307:329|244:235,1,200.000000596047
211,160,34548,2,0,B|172:96|183:19|183:19|135:58,1,200.000000596047
130,63,34964,1,0,0:0:0:0:
118,71,35048,1,0,0:0:0:0:
58,151,35214,6,0,L|103:176,2,50.0000001490117
56,251,35548,2,0,P|96:285|161:286,1,100.000000298023
204,213,35881,1,0,0:0:0:0:
272,286,36048,2,0,P|320:278|357:246,1,100.000000298023
408,159,36381,1,0,0:0:0:0:
383,61,36548,1,0,0:0:0:0:
288,30,36714,6,0,L|214:8,3,50.0000001490117
189,72,37048,2,0,L|141:97,3,50.0000001490117
56,63,37381,5,0,0:0:0:0:
190,245,37548,1,0,0:0:0:0:
106,221,37714,1,0,0:0:0:0:
54,293,37881,1,0,0:0:0:0:
114,364,38048,1,0,0:0:0:0:
192,328,38214,6,0,L|253:293,2,50.0000001490117
186,227,38548,6,0,L|223:177,2,50.0000001490117
138,139,38881,5,0,0:0:0:0:
143,114,38964,1,0,0:0:0:0:
149,90,39048,1,0,0:0:0:0:
223,24,39214,2,0,P|253:55|288:60,1,59.9999983477595
367,78,39548,6,0,L|338:120,2,50.0000001490117
415,165,39881,6,0,L|361:199,2,50.0000001490117
409,265,40214,5,0,0:0:0:0:
385,273,40298,1,0,0:0:0:0:
362,282,40381,1,0,0:0:0:0:
286,348,40548,1,0,0:0:0:0:
216,242,40714,6,0,L|179:205,7,50.0000001490117
