osu file format v14

[General]
AudioFilename: audio.mp3
AudioLeadIn: 0
PreviewTime: 48
Countdown: 1
SampleSet: Soft
StackLeniency: 0.7
Mode: 0
LetterboxInBreaks: 0
WidescreenStoryboard: 0

[Editor]
DistanceSpacing: 1
BeatDivisor: 4
GridSize: 16
TimelineZoom: 1

[Metadata]
Title:Vs. Lancer
TitleUnicode:Vs. Lancer
Artist:Toby Fox
ArtistUnicode:Toby Fox
Creator:kulau
Version:Battle!
Source:Deltarune
Tags:deltarune undertale toby fox ralsei lancer fight boss
BeatmapID:1851235
BeatmapSetID:885737

[Difficulty]
HPDrainRate:6
CircleSize:5.5
OverallDifficulty:8.5
ApproachRate:9.5
SliderMultiplier:2.00000000596047
SliderTickRate:1

[Events]
//Background and Video events
0,0,"deltarune_by_soursopful-dcs4617.png",0,0
//Break Periods
//Storyboard Layer 0 (Background)
//Storyboard Layer 1 (Fail)
//Storyboard Layer 2 (Pass)
//Storyboard Layer 3 (Foreground)
//Storyboard Sound Samples

[TimingPoints]
48.2703152302971,333.333333333333,4,2,0,65,1,0
2881,-133.333333333333,4,2,0,65,0,0
3381,-100,4,2,0,65,0,0
4714,-133.333333333333,4,2,0,65,0,0
5214,-100,4,2,0,65,0,0
13548,-133.333333333333,4,2,0,65,0,0
14048,-100,4,2,0,65,0,0
15381,-133.333333333333,4,2,0,65,0,0
15881,-100,4,2,0,65,0,0
22048,-100,4,2,0,90,0,1
27881,-117.647058823529,4,2,0,90,0,1
28214,-142.857142857143,4,2,0,90,0,1
28548,-100,4,2,0,90,0,1
29214,-117.647058823529,4,2,0,90,0,1
29548,-142.857142857143,4,2,0,90,0,1
29881,-166.666666666667,4,2,0,90,0,1
30048,-100,4,2,0,90,0,1
38548,-117.647058823529,4,2,0,90,0,1
38881,-142.857142857143,4,2,0,90,0,1
39214,-100,4,2,0,90,0,1
39881,-117.647058823529,4,2,0,90,0,1
40214,-142.857142857143,4,2,0,90,0,1
41381,-100,4,2,0,90,0,0

[HitObjects]
189,60,214,5,0,0:0:0:0:
161,156,381,1,0,0:0:0:0:
79,213,548,1,0,0:0:0:0:
270,304,714,6,0,P|319:296|360:253,1,100.000000298023
242,80,1048,2,0,P|193:88|152:131,1,100.000000298023
286,225,1381,1,0,0:0:0:0:
344,95,1548,1,0,0:0:0:0:
212,53,1714,1,0,0:0:0:0:
158,179,1881,1,0,0:0:0:0:
313,175,2048,6,0,P|363:162|417:174,1,100.000000298023
449,315,2381,1,0,0:0:0:0:
470,129,2548,2,0,P|432:98|358:98,1,100.000000298023
334,229,2881,2,0,P|295:251|244:243,2,75.0000030845407
198,66,3381,5,0,0:0:0:0:
280,191,3548,1,0,0:0:0:0:
124,120,3714,1,0,0:0:0:0:
190,292,3881,1,0,0:0:0:0:
248,127,4048,5,0,0:0:0:0:
88,253,4214,1,0,0:0:0:0:
280,191,4381,1,0,0:0:0:0:
37,128,4548,1,0,0:0:0:0:
224,52,4714,6,0,P|267:35|317:46,2,75.0000030845407
153,315,5214,1,0,0:0:0:0:
467,164,5548,5,0,0:0:0:0:
375,199,5714,1,0,0:0:0:0:
321,115,5881,1,0,0:0:0:0:
209,181,6048,6,0,P|159:206|99:202,1,100.000000298023
138,48,6381,2,0,P|182:28|236:33,1,100.000000298023
260,201,6714,5,0,0:0:0:0:
162,307,6881,1,0,0:0:0:0:
171,171,7048,1,0,0:0:0:0:
246,288,7214,1,0,0:0:0:0:
104,235,7381,6,0,P|77:192|92:129,1,100.000000298023
170,32,7714,1,0,0:0:0:0:
198,234,7881,2,0,P|171:191|186:128,1,100.000000298023
256,32,8214,2,0,L|368:32,2,100.000000298023
257,160,8714,5,0,0:0:0:0:
284,311,8881,1,0,0:0:0:0:
316,145,9048,5,0,0:0:0:0:
340,299,9214,1,0,0:0:0:0:
391,112,9381,5,0,0:0:0:0:
380,298,9548,1,0,0:0:0:0:
311,101,9714,5,0,0:0:0:0:
284,320,9881,1,0,0:0:0:0:
224,88,10048,5,0,0:0:0:0:
224,88,10131,1,0,0:0:0:0:
224,88,10214,1,0,0:0:0:0:
241,330,10381,5,0,0:0:0:0:
401,164,10548,5,0,0:0:0:0:
401,164,10631,1,0,0:0:0:0:
401,164,10714,1,0,0:0:0:0:
230,183,10881,5,0,0:0:0:0:
189,251,11048,1,0,0:0:0:0:
110,266,11214,1,0,0:0:0:0:
37,238,11381,6,0,P|65:192|113:166,1,100.000000298023
268,100,11714,2,0,P|240:54|192:28,1,100.000000298023
18,12,12048,5,0,0:0:0:0:
204,188,12214,1,0,0:0:0:0:
111,100,12381,5,0,0:0:0:0:
297,276,12547,1,0,0:0:0:0:
466,143,12714,6,0,P|440:102|395:84,1,100.000000298023
297,276,13048,1,0,0:0:0:0:
205,85,13214,6,0,P|162:101|133:146,1,100.000000298023
165,294,13548,2,0,P|121:307|76:287,2,75.0000030845407
230,126,14048,5,0,0:0:0:0:
350,263,14214,1,0,0:0:0:0:
366,114,14381,1,0,0:0:0:0:
157,198,14548,1,0,0:0:0:0:
233,68,14714,5,0,0:0:0:0:
297,265,14881,1,0,0:0:0:0:
371,66,15048,1,0,0:0:0:0:
212,281,15214,1,0,0:0:0:0:
133,119,15381,6,0,P|96:135|66:181,2,75.0000030845407
380,308,15881,1,0,0:0:0:0:
202,241,16214,5,0,0:0:0:0:
261,165,16381,1,0,0:0:0:0:
243,72,16548,1,0,0:0:0:0:
152,23,16714,6,0,P|110:48|90:93,1,100.000000298023
325,265,17048,2,0,P|367:240|387:195,1,100.000000298023
162,239,17381,5,0,0:0:0:0:
285,130,17548,1,0,0:0:0:0:
263,291,17714,1,0,0:0:0:0:
212,122,17881,1,0,0:0:0:0:
375,269,18048,6,0,P|332:248|301:208,1,100.000000298023
246,71,18381,1,0,0:0:0:0:
475,211,18548,2,0,P|430:193|401:150,1,100.000000298023
329,32,18881,2,0,L|440:5,2,100.000000298023
192,132,19381,5,0,0:0:0:0:
284,308,19548,1,0,0:0:0:0:
284,120,19714,5,0,0:0:0:0:
178,323,19881,1,0,0:0:0:0:
211,100,20048,5,0,0:0:0:0:
256,313,20214,1,0,0:0:0:0:
337,127,20381,5,0,0:0:0:0:
126,263,20548,1,0,0:0:0:0:
104,41,20714,5,0,0:0:0:0:
132,86,20881,1,0,0:0:0:0:
160,130,21048,1,0,0:0:0:0:
218,49,21214,2,0,L|278:55,2,50.0000001490117
238,208,21548,5,0,0:0:0:0:
254,194,21714,1,0,0:0:0:0:
269,179,21881,1,0,0:0:0:0:
296,99,22048,5,0,0:0:0:0:
325,59,22131,1,0,0:0:0:0:
370,38,22214,1,0,0:0:0:0:
419,42,22297,1,0,0:0:0:0:
460,70,22381,5,0,0:0:0:0:
482,114,22464,1,0,0:0:0:0:
480,163,22547,1,0,0:0:0:0:
454,205,22631,1,0,0:0:0:0:
411,229,22714,6,0,L|348:222,3,50.0000001490117
297,176,23048,2,0,L|245:149,1,50.0000001490117
200,127,23214,1,0,0:0:0:0:
141,122,23298,1,0,0:0:0:0:
84,142,23381,5,0,0:0:0:0:
124,207,23548,2,0,L|72:222,2,50.0000001490117
193,181,23881,2,0,P|279:125|290:19,1,200.000000596047
343,47,24298,1,0,0:0:0:0:
382,75,24381,1,0,0:0:0:0:
401,226,24548,1,0,0:0:0:0:
312,108,24714,5,0,0:0:0:0:
269,268,24881,2,0,L|241:272,2,25.0000000745059
216,75,25214,5,0,0:0:0:0:
163,283,25381,2,0,P|111:258|97:201,1,100.000000298023
133,64,25714,1,0,0:0:0:0:
275,189,25881,1,0,0:0:0:0:
107,283,26048,5,0,0:0:0:0:
110,233,26131,1,0,0:0:0:0:
96,185,26214,1,0,0:0:0:0:
67,145,26297,1,0,0:0:0:0:
25,117,26381,5,0,0:0:0:0:
64,87,26464,1,0,0:0:0:0:
110,69,26547,1,0,0:0:0:0:
159,67,26630,1,0,0:0:0:0:
208,71,26713,5,0,0:0:0:0:
189,247,26881,1,0,0:0:0:0:
318,59,27048,1,0,0:0:0:0:
251,288,27214,1,0,0:0:0:0:
421,80,27381,2,0,P|403:109|353:128,1,50.0000001490117
347,144,27548,5,0,0:0:0:0:
300,161,27631,1,0,0:0:0:0:
253,179,27714,1,0,0:0:0:0:
244,95,27881,5,0,0:0:0:0:
211,122,27964,1,0,0:0:0:0:
179,150,28047,1,0,0:0:0:0:
146,89,28214,5,0,0:0:0:0:
128,119,28297,1,0,0:0:0:0:
110,149,28380,1,0,0:0:0:0:
38,199,28548,5,0,0:0:0:0:
264,229,28714,1,0,0:0:0:0:
262,329,28881,5,0,0:0:0:0:
294,291,28964,1,0,0:0:0:0:
327,253,29047,1,0,0:0:0:0:
384,317,29214,5,0,0:0:0:0:
398,276,29297,1,0,0:0:0:0:
412,236,29380,1,0,0:0:0:0:
466,282,29548,5,0,0:0:0:0:
471,248,29631,1,0,0:0:0:0:
476,212,29714,1,0,0:0:0:0:
468,153,29881,5,0,0:0:0:0:
184,232,30048,5,0,0:0:0:0:
394,110,30214,1,0,0:0:0:0:
123,178,30381,5,0,0:0:0:0:
333,56,30547,1,0,0:0:0:0:
116,243,30714,5,0,0:0:0:0:
271,56,30880,1,0,0:0:0:0:
283,278,31048,2,0,P|320:314|383:324,1,100.000000298023
455,223,31381,5,0,0:0:0:0:
287,75,31548,1,0,0:0:0:0:
256,266,31714,5,0,0:0:0:0:
99,98,31881,1,0,0:0:0:0:
90,295,32048,5,0,0:0:0:0:
42,309,32214,1,0,0:0:0:0:
40,358,32381,1,0,0:0:0:0:
87,376,32548,1,0,0:0:0:0:
150,344,32714,5,0,0:0:0:0:
199,348,32797,1,0,0:0:0:0:
243,326,32880,1,0,0:0:0:0:
268,283,32964,1,0,0:0:0:0:
268,234,33047,5,0,0:0:0:0:
248,188,33131,1,0,0:0:0:0:
203,173,33214,1,0,0:0:0:0:
155,186,33297,1,0,0:0:0:0:
121,223,33381,6,0,L|76:273,3,50.0000001490117
176,262,33714,2,0,P|202:271|245:267,1,50.0000001490117
284,271,33881,1,0,0:0:0:0:
345,262,33964,1,0,0:0:0:0:
397,229,34047,5,0,0:0:0:0:
328,155,34214,2,0,L|382:100,2,50.0000001490117
235,194,34548,2,0,P|137:215|37:154,1,200.000000596047
95,148,34964,1,0,0:0:0:0:
140,126,35047,1,0,0:0:0:0:
316,105,35214,1,0,0:0:0:0:
139,230,35381,5,0,0:0:0:0:
352,203,35548,2,0,L|381:197,2,25.0000000745059
128,331,35881,5,0,0:0:0:0:
388,297,36048,2,0,P|437:274|459:229,1,100.000000298023
402,112,36381,1,0,0:0:0:0:
302,288,36548,1,0,0:0:0:0:
234,83,36714,5,0,0:0:0:0:
185,76,36797,1,0,0:0:0:0:
141,98,36880,1,0,0:0:0:0:
117,141,36964,1,0,0:0:0:0:
125,191,37048,5,0,0:0:0:0:
135,239,37131,1,0,0:0:0:0:
126,288,37214,1,0,0:0:0:0:
98,329,37298,1,0,0:0:0:0:
56,355,37381,5,0,0:0:0:0:
21,180,37548,1,0,0:0:0:0:
115,365,37714,1,0,0:0:0:0:
117,118,37881,1,0,0:0:0:0:
176,377,38048,2,0,P|201:366|218:344,1,50.0000001490117
233,302,38214,5,0,0:0:0:0:
247,254,38297,1,0,0:0:0:0:
261,206,38380,1,0,0:0:0:0:
332,255,38548,5,0,0:0:0:0:
334,212,38631,1,0,0:0:0:0:
336,170,38714,1,0,0:0:0:0:
403,188,38881,5,0,0:0:0:0:
394,154,38964,1,0,0:0:0:0:
385,120,39047,1,0,0:0:0:0:
330,61,39214,1,0,0:0:0:0:
214,247,39381,1,0,0:0:0:0:
203,168,39548,5,0,0:0:0:0:
157,189,39631,1,0,0:0:0:0:
112,210,39714,1,0,0:0:0:0:
131,127,39881,5,0,0:0:0:0:
88,129,39964,1,0,0:0:0:0:
46,131,40047,1,0,0:0:0:0:
80,70,40214,5,0,0:0:0:0:
47,57,40297,1,0,0:0:0:0:
14,44,40380,1,0,0:0:0:0:
129,12,40548,5,0,0:0:0:0:
197,79,40714,6,0,L|212:141,7,34.999999036193
