osu file format v14

[General]
AudioFilename: audio.mp3
AudioLeadIn: 0
PreviewTime: 40425
Countdown: 0
SampleSet: Normal
StackLeniency: 0.3
Mode: 0
LetterboxInBreaks: 0
WidescreenStoryboard: 1

[Editor]
Bookmarks: 5057,7583,10109,12635,15162,17688,20214,59372,60635,69320,99793
DistanceSpacing: 0.4
BeatDivisor: 4
GridSize: 16
TimelineZoom: 1

[Metadata]
Title:The World Revolving
TitleUnicode:The World Revolving
Artist:Toby Fox
ArtistUnicode:Toby Fox
Creator:meguziiz
Version:Extra
Source:Deltarune
Tags:Jevil
BeatmapID:1877750
BeatmapSetID:898894

[Difficulty]
HPDrainRate:5
CircleSize:4
OverallDifficulty:6
ApproachRate:9.2
SliderMultiplier:2.2
SliderTickRate:1

[Events]
//Background and Video events
0,0,"cheech.jpg",0,0
//Break Periods
2,2730,4487
2,7783,9539
2,12835,14592
2,17887,19644
//Storyboard Layer 0 (Background)
//Storyboard Layer 1 (Fail)
//Storyboard Layer 2 (Pass)
//Storyboard Layer 3 (Foreground)
//Storyboard Sound Samples

[TimingPoints]
4.40803370214257,315.789473684211,4,1,1,100,1,0
83,-100,4,1,1,100,0,0
3478,-100,4,1,1,100,0,0
20214,-80,4,1,1,100,0,0
30320,-133.333333333333,4,1,1,100,0,0
34741,-100,4,1,1,100,0,0
40425,-100,4,1,1,100,0,1
59372,-200,4,1,1,100,0,0
60635,-100,4,1,1,100,0,0
99793,-400,4,1,1,100,0,0

[Colours]
Combo1 : 14,0,79
Combo2 : 190,83,255
Combo3 : 58,0,94
Combo4 : 227,193,255

[HitObjects]
101,78,4,6,0,P|173:60|250:69,1,110,4|0,2:0|0:0,0:0:0:0:
344,273,320,2,0,P|254:280|201:249,1,110
288,80,635,2,0,P|370:93|413:128,1,110
119,210,951,2,0,P|68:168|56:118,1,110
209,55,1267,2,0,L|326:56,1,110
418,145,1583,5,0,0:0:0:0:
299,281,1741,1,0,0:0:0:0:
224,178,1899,2,0,P|156:185|103:220,1,110
194,313,2214,2,0,L|343:313,1,110
433,228,2530,1,4,2:0:0:0:
79,152,5057,5,2,2:0:0:0:
182,57,5214,1,0,0:0:0:0:
45,98,5372,5,2,2:0:0:0:
183,126,5530,1,0,0:0:0:0:
75,49,5688,5,2,2:0:0:0:
147,181,5846,1,0,0:0:0:0:
144,32,6004,5,2,2:0:0:0:
96,224,6162,1,0,0:0:0:0:
224,48,6320,5,2,2:0:0:0:
16,208,6478,1,0,0:0:0:0:
263,113,6635,5,2,2:0:0:0:
0,123,6793,1,0,0:0:0:0:
123,195,6951,2,0,P|195:242|255:249,1,110,2|0,2:0|0:0,0:0:0:0:
332,165,7267,5,2,2:0:0:0:
400,320,7425,1,0,0:0:0:0:
176,304,7583,1,4,2:0:0:0:
85,164,10109,5,8,2:0:0:0:
128,40,10267,1,0,0:0:0:0:
188,193,10425,5,8,2:0:0:0:
233,61,10583,1,0,0:0:0:0:
287,213,10741,5,8,2:0:0:0:
339,76,10899,1,0,0:0:0:0:
276,295,11057,5,8,2:0:0:0:
385,169,11214,1,0,0:0:0:0:
199,142,11372,1,8,2:0:0:0:
363,248,11530,1,0,0:0:0:0:
190,224,11688,1,8,2:0:0:0:
303,79,11846,1,0,0:0:0:0:
270,328,12004,5,8,2:0:0:0:
126,110,12162,1,0,0:0:0:0:
451,150,12320,1,8,2:0:0:0:
137,268,12478,1,0,0:0:0:0:
308,30,12635,1,4,2:0:0:0:
77,57,15162,6,0,P|177:58|204:77,1,110,8|0,2:0|0:0,0:0:0:0:
283,137,15478,1,8,2:0:0:0:
355,180,15635,2,0,P|408:213|438:288,1,110,0|10,0:0|2:0,0:0:0:0:
328,301,15951,2,0,L|178:302,1,110,0|8,0:0|2:0,0:0:0:0:
96,89,16267,2,0,L|227:89,1,110,0|8,0:0|2:0,0:0:0:0:
288,160,16583,5,0,0:0:0:0:
304,64,16741,1,8,2:0:0:0:
384,144,16899,5,0,0:0:0:0:
224,96,17057,1,10,2:0:0:0:
352,208,17214,5,0,0:0:0:0:
272,48,17372,1,8,2:0:0:0:
400,64,17530,2,0,B|416:96|416:96|400:208,1,110,0|6,0:0|2:0,0:0:0:0:
80,80,20214,6,0,B|176:80|176:80|224:96,1,137.5,4|0,2:0|0:0,0:0:0:0:
304,160,20530,2,0,B|208:192|208:192|112:176,1,137.5
80,160,20846,5,0,2:0:0:0:
128,48,21004,1,0,0:0:0:0:
160,128,21162,5,0,2:0:0:0:
48,80,21320,1,0,0:0:0:0:
144,176,21478,5,0,2:0:0:0:
80,48,21635,1,0,0:0:0:0:
96,192,21793,5,0,2:0:0:0:
128,48,21951,1,0,0:0:0:0:
192,176,22109,5,0,2:0:0:0:
208,48,22267,1,0,0:0:0:0:
288,160,22425,5,0,2:0:0:0:
304,48,22583,1,0,0:0:0:0:
368,176,22741,5,0,2:0:0:0:
448,80,22899,1,0,0:0:0:0:
304,240,23057,5,0,2:0:0:0:
480,240,23214,1,0,0:0:0:0:
416,320,23372,5,0,2:0:0:0:
272,160,23530,1,0,0:0:0:0:
240,304,23688,5,0,2:0:0:0:
416,160,23846,1,0,0:0:0:0:
464,256,24004,5,0,2:0:0:0:
208,224,24162,1,0,0:0:0:0:
400,320,24320,5,0,2:0:0:0:
240,144,24478,1,0,0:0:0:0:
144,272,24635,5,0,2:0:0:0:
368,144,24793,1,0,0:0:0:0:
320,272,24951,5,0,2:0:0:0:
144,160,25109,1,0,0:0:0:0:
272,160,25267,5,0,2:0:0:0:
208,32,25425,1,0,0:0:0:0:
240,176,25583,5,0,2:0:0:0:
336,32,25741,1,0,0:0:0:0:
304,176,25899,5,0,2:0:0:0:
192,48,26057,1,0,0:0:0:0:
256,208,26214,5,0,2:0:0:0:
368,16,26372,1,0,0:0:0:0:
304,224,26530,5,0,2:0:0:0:
208,0,26688,1,0,0:0:0:0:
320,96,26846,2,0,P|416:128|432:160,1,137.5,4|0,2:0|0:0,0:0:0:0:
352,192,27162,5,0,0:0:0:0:
464,320,27320,1,0,0:0:0:0:
272,288,27478,2,0,P|192:304|112:288,1,137.5
64,224,27793,5,0,0:0:0:0:
144,160,27951,1,0,0:0:0:0:
80,64,28109,1,0,0:0:0:0:
224,64,28267,6,0,P|304:144|304:192,1,137.5
192,288,28583,2,0,P|96:240|80:192,1,137.5
320,32,28899,2,0,P|368:128|336:176,1,137.5
128,208,29214,6,0,P|80:144|96:80,1,137.5,0|4,0:0|2:0,0:0:0:0:
288,272,29530,2,0,P|368:208|368:128,1,137.5,0|4,0:0|2:0,0:0:0:0:
144,192,29846,2,0,P|176:288|240:320,1,137.5,0|4,0:0|2:0,0:0:0:0:
288,240,30162,5,0,0:0:0:0:
256,96,30320,2,0,B|208:80|208:80|160:96,1,82.5000031471254,4|0,2:0|0:0,0:0:0:0:
224,176,30635,2,0,B|272:176|272:176|304:144,1,82.5000031471254
128,208,30951,2,0,B|160:240|160:240|224:256,1,82.5000031471254
160,128,31267,2,0,B|112:128|112:128|64:144,1,82.5000031471254
64,224,31583,2,0,B|96:272|96:272|160:272,1,82.5000031471254
192,144,31899,5,0,0:0:0:0:
256,288,32057,1,0,0:0:0:0:
352,224,32214,2,0,P|352:144|336:128,1,82.5000031471254
432,224,32530,5,0,0:0:0:0:
464,144,32688,1,0,0:0:0:0:
352,128,32846,2,0,B|288:128|288:128|240:144,1,82.5000031471254,0|0,2:0|0:0,0:0:0:0:
208,192,33162,2,0,B|240:240|240:240|272:256,1,82.5000031471254,0|0,2:0|0:0,0:0:0:0:
144,144,33478,5,0,2:0:0:0:
112,240,33635,1,0,0:0:0:0:
48,160,33793,2,0,P|48:96|80:80,1,82.5000031471254,0|0,2:0|0:0,0:0:0:0:
128,64,34109,2,0,P|192:96|224:96,1,82.5000031471254,0|0,2:0|0:0,0:0:0:0:
288,128,34425,2,0,P|304:176|288:224,1,82.5000031471254
208,288,34741,2,0,P|272:320|352:304,1,110
416,272,35057,5,0,0:0:0:0:
272,176,35214,1,0,0:0:0:0:
272,256,35372,5,0,0:0:0:0:
416,176,35530,1,0,0:0:0:0:
384,320,35688,5,0,0:0:0:0:
304,128,35846,1,0,0:0:0:0:
288,320,36004,5,0,0:0:0:0:
368,112,36162,1,0,0:0:0:0:
416,304,36320,5,0,0:0:0:0:
256,80,36478,1,0,0:0:0:0:
208,240,36635,5,0,0:0:0:0:
432,192,36793,1,0,0:0:0:0:
208,160,36951,5,0,0:0:0:0:
448,272,37109,1,0,0:0:0:0:
336,320,37267,6,0,P|256:304|192:320,1,110
96,320,37583,2,0,P|32:288|32:240,1,110
112,240,37899,2,0,L|224:240,1,110
256,160,38214,5,0,0:0:0:0:
352,256,38372,1,0,0:0:0:0:
384,160,38530,2,0,B|352:112|352:112|272:80,1,110
192,80,38846,2,0,B|128:128|128:128|128:208,1,110
112,240,39162,5,0,0:0:0:0:
48,160,39320,1,0,0:0:0:0:
144,160,39478,2,0,L|272:160,1,110,4|0,2:0|0:0,0:0:0:0:
288,240,39793,5,4,2:0:0:0:
224,320,39951,1,0,0:0:0:0:
176,240,40109,2,0,B|80:240|80:240|64:176,1,110,4|0,2:0|0:0,0:0:0:0:
112,128,40425,5,4,2:0:0:0:
240,16,40583,1,0,0:0:0:0:
272,176,40741,5,0,0:0:0:0:
400,64,40899,1,0,0:0:0:0:
176,64,41057,1,4,2:0:0:0:
128,176,41214,5,0,0:0:0:0:
128,176,41293,1,0,0:0:0:0:
128,176,41372,1,0,0:0:0:0:
208,272,41530,5,0,0:0:0:0:
432,176,41688,1,4,2:0:0:0:
208,128,41846,5,0,0:0:0:0:
208,128,41925,1,0,0:0:0:0:
208,128,42004,1,0,0:0:0:0:
352,288,42162,5,0,0:0:0:0:
336,176,42320,1,4,2:0:0:0:
256,304,42478,5,0,0:0:0:0:
256,192,42635,1,0,0:0:0:0:
176,304,42793,5,0,0:0:0:0:
176,208,42951,1,4,2:0:0:0:
80,304,43109,5,0,0:0:0:0:
96,176,43267,1,4,2:0:0:0:
0,208,43425,5,0,0:0:0:0:
160,256,43583,1,4,2:0:0:0:
240,160,43741,1,0,0:0:0:0:
240,160,43820,1,0,0:0:0:0:
240,160,43899,1,0,0:0:0:0:
336,256,44057,5,0,0:0:0:0:
96,192,44214,1,4,2:0:0:0:
304,96,44372,1,0,0:0:0:0:
304,96,44451,1,0,0:0:0:0:
304,96,44530,1,0,0:0:0:0:
176,64,44688,6,0,P|128:128|128:192,1,110,0|4,0:0|2:0,0:0:0:0:
160,240,45004,1,0,0:0:0:0:
240,192,45162,1,0,0:0:0:0:
272,288,45320,1,0,0:0:0:0:
336,224,45478,1,4,2:0:0:0:
400,320,45635,5,0,0:0:0:0:
464,240,45793,1,4,2:0:0:0:
384,160,45951,1,0,0:0:0:0:
480,96,46109,1,4,2:0:0:0:
400,48,46267,1,0,0:0:0:0:
400,48,46346,1,0,0:0:0:0:
400,48,46425,1,0,0:0:0:0:
304,144,46583,5,0,0:0:0:0:
208,32,46741,1,4,2:0:0:0:
224,192,46899,5,0,0:0:0:0:
112,112,47057,1,0,0:0:0:0:
176,272,47214,5,0,0:0:0:0:
48,272,47372,1,4,2:0:0:0:
128,352,47530,5,0,0:0:0:0:
272,352,47688,1,0,0:0:0:0:
400,288,47846,6,0,P|416:208|400:144,1,110,0|4,0:0|2:0,0:0:0:0:
288,64,48162,2,0,P|208:64|160:96,1,110
176,192,48478,2,0,P|256:192|288:176,1,110,0|4,0:0|2:0,0:0:0:0:
400,80,48793,2,0,P|400:160|368:208,1,110
336,112,49109,2,0,P|288:160|240:144,1,110,0|4,0:0|2:0,0:0:0:0:
272,80,49425,2,0,P|208:64|192:16,1,110
288,16,49741,2,0,L|368:16,2,55
432,32,50057,5,0,0:0:0:0:
496,112,50214,1,0,0:0:0:0:
400,176,50372,1,0,0:0:0:0:
464,256,50530,1,0,2:0:0:0:
352,272,50688,5,0,0:0:0:0:
144,208,50846,1,0,2:0:0:0:
144,288,51004,5,0,0:0:0:0:
352,192,51162,1,0,2:0:0:0:
336,320,51320,5,0,0:0:0:0:
160,128,51478,1,0,2:0:0:0:
224,320,51635,5,0,0:0:0:0:
272,96,51793,1,0,2:0:0:0:
192,256,51951,5,0,0:0:0:0:
352,128,52109,1,0,2:0:0:0:
288,256,52267,5,0,0:0:0:0:
192,96,52425,1,0,2:0:0:0:
112,192,52583,5,0,0:0:0:0:
304,144,52741,1,0,2:0:0:0:
240,240,52899,2,0,P|208:304|160:320,1,110,0|4,0:0|2:0,0:0:0:0:
96,288,53214,5,0,0:0:0:0:
64,240,53293,1,0,0:0:0:0:
48,192,53372,1,0,0:0:0:0:
96,96,53530,2,0,P|192:96|224:128,1,110
288,144,53846,5,0,0:0:0:0:
368,208,54004,2,0,P|432:224|480:208,1,110
496,320,54320,5,0,0:0:0:0:
384,272,54478,1,0,0:0:0:0:
352,368,54635,2,0,P|272:336|224:288,1,110
304,256,54951,5,0,0:0:0:0:
368,176,55109,1,0,0:0:0:0:
256,144,55267,2,0,L|128:144,1,110
64,144,55583,2,0,P|112:224|160:208,1,110,4|0,2:0|0:0,0:0:0:0:
192,272,55899,5,0,0:0:0:0:
288,176,56057,1,0,0:0:0:0:
336,304,56214,1,0,0:0:0:0:
208,192,56372,1,0,0:0:0:0:
352,224,56530,1,0,0:0:0:0:
256,320,56688,5,0,0:0:0:0:
304,128,56846,1,4,2:0:0:0:
368,304,57004,5,0,0:0:0:0:
400,160,57162,1,4,2:0:0:0:
480,288,57320,5,0,0:0:0:0:
496,192,57478,1,4,2:0:0:0:
416,224,57635,2,0,P|384:272|320:288,1,110
336,208,57951,2,0,L|336:96,1,110,0|4,0:0|2:0,0:0:0:0:
400,48,58267,6,0,P|336:16|288:16,1,110
240,80,58583,2,0,P|176:112|112:112,1,110
32,48,58899,2,0,P|112:32|160:48,1,110
160,128,59214,1,0,0:0:0:0:
272,176,59372,1,4,2:0:0:0:
464,272,59846,5,2,2:0:0:0:
432,288,59925,1,2,2:0:0:0:
400,304,60004,1,2,2:0:0:0:
128,160,60635,5,0,2:0:0:0:
176,64,60793,1,0,0:0:0:0:
224,144,60951,5,0,2:0:0:0:
96,96,61109,1,0,0:0:0:0:
192,208,61267,5,0,2:0:0:0:
144,32,61425,1,0,0:0:0:0:
80,176,61583,5,0,2:0:0:0:
224,80,61741,1,0,0:0:0:0:
224,176,61899,5,0,2:0:0:0:
64,80,62057,1,0,0:0:0:0:
64,192,62214,2,0,P|128:256|160:256,1,110
160,144,62530,2,0,B|160:64|160:64|224:16,1,110
272,64,62846,2,0,L|384:64,1,110
464,64,63162,2,0,P|432:128|384:144,1,110,0|0,2:0|0:0,0:0:0:0:
320,144,63478,5,0,2:0:0:0:
240,80,63635,1,0,0:0:0:0:
176,144,63793,5,0,2:0:0:0:
112,64,63951,1,0,0:0:0:0:
112,240,64109,5,0,2:0:0:0:
48,144,64267,1,0,0:0:0:0:
176,128,64425,1,0,2:0:0:0:
240,224,64583,2,0,P|320:240|384:208,1,110
320,144,64899,6,0,L|176:144,1,110
96,160,65214,1,0,0:0:0:0:
160,256,65372,1,0,0:0:0:0:
208,176,65530,6,0,L|352:176,1,110,0|0,0:0|2:0,0:0:0:0:
272,96,65846,2,0,L|112:96,1,110,0|0,0:0|2:0,0:0:0:0:
80,96,66162,5,0,0:0:0:0:
128,176,66320,1,0,2:0:0:0:
208,112,66478,2,0,L|352:112,1,110,0|0,0:0|2:0,0:0:0:0:
352,192,66793,5,0,0:0:0:0:
288,256,66951,1,0,2:0:0:0:
416,256,67109,2,0,B|448:208|448:208|448:112,1,110,0|0,0:0|2:0,0:0:0:0:
368,80,67425,2,0,B|288:80|288:80|224:112,1,110,0|0,0:0|2:0,0:0:0:0:
192,144,67741,5,0,0:0:0:0:
304,288,67899,1,0,0:0:0:0:
192,272,68057,2,0,B|112:240|112:240|96:192,1,110,0|4,0:0|2:0,0:0:0:0:
112,112,68372,2,0,B|176:64|192:160|240:112,1,110
288,128,68688,5,0,0:0:0:0:
320,208,68846,1,0,0:0:0:0:
224,208,69004,2,0,L|96:208,1,110
32,272,69320,2,0,L|96:320,2,55
160,288,69635,2,0,P|240:336|304:336,1,110
272,256,69951,2,0,L|272:144,1,110
352,48,70267,5,0,0:0:0:0:
160,112,70425,1,0,0:0:0:0:
288,128,70583,2,0,P|352:192|384:208,1,110
432,288,70899,2,0,P|352:304|272:304,1,110
208,256,71214,2,0,P|144:224|80:224,1,110
64,144,71530,5,0,0:0:0:0:
128,64,71688,1,0,0:0:0:0:
160,144,71846,2,0,L|304:144,1,110
352,176,72162,5,0,0:0:0:0:
272,224,72320,1,0,0:0:0:0:
368,272,72478,2,0,L|496:272,1,110
352,352,72793,2,0,L|224:352,1,110
128,304,73109,5,0,2:0:0:0:
208,256,73267,1,0,0:0:0:0:
128,208,73425,1,0,2:0:0:0:
208,160,73583,1,0,0:0:0:0:
128,112,73741,1,0,2:0:0:0:
272,64,73899,5,0,0:0:0:0:
64,32,74057,1,0,2:0:0:0:
256,176,74214,5,0,0:0:0:0:
160,16,74372,1,0,2:0:0:0:
128,160,74530,5,0,0:0:0:0:
320,64,74688,1,0,2:0:0:0:
320,192,74846,5,0,0:0:0:0:
128,64,75004,1,0,2:0:0:0:
160,176,75162,2,0,P|176:240|208:272,1,110,0|0,0:0|2:0,0:0:0:0:
320,304,75478,2,0,L|464:304,1,110,0|0,0:0|2:0,0:0:0:0:
368,208,75793,2,0,L|240:208,1,110,4|0,2:0|0:0,0:0:0:0:
160,208,76109,5,0,0:0:0:0:
224,128,76267,1,0,0:0:0:0:
320,128,76425,2,0,L|464:128,1,110
288,48,76741,2,0,P|192:48|160:80,1,110
240,112,77057,2,0,L|240:224,1,110
320,224,77372,5,0,0:0:0:0:
256,304,77530,1,0,0:0:0:0:
160,240,77688,2,0,P|112:208|96:144,1,110
240,80,78004,2,0,P|272:128|288:192,1,110
64,112,78320,2,0,P|128:64|176:64,1,110
128,176,78635,2,0,P|96:224|32:256,1,110
192,128,78951,2,0,P|240:128|304:160,1,110
352,208,79267,5,0,0:0:0:0:
224,208,79425,1,2,2:0:0:0:
192,208,79504,1,2,2:0:0:0:
160,208,79583,1,2,2:0:0:0:
48,320,79899,5,0,2:0:0:0:
240,32,80214,1,0,2:0:0:0:
400,336,80530,1,0,2:0:0:0:
288,224,80846,5,4,2:0:0:0:
240,160,81004,1,0,0:0:0:0:
208,224,81162,2,0,L|64:224,1,110
32,192,81478,5,0,0:0:0:0:
80,128,81635,1,0,0:0:0:0:
160,160,81793,2,0,L|288:160,1,110
336,192,82109,5,0,0:0:0:0:
240,272,82267,1,0,0:0:0:0:
208,176,82425,2,0,L|64:192,1,110
48,96,82741,5,0,0:0:0:0:
160,32,82899,1,0,0:0:0:0:
160,128,83057,2,0,L|320:128,1,110
384,128,83372,5,4,2:0:0:0:
320,224,83530,1,0,0:0:0:0:
208,176,83688,2,0,L|80:176,1,110
112,320,84004,5,0,0:0:0:0:
112,256,84162,1,0,0:0:0:0:
128,352,84320,5,0,0:0:0:0:
96,224,84478,1,0,0:0:0:0:
160,368,84635,5,0,0:0:0:0:
48,224,84793,1,0,0:0:0:0:
208,352,84951,5,0,0:0:0:0:
16,256,85109,1,0,0:0:0:0:
240,304,85267,5,0,0:0:0:0:
16,304,85425,1,0,0:0:0:0:
96,192,85583,2,0,P|144:128|208:112,1,110
272,208,85899,2,0,P|240:256|192:288,1,110,4|0,2:0|0:0,0:0:0:0:
112,224,86214,5,0,0:0:0:0:
160,144,86372,1,0,0:0:0:0:
256,144,86530,2,0,L|384:208,1,110
400,272,86846,5,0,0:0:0:0:
288,288,87004,1,0,0:0:0:0:
192,208,87162,2,0,L|80:208,1,110
144,128,87478,5,0,0:0:0:0:
256,128,87635,1,0,0:0:0:0:
272,208,87793,2,0,B|272:272|272:272|224:320,1,110
160,240,88109,2,0,B|176:176|176:176|224:144,1,110
240,208,88425,6,0,B|288:160|288:160|352:144,1,110,4|0,2:0|0:0,0:0:0:0:
320,192,88741,2,0,B|400:192|400:192|432:224,1,110,8|0,2:0|0:0,0:0:0:0:
384,240,89057,2,0,B|432:304|432:304|416:352,1,110,8|0,2:0|0:0,0:0:0:0:
320,288,89372,2,0,B|256:224|256:224|256:160,1,110,8|0,2:0|0:0,0:0:0:0:
256,128,89688,5,0,2:0:0:0:
352,80,89846,1,0,0:0:0:0:
256,48,90004,5,0,2:0:0:0:
336,160,90162,1,0,0:0:0:0:
224,160,90320,5,0,2:0:0:0:
384,48,90478,1,0,0:0:0:0:
224,32,90635,5,0,2:0:0:0:
352,208,90793,1,0,0:0:0:0:
432,32,90951,5,0,2:0:0:0:
192,208,91109,1,0,0:0:0:0:
176,16,91267,5,0,2:0:0:0:
384,256,91425,1,0,0:0:0:0:
256,144,91583,2,0,L|112:160,1,110,0|0,2:0|0:0,0:0:0:0:
224,240,91899,2,0,L|336:192,1,110,0|0,2:0|0:0,0:0:0:0:
336,112,92214,5,4,2:0:0:0:
208,48,92372,1,0,0:0:0:0:
240,144,92530,2,0,L|176:272,1,110
272,320,92846,5,0,0:0:0:0:
384,240,93004,1,0,0:0:0:0:
320,160,93162,2,0,L|160:160,1,110
112,64,93478,2,0,L|240:64,1,110
320,80,93793,2,0,P|272:128|192:144,1,110
128,144,94109,5,0,0:0:0:0:
208,208,94267,2,0,P|272:240|352:240,1,110
288,128,94583,2,0,P|208:96|160:96,1,110
240,208,94899,2,0,P|336:208|368:176,1,110
240,112,95214,6,0,P|144:128|128:176,1,110
272,192,95530,2,0,P|320:128|320:80,1,110
192,144,95846,2,0,P|176:208|176:272,1,110,0|4,0:0|2:0,0:0:0:0:
256,288,96162,5,0,0:0:0:0:
320,192,96320,1,0,2:0:0:0:
400,288,96478,5,0,0:0:0:0:
432,176,96635,1,0,2:0:0:0:
496,256,96793,5,0,0:0:0:0:
336,192,96951,1,0,2:0:0:0:
496,160,97109,5,0,0:0:0:0:
352,112,97267,1,0,2:0:0:0:
496,80,97425,5,0,0:0:0:0:
368,16,97583,1,0,2:0:0:0:
464,176,97741,5,0,0:0:0:0:
304,96,97899,1,0,2:0:0:0:
352,224,98057,5,0,0:0:0:0:
416,64,98214,1,0,2:0:0:0:
240,176,98372,5,0,0:0:0:0:
320,48,98530,1,0,2:0:0:0:
176,96,98688,5,0,0:0:0:0:
224,16,98846,1,0,2:0:0:0:
176,96,99004,5,0,0:0:0:0:
224,16,99162,1,0,2:0:0:0:
272,96,99320,2,0,P|272:176|224:224,1,110,0|8,0:0|2:0,0:0:0:0:
144,208,99635,5,0,0:0:0:0:
288,288,99793,2,0,P|336:320|432:288,1,165,0|4,0:0|2:0,0:0:0:0:
