osu file format v14

[General]
AudioFilename: audio.mp3
AudioLeadIn: 0
PreviewTime: 40425
Countdown: 0
SampleSet: Normal
StackLeniency: 0.3
Mode: 0
LetterboxInBreaks: 0
WidescreenStoryboard: 1

[Editor]
Bookmarks: 7583,10109,12635,15162,17688,20214,59372,60635,99793
DistanceSpacing: 0.4
BeatDivisor: 4
GridSize: 16
TimelineZoom: 1

[Metadata]
Title:The World Revolving
TitleUnicode:The World Revolving
Artist:Toby Fox
ArtistUnicode:Toby Fox
Creator:meguziiz
Version:Another
Source:DELTARUNE
Tags:Jevil
BeatmapID:1877752
BeatmapSetID:898894

[Difficulty]
HPDrainRate:3.5
CircleSize:3.6
OverallDifficulty:6
ApproachRate:9
SliderMultiplier:2
SliderTickRate:1

[Events]
//Background and Video events
0,0,"cheech.jpg",0,0
//Break Periods
2,7782,9509
2,12835,14562
2,17888,19614
//Storyboard Layer 0 (Background)
//Storyboard Layer 1 (Fail)
//Storyboard Layer 2 (Pass)
//Storyboard Layer 3 (Foreground)
//Storyboard Sound Samples

[TimingPoints]
4.40803370214257,315.789473684211,4,1,1,100,1,0
83,-100,4,1,1,100,0,0
3478,-100,4,1,1,100,0,0
20214,-80,4,1,1,100,0,0
30320,-133.333333333333,4,1,1,100,0,0
34741,-100,4,1,1,100,0,0
40425,-100,4,1,1,100,0,1
59372,-200,4,1,1,100,0,0
60635,-100,4,1,1,100,0,0
79583,-100,4,1,1,100,0,0
80846,-100,4,1,1,100,0,0
99793,-333.333333333333,4,1,1,100,0,0

[Colours]
Combo1 : 14,0,79
Combo2 : 190,83,255
Combo3 : 58,0,94
Combo4 : 227,193,255

[HitObjects]
57,122,4,6,0,P|134:95|185:106,1,100,2|0,2:0|0:0,0:0:0:0:
232,138,320,2,0,P|309:163|368:158,1,100,2|0,2:0|0:0,0:0:0:0:
430,158,635,2,0,P|432:222|402:273,1,100,2|0,2:0|0:0,0:0:0:0:
299,278,951,5,0,0:0:0:0:
264,274,1109,2,0,P|191:246|163:218,1,100
218,135,1425,2,0,P|229:73|273:51,1,100
344,98,1741,2,0,P|327:180|286:209,1,100
230,229,2057,5,0,0:0:0:0:
162,159,2214,1,0,0:0:0:0:
96,227,2372,1,0,0:0:0:0:
37,150,2530,1,4,2:0:0:0:
100,80,2688,1,0,0:0:0:0:
193,83,2846,6,0,P|258:113|282:151,1,100
288,231,3162,2,0,P|259:298|213:331,1,100
140,297,3478,2,0,P|155:201|174:173,1,100
235,115,3793,2,0,P|297:93|365:111,1,100
409,167,4109,2,0,P|392:235|358:289,1,100
273,277,4425,5,4,2:0:0:0:
224,213,4583,1,0,0:0:0:0:
180,271,4741,1,4,2:0:0:0:
128,208,4899,1,0,0:0:0:0:
80,272,5057,1,4,2:0:0:0:
97,342,5214,6,0,P|179:344|235:335,1,100
284,338,5530,2,0,P|347:313|394:273,1,100
352,182,5846,2,0,P|289:159|223:155,1,100
178,203,6162,2,0,P|203:283|242:305,1,100
317,310,6478,6,0,L|334:179,1,100
355,152,6793,2,0,P|310:160|220:139,1,100
154,142,7109,2,0,P|134:247|147:269,1,100
197,298,7425,2,0,P|270:289|319:263,1,100,0|4,0:0|2:0,0:0:0:0:
88,109,10109,6,0,P|153:137|192:103,1,100,4|0,2:0|0:0,0:0:0:0:
256,64,10425,2,0,P|316:66|363:98,1,100
416,144,10741,2,0,P|476:130|496:92,2,100
320,144,11214,5,0,0:0:0:0:
222,144,11372,1,0,0:0:0:0:
130,144,11530,1,0,0:0:0:0:
96,240,11688,1,0,0:0:0:0:
192,240,11846,1,0,0:0:0:0:
288,240,12004,1,0,0:0:0:0:
320,336,12162,6,0,L|176:336,1,100
96,240,12478,2,0,L|208:240,1,100,0|4,0:0|2:0,0:0:0:0:
96,144,15162,5,2,2:0:0:0:
144,80,15320,1,0,0:0:0:0:
208,144,15478,5,2,2:0:0:0:
256,80,15635,1,0,0:0:0:0:
208,144,15793,5,2,2:0:0:0:
144,80,15951,1,0,0:0:0:0:
96,144,16109,5,2,2:0:0:0:
160,208,16267,1,0,0:0:0:0:
224,256,16425,5,2,2:0:0:0:
288,208,16583,1,0,0:0:0:0:
144,160,16741,5,2,2:0:0:0:
304,112,16899,1,0,0:0:0:0:
176,64,17057,5,2,2:0:0:0:
272,208,17214,1,0,0:0:0:0:
160,224,17372,5,2,2:0:0:0:
256,64,17530,1,0,0:0:0:0:
368,208,17688,1,4,2:0:0:0:
32,80,20214,6,0,P|144:64|192:96,1,125,4|0,2:0|0:0,0:0:0:0:
208,144,20530,2,0,P|160:224|128:240,1,125,8|0,2:0|0:0,0:0:0:0:
144,320,20846,2,0,P|224:336|304:320,1,125,8|0,2:0|0:0,0:0:0:0:
336,272,21162,2,0,P|368:192|416:160,1,125,8|0,2:0|0:0,0:0:0:0:
344,96,21478,5,8,2:0:0:0:
230,95,21635,1,2,2:0:0:0:
283,186,21793,1,2,2:0:0:0:
410,189,21951,1,2,2:0:0:0:
345,129,22109,5,0,2:0:0:0:
416,32,22267,1,0,0:0:0:0:
345,129,22425,5,0,0:0:0:0:
272,32,22583,1,0,0:0:0:0:
176,112,22741,6,0,P|96:80|32:112,1,125
96,160,23057,2,0,P|128:64|112:16,1,125
32,80,23372,2,0,P|16:176|48:224,1,125
96,256,23688,2,0,P|176:240|224:272,1,125
336,192,24004,6,0,P|320:128|256:96,1,125
304,288,24320,2,0,P|384:288|416:256,1,125
224,192,24635,2,0,P|208:272|224:320,1,125,2|0,2:0|0:0,0:0:0:0:
320,256,24951,2,0,P|416:224|448:160,1,125,2|0,2:0|0:0,0:0:0:0:
352,176,25267,5,2,2:0:0:0:
304,112,25425,1,2,2:0:0:0:
256,176,25583,5,2,2:0:0:0:
208,112,25741,1,2,2:0:0:0:
160,176,25899,5,0,0:0:0:0:
112,112,26057,1,0,0:0:0:0:
160,176,26214,5,0,0:0:0:0:
208,112,26372,1,0,0:0:0:0:
256,176,26530,5,0,0:0:0:0:
304,112,26688,1,0,0:0:0:0:
144,128,26846,5,0,0:0:0:0:
272,48,27004,1,0,0:0:0:0:
288,144,27162,5,0,0:0:0:0:
128,64,27320,1,0,0:0:0:0:
160,192,27478,5,0,0:0:0:0:
240,64,27635,1,0,0:0:0:0:
112,112,27793,5,0,0:0:0:0:
272,144,27951,1,0,0:0:0:0:
176,176,28109,6,0,P|192:256|240:304,1,125
288,240,28425,2,0,P|368:192|368:144,1,125
272,128,28741,2,0,P|192:96|96:112,1,125
128,176,29057,2,0,P|144:240|192:288,1,125
176,352,29372,6,0,P|256:288|240:240,1,125
240,176,29688,2,0,P|144:128|96:144,1,125
112,224,30004,2,0,P|192:256|256:240,1,125
304,192,30320,2,0,P|336:128|368:112,1,75.0000028610231,4|0,2:0|0:0,0:0:0:0:
416,192,30635,6,0,P|384:224|352:240,1,75.0000028610231
272,256,30951,2,0,L|192:256,1,75.0000028610231
128,176,31267,2,0,L|224:176,1,75.0000028610231
256,96,31583,2,0,L|192:96,2,37.5000014305115
320,32,31899,5,0,0:0:0:0:
384,96,32057,1,0,0:0:0:0:
448,32,32214,1,0,0:0:0:0:
384,96,32372,5,0,0:0:0:0:
320,32,32530,1,0,0:0:0:0:
256,96,32688,1,0,0:0:0:0:
192,160,32846,5,4,2:0:0:0:
112,48,33004,1,0,0:0:0:0:
128,192,33162,5,4,2:0:0:0:
48,80,33320,1,0,0:0:0:0:
96,272,33478,5,4,2:0:0:0:
16,160,33635,1,0,0:0:0:0:
176,240,33793,5,4,2:0:0:0:
128,128,33951,1,0,0:0:0:0:
272,224,34109,5,4,2:0:0:0:
240,112,34267,1,0,0:0:0:0:
352,112,34425,5,0,0:0:0:0:
368,224,34583,1,0,0:0:0:0:
448,192,34741,6,0,P|464:256|448:320,1,100,4|0,2:0|0:0,0:0:0:0:
368,320,35057,2,0,P|304:336|256:320,1,100,4|0,2:0|0:0,0:0:0:0:
224,208,35372,2,0,P|144:192|112:208,1,100,4|0,2:0|0:0,0:0:0:0:
96,272,35688,5,0,0:0:0:0:
128,288,35846,2,0,P|208:320|240:320,1,100,4|0,2:0|0:0,0:0:0:0:
304,304,36162,5,0,0:0:0:0:
368,240,36320,1,0,2:0:0:0:
288,208,36478,5,0,0:0:0:0:
352,144,36635,1,0,2:0:0:0:
208,176,36793,5,0,0:0:0:0:
272,128,36951,1,0,2:0:0:0:
144,128,37109,5,0,0:0:0:0:
112,16,37267,1,0,2:0:0:0:
80,96,37425,5,0,0:0:0:0:
176,32,37583,1,0,2:0:0:0:
272,80,37741,6,0,P|352:48|384:64,1,100
416,112,38057,2,0,P|400:176|416:224,1,100
416,304,38372,2,0,P|400:352|336:368,1,100
272,320,38688,2,0,P|192:304|160:304,1,100
96,240,39004,5,0,0:0:0:0:
160,176,39162,1,0,0:0:0:0:
80,128,39320,2,0,P|128:48|160:48,1,100,0|4,0:0|2:0,0:0:0:0:
208,80,39635,2,0,L|352:80,1,100,0|4,0:0|2:0,0:0:0:0:
304,160,39951,5,0,0:0:0:0:
240,224,40109,1,4,2:0:0:0:
208,144,40267,2,0,L|80:144,1,100,0|4,0:0|2:0,0:0:0:0:
32,272,40583,5,0,0:0:0:0:
96,208,40741,1,0,0:0:0:0:
160,272,40899,1,0,0:0:0:0:
224,208,41057,1,4,2:0:0:0:
288,272,41214,2,0,L|320:224,2,50
224,208,41530,5,0,0:0:0:0:
160,272,41688,1,4,2:0:0:0:
112,192,41846,2,0,L|80:144,2,50
192,144,42162,5,0,0:0:0:0:
240,32,42320,1,4,2:0:0:0:
112,80,42478,2,0,L|32:96,2,50
80,208,42793,5,0,0:0:0:0:
208,144,42951,1,4,2:0:0:0:
144,272,43109,5,0,0:0:0:0:
256,208,43267,1,4,2:0:0:0:
240,336,43425,5,0,0:0:0:0:
320,272,43583,1,4,2:0:0:0:
352,368,43741,5,0,0:0:0:0:
416,288,43899,1,4,2:0:0:0:
448,368,44057,5,0,0:0:0:0:
320,288,44214,1,4,2:0:0:0:
480,224,44372,5,0,0:0:0:0:
352,192,44530,1,0,0:0:0:0:
448,96,44688,5,0,0:0:0:0:
288,112,44846,1,4,2:0:0:0:
384,32,45004,5,0,0:0:0:0:
368,176,45162,1,0,0:0:0:0:
272,144,45320,5,0,0:0:0:0:
208,80,45478,1,4,2:0:0:0:
144,144,45635,1,0,0:0:0:0:
80,80,45793,1,4,2:0:0:0:
48,176,45951,5,0,0:0:0:0:
112,272,46109,1,4,2:0:0:0:
192,176,46267,5,0,0:0:0:0:
96,288,46425,1,4,2:0:0:0:
48,144,46583,5,0,0:0:0:0:
144,304,46741,1,4,2:0:0:0:
160,192,46899,2,0,L|208:128,2,50
208,256,47214,5,0,0:0:0:0:
320,176,47372,1,0,0:0:0:0:
320,288,47530,5,0,0:0:0:0:
208,160,47688,1,0,0:0:0:0:
256,304,47846,5,0,0:0:0:0:
272,144,48004,1,0,0:0:0:0:
160,176,48162,6,0,P|112:256|128:288,1,100
176,320,48478,2,0,P|240:304|288:336,1,100
352,336,48793,2,0,P|416:352|464:336,1,100
416,272,49109,2,0,P|352:208|320:224,1,100
304,272,49425,6,0,P|240:256|192:224,1,100
304,192,49741,2,0,P|368:240|368:288,1,100
224,240,50057,2,0,P|208:176|240:128,1,100
304,112,50372,1,0,0:0:0:0:
400,160,50530,5,4,2:0:0:0:
480,208,50688,1,0,0:0:0:0:
400,256,50846,5,4,2:0:0:0:
480,320,51004,1,0,0:0:0:0:
400,352,51162,5,4,2:0:0:0:
320,288,51320,1,0,0:0:0:0:
256,352,51478,5,4,2:0:0:0:
192,288,51635,1,0,0:0:0:0:
96,256,51793,6,0,P|80:160|96:144,1,100,4|0,2:0|0:0,0:0:0:0:
160,192,52109,2,0,P|224:176|272:192,1,100,8|0,2:0|0:0,0:0:0:0:
208,240,52425,2,0,P|208:144|224:112,1,100,4|0,2:0|0:0,0:0:0:0:
304,128,52741,2,0,L|416:128,1,100,8|0,2:0|0:0,0:0:0:0:
400,208,53057,2,0,L|400:320,1,100
352,336,53372,2,0,P|416:352|480:336,1,100
464,272,53688,5,0,0:0:0:0:
400,208,53846,1,0,0:0:0:0:
480,160,54004,5,0,0:0:0:0:
416,112,54162,1,0,0:0:0:0:
320,160,54320,5,0,0:0:0:0:
224,96,54478,1,0,0:0:0:0:
240,192,54635,5,0,0:0:0:0:
336,80,54793,1,0,0:0:0:0:
336,224,54951,5,0,0:0:0:0:
288,80,55109,1,0,0:0:0:0:
224,224,55267,5,0,0:0:0:0:
176,80,55425,1,0,0:0:0:0:
128,224,55583,5,4,2:0:0:0:
288,128,55741,2,0,L|352:96,2,50
304,224,56057,5,0,0:0:0:0:
160,176,56214,1,4,2:0:0:0:
208,272,56372,5,0,0:0:0:0:
352,320,56530,1,4,2:0:0:0:
304,176,56688,5,0,0:0:0:0:
128,224,56846,1,4,2:0:0:0:
176,128,57004,5,0,0:0:0:0:
336,96,57162,1,4,2:0:0:0:
208,192,57320,5,0,0:0:0:0:
256,48,57478,1,4,2:0:0:0:
288,176,57635,5,0,0:0:0:0:
176,64,57793,1,0,0:0:0:0:
336,144,57951,5,0,0:0:0:0:
128,112,58109,1,4,2:0:0:0:
320,80,58267,5,0,0:0:0:0:
160,176,58425,1,4,2:0:0:0:
256,32,58583,5,0,0:0:0:0:
224,208,58741,1,4,2:0:0:0:
272,176,58899,5,0,0:0:0:0:
336,256,59057,1,4,2:0:0:0:
384,176,59214,5,0,0:0:0:0:
448,256,59372,1,4,2:0:0:0:
208,112,59846,5,0,0:0:0:0:
176,112,59925,1,0,0:0:0:0:
144,112,60004,1,0,0:0:0:0:
72,97,60635,6,0,P|161:84|190:105,1,100
231,157,60951,2,0,P|305:165|344:147,1,100
258,75,61267,2,0,P|207:86|161:142,1,100
273,143,61583,2,0,P|334:109|336:63,1,100
252,57,61899,2,0,L|124:57,1,100
80,96,62214,5,0,0:0:0:0:
160,144,62372,1,0,0:0:0:0:
160,64,62530,2,0,L|16:64,1,100
64,128,62846,5,0,0:0:0:0:
128,192,63004,1,0,0:0:0:0:
160,112,63162,2,0,L|272:112,1,100
352,144,63478,5,0,0:0:0:0:
288,208,63635,1,0,0:0:0:0:
256,128,63793,2,0,P|304:64|352:64,1,100
400,128,64109,2,0,P|336:176|288:176,1,100
208,176,64425,6,0,L|96:176,1,100
160,256,64741,2,0,L|160:368,1,100
240,352,65057,1,0,0:0:0:0:
240,272,65214,1,0,0:0:0:0:
144,272,65372,2,0,B|96:272|96:272|96:192,1,100
160,128,65688,2,0,B|224:112|224:112|288:128,1,100
336,192,66004,6,0,P|320:256|272:272,1,100
192,304,66320,2,0,L|304:352,1,100
272,256,66635,2,0,L|160:208,1,100
112,112,66951,2,0,P|208:96|240:64,1,100
272,32,67267,2,0,P|352:32|384:48,1,100
416,112,67583,5,4,2:0:0:0:
304,160,67741,1,0,0:0:0:0:
416,224,67899,5,4,2:0:0:0:
304,288,68057,1,0,0:0:0:0:
224,224,68214,6,0,L|96:160,1,100,8|0,2:0|0:0,0:0:0:0:
112,64,68530,2,0,L|208:112,1,100,8|0,2:0|0:0,0:0:0:0:
320,144,68846,2,0,L|432:176,1,100,8|0,2:0|0:0,0:0:0:0:
384,256,69162,6,0,P|336:288|256:288,1,100,8|0,2:0|0:0,0:0:0:0:
336,224,69478,2,0,P|272:224|240:208,1,100,12|0,2:0|0:0,0:0:0:0:
336,176,69793,6,0,P|272:144|256:112,1,100,0|0,2:0|0:0,0:0:0:0:
352,144,70109,2,0,P|320:96|320:48,1,100,0|0,2:0|0:0,0:0:0:0:
400,112,70425,6,0,P|400:48|416:16,1,100,0|0,2:0|0:0,0:0:0:0:
496,48,70741,5,0,2:0:0:0:
464,176,70899,1,0,0:0:0:0:
384,48,71057,5,0,2:0:0:0:
352,192,71214,1,0,0:0:0:0:
272,48,71372,5,0,2:0:0:0:
240,192,71530,1,0,0:0:0:0:
160,96,71688,5,0,2:0:0:0:
352,128,71846,1,0,0:0:0:0:
160,176,72004,5,0,2:0:0:0:
304,208,72162,1,0,0:0:0:0:
176,288,72320,5,0,2:0:0:0:
256,128,72478,1,0,0:0:0:0:
272,288,72635,5,0,2:0:0:0:
384,144,72793,1,0,0:0:0:0:
400,336,72951,1,0,2:0:0:0:
272,176,73109,1,0,0:0:0:0:
448,240,73267,1,4,2:0:0:0:
272,288,73425,5,0,0:0:0:0:
384,144,73583,1,0,2:0:0:0:
400,336,73741,1,0,0:0:0:0:
272,176,73899,1,0,2:0:0:0:
448,240,74057,1,0,0:0:0:0:
352,128,74214,6,0,B|272:128|272:128|224:176,1,100
256,240,74530,2,0,B|272:320|272:320|320:336,1,100
384,256,74846,2,0,B|416:176|416:176|368:144,1,100
320,160,75162,5,0,0:0:0:0:
288,64,75320,1,0,0:0:0:0:
240,160,75478,5,0,0:0:0:0:
208,64,75635,1,0,0:0:0:0:
176,176,75793,5,4,2:0:0:0:
128,96,75951,1,0,0:0:0:0:
64,176,76109,6,0,P|96:256|112:288,1,100
192,304,76425,2,0,P|240:288|288:224,1,100
288,176,76741,2,0,L|160:176,1,100
144,224,77057,2,0,P|128:144|160:112,1,100
192,64,77372,5,0,0:0:0:0:
272,240,77530,1,0,0:0:0:0:
336,112,77688,2,0,P|416:128|448:176,1,100
384,240,78004,5,0,0:0:0:0:
192,144,78162,1,0,0:0:0:0:
256,272,78320,2,0,L|192:352,1,100,4|0,2:0|0:0,0:0:0:0:
112,304,78635,2,0,L|80:160,1,100,8|0,2:0|0:0,0:0:0:0:
208,256,78951,2,0,L|320:272,1,100,8|0,2:0|0:0,0:0:0:0:
192,336,79267,1,8,0:0:0:0:
112,256,79425,5,0,0:0:0:0:
80,224,79504,1,0,0:0:0:0:
48,192,79583,1,0,0:0:0:0:
240,32,79899,5,0,0:0:0:0:
464,192,80214,1,0,0:0:0:0:
240,352,80530,1,0,0:0:0:0:
96,160,80846,6,0,B|160:176|160:176|224:160,1,100
128,80,81162,1,0,0:0:0:0:
48,96,81320,1,0,0:0:0:0:
48,192,81478,2,0,B|112:224|112:224|176:208,1,100
224,224,81793,2,0,B|288:224|288:224|336:256,1,100
304,288,82109,2,0,B|384:304|384:304|416:272,1,100
368,192,82425,5,0,0:0:0:0:
288,64,82583,1,0,0:0:0:0:
272,208,82741,5,0,0:0:0:0:
384,64,82899,1,0,0:0:0:0:
400,160,83057,6,0,P|384:240|352:272,1,100
272,304,83372,2,0,P|208:256|192:208,1,100
192,112,83688,2,0,P|240:96|304:112,1,100
224,192,84004,2,0,P|128:192|96:160,1,100
96,96,84320,5,0,0:0:0:0:
160,48,84478,1,0,0:0:0:0:
224,96,84635,5,0,0:0:0:0:
272,48,84793,1,0,0:0:0:0:
320,96,84951,1,0,0:0:0:0:
272,48,85109,5,0,0:0:0:0:
224,96,85267,1,0,0:0:0:0:
160,48,85425,5,0,0:0:0:0:
96,96,85583,1,0,0:0:0:0:
176,176,85741,5,0,0:0:0:0:
336,64,85899,1,0,0:0:0:0:
352,160,86057,2,0,P|320:240|272:256,1,100
288,128,86372,5,0,0:0:0:0:
352,80,86530,1,0,0:0:0:0:
432,112,86688,2,0,P|448:192|432:240,1,100
320,256,87004,5,0,0:0:0:0:
288,160,87162,1,0,2:0:0:0:
384,144,87320,2,0,L|512:160,1,100,0|0,0:0|2:0,0:0:0:0:
416,208,87635,2,0,P|432:96|416:80,1,100,0|0,0:0|2:0,0:0:0:0:
352,96,87951,5,0,0:0:0:0:
224,32,88109,1,0,2:0:0:0:
160,160,88267,1,0,0:0:0:0:
304,224,88425,1,4,2:0:0:0:
352,96,88583,1,0,0:0:0:0:
160,80,88741,1,0,2:0:0:0:
320,16,88899,5,0,0:0:0:0:
192,176,89057,1,0,2:0:0:0:
336,144,89214,5,0,0:0:0:0:
192,32,89372,1,0,2:0:0:0:
256,192,89530,5,0,0:0:0:0:
272,16,89688,1,0,2:0:0:0:
352,192,89846,5,0,0:0:0:0:
352,32,90004,1,0,2:0:0:0:
432,176,90162,5,0,0:0:0:0:
432,48,90320,1,0,2:0:0:0:
352,160,90478,5,0,0:0:0:0:
352,64,90635,1,0,2:0:0:0:
272,192,90793,5,0,0:0:0:0:
272,32,90951,1,0,2:0:0:0:
176,112,91109,5,0,0:0:0:0:
352,96,91267,1,0,2:0:0:0:
176,48,91425,5,0,0:0:0:0:
352,160,91583,1,0,2:0:0:0:
192,176,91741,5,0,0:0:0:0:
320,48,91899,1,0,2:0:0:0:
320,192,92057,5,0,0:0:0:0:
208,32,92214,1,2,2:0:0:0:
112,80,92372,6,0,P|96:160|96:208,1,100,0|0,0:0|0:0,0:0:0:0:
144,272,92688,2,0,P|224:256|272:288,1,100
336,272,93004,2,0,P|400:304|448:288,1,100
384,144,93320,2,0,P|304:112|256:128,1,100
208,176,93635,2,0,P|112:176|96:192,1,100
128,256,93951,5,0,0:0:0:0:
208,48,94109,1,0,0:0:0:0:
272,192,94267,5,0,0:0:0:0:
64,112,94425,1,0,0:0:0:0:
288,80,94583,2,0,P|384:96|416:128,1,100
416,176,94899,2,0,P|384:240|336:256,1,100
288,256,95214,5,0,0:0:0:0:
208,176,95372,1,0,0:0:0:0:
128,256,95530,1,0,0:0:0:0:
208,336,95688,1,0,0:0:0:0:
288,256,95846,1,0,0:0:0:0:
256,256,96004,5,0,0:0:0:0:
208,208,96162,1,0,0:0:0:0:
160,256,96320,1,0,0:0:0:0:
208,304,96478,1,0,0:0:0:0:
288,288,96635,5,0,0:0:0:0:
320,208,96793,1,0,0:0:0:0:
384,288,96951,5,0,0:0:0:0:
416,208,97109,1,0,0:0:0:0:
320,224,97267,5,0,0:0:0:0:
256,112,97425,1,0,0:0:0:0:
288,240,97583,5,0,0:0:0:0:
384,96,97741,1,0,0:0:0:0:
352,240,97899,5,0,0:0:0:0:
256,80,98057,1,0,0:0:0:0:
400,160,98214,6,0,P|448:224|448:272,1,100
384,304,98530,2,0,P|288:320|256:304,1,100
208,240,98846,2,0,L|112:160,2,100
256,192,99320,5,0,0:0:0:0:
304,128,99478,1,0,0:0:0:0:
368,192,99635,1,0,0:0:0:0:
448,128,99793,2,0,L|448:320,1,179.999994506836,0|4,0:0|2:0,0:0:0:0:
