osu file format v14

[General]
AudioFilename: audio.mp3
AudioLeadIn: 0
PreviewTime: 196602
Countdown: 0
SampleSet: Normal
StackLeniency: 0.7
Mode: 3
LetterboxInBreaks: 0
SpecialStyle: 0
WidescreenStoryboard: 0

[Editor]
DistanceSpacing: 1
BeatDivisor: 2
GridSize: 8
TimelineZoom: 1.62

[Metadata]
Title:The Third Sanctuary
TitleUnicode:The Third Sanctuary
Artist:Toby Fox
ArtistUnicode:Toby Fox
Creator:Anwul_
Version:The Last Prophecy
Source:DELTARUNE
Tags:videogame video game music vgm instrumental electronic ost original soundtrack sound track undertale kris ralsei susie chapter 4 four ch.4 brackets time signature
BeatmapID:5180902
BeatmapSetID:2392899

[Difficulty]
HPDrainRate:8.5
CircleSize:7
OverallDifficulty:8.5
ApproachRate:5
SliderMultiplier:1.4
SliderTickRate:1

[Events]
//Background and Video events
0,0,"windo w.png",0,0
//Break Periods
//Storyboard Layer 0 (Background)
//Storyboard Layer 1 (Fail)
//Storyboard Layer 2 (Pass)
//Storyboard Layer 3 (Foreground)
//Storyboard Layer 4 (Overlay)
//Storyboard Sound Samples

[TimingPoints]
25,352.941176470588,9,1,1,15,1,0
25436,352.941176470588,5,1,1,15,1,0
27377,352.941176470588,5,1,1,15,1,0
29318,352.941176470588,5,1,1,15,1,0
31259,352.941176470588,5,1,1,15,1,0
33200,352.941176470588,2,1,1,15,1,0
33905,352.941176470588,5,1,1,15,1,0
35846,352.941176470588,5,1,1,15,1,0
37787,352.941176470588,5,1,1,15,1,0
39728,352.941176470588,5,1,1,15,1,0
41669,352.941176470588,5,1,1,15,1,0
43610,352.941176470588,5,1,1,15,1,0
45551,352.941176470588,5,1,1,15,1,0
47492,352.941176470588,5,1,1,15,1,0
49433,352.941176470588,5,1,1,15,1,0
51374,352.941176470588,5,1,1,15,1,0
53315,352.941176470588,5,1,1,15,1,0
55256,352.941176470588,5,1,1,15,1,0
57197,352.941176470588,5,1,1,15,1,0
59138,352.941176470588,5,1,1,15,1,0
61079,352.941176470588,5,1,1,15,1,0
63020,352.941176470588,5,1,1,15,1,0
64961,352.941176470588,5,1,1,15,1,0
107313,352.941176470588,5,1,1,15,1,0
109254,352.941176470588,5,1,1,15,1,0
111195,352.941176470588,5,1,1,15,1,0
112959,352.941176470588,6,1,1,15,1,0
115077,352.941176470588,5,1,1,15,1,0
117018,352.941176470588,5,1,1,15,1,0
118959,352.941176470588,6,1,1,15,1,0
123194,352.941176470588,5,1,1,15,1,0
125135,352.941176470588,5,1,1,15,1,0
127076,352.941176470588,5,1,1,15,1,0
129017,352.941176470588,5,1,1,15,1,0
130958,352.941176470588,5,1,1,15,1,0
132899,352.941176470588,5,1,1,15,1,0
134840,352.941176470588,5,1,1,15,1,0
136781,352.941176470588,5,1,1,15,1,0
138722,352.941176470588,5,1,1,15,1,0
140663,352.941176470588,5,1,1,15,1,0
142604,352.941176470588,5,1,1,15,1,0
144545,352.941176470588,5,1,1,15,1,0
146486,352.941176470588,5,1,1,15,1,0
148427,352.941176470588,5,1,1,15,1,0
150368,352.941176470588,5,1,1,15,1,0
152309,352.941176470588,5,1,1,15,1,0
154250,352.941176470588,5,1,1,15,1,0
196602,352.941176470588,6,1,1,15,1,0
198719,352.941176470588,5,1,1,15,1,0
200660,352.941176470588,6,1,1,15,1,0
202777,352.941176470588,5,1,1,15,1,0
204718,352.941176470588,6,1,1,15,1,0
206835,352.941176470588,5,1,1,15,1,0
208776,352.941176470588,6,1,1,15,1,0
210893,352.941176470588,5,1,1,15,1,0
212834,352.941176470588,6,1,1,15,1,0
214951,352.941176470588,5,1,1,15,1,0
216892,352.941176470588,6,1,1,15,1,0
219009,352.941176470588,5,1,1,15,1,0
220950,352.941176470588,6,1,1,15,1,0
223067,352.941176470588,5,1,1,15,1,0
225008,352.941176470588,6,1,1,15,1,0
227125,352.941176470588,5,1,1,15,1,0
229066,352.941176470588,6,1,1,15,1,0
231183,352.941176470588,5,1,1,15,1,0
233124,352.941176470588,6,1,1,15,1,0
235241,352.941176470588,5,1,1,15,1,0
237182,352.941176470588,6,1,1,15,1,0
239299,352.941176470588,5,1,1,15,1,0
241240,352.941176470588,6,1,1,15,1,0
243357,352.941176470588,5,1,1,15,1,0

[HitObjects]
256,192,25,5,0,0:0:0:0:
182,192,201,1,0,0:0:0:0:
36,192,377,1,0,0:0:0:0:
329,192,554,1,0,0:0:0:0:
256,192,730,1,0,0:0:0:0:
256,192,907,1,0,0:0:0:0:
402,192,1083,1,0,0:0:0:0:
109,192,1260,1,0,0:0:0:0:
475,192,1436,1,0,0:0:0:0:
256,192,3201,1,0,0:0:0:0:
182,192,3377,1,0,0:0:0:0:
36,192,3554,1,0,0:0:0:0:
329,192,3730,1,0,0:0:0:0:
256,192,3907,1,0,0:0:0:0:
256,192,4083,1,0,0:0:0:0:
402,192,4260,1,0,0:0:0:0:
109,192,4436,1,0,0:0:0:0:
475,192,4613,1,0,0:0:0:0:
256,192,6377,1,0,0:0:0:0:
182,192,6554,1,0,0:0:0:0:
36,192,6730,1,0,0:0:0:0:
329,192,6907,1,0,0:0:0:0:
256,192,7083,1,0,0:0:0:0:
256,192,7260,1,0,0:0:0:0:
402,192,7436,1,0,0:0:0:0:
109,192,7613,1,0,0:0:0:0:
475,192,7789,1,0,0:0:0:0:
256,192,9554,1,0,0:0:0:0:
182,192,9730,1,0,0:0:0:0:
36,192,9907,1,0,0:0:0:0:
329,192,10083,1,0,0:0:0:0:
256,192,10260,1,0,0:0:0:0:
256,192,10436,1,0,0:0:0:0:
402,192,10613,1,0,0:0:0:0:
109,192,10789,1,0,0:0:0:0:
475,192,10966,1,0,0:0:0:0:
36,192,12730,1,0,0:0:0:0:
256,192,12730,1,0,0:0:0:0:
182,192,12907,1,0,0:0:0:0:
36,192,13083,1,0,0:0:0:0:
329,192,13260,1,0,0:0:0:0:
256,192,13436,1,0,0:0:0:0:
256,192,13613,1,0,0:0:0:0:
402,192,13789,1,0,0:0:0:0:
109,192,13966,1,0,0:0:0:0:
475,192,14142,1,0,0:0:0:0:
109,192,15907,1,0,0:0:0:0:
256,192,15907,1,0,0:0:0:0:
182,192,16083,1,0,0:0:0:0:
36,192,16260,1,0,0:0:0:0:
329,192,16436,1,0,0:0:0:0:
256,192,16613,1,0,0:0:0:0:
256,192,16789,1,0,0:0:0:0:
402,192,16966,1,0,0:0:0:0:
109,192,17142,1,0,0:0:0:0:
475,192,17319,1,0,0:0:0:0:
402,192,19083,1,0,0:0:0:0:
256,192,19083,1,0,0:0:0:0:
182,192,19260,1,0,0:0:0:0:
36,192,19436,1,0,0:0:0:0:
329,192,19613,1,0,0:0:0:0:
256,192,19789,1,0,0:0:0:0:
256,192,19966,1,0,0:0:0:0:
402,192,20142,1,0,0:0:0:0:
109,192,20319,1,0,0:0:0:0:
475,192,20495,1,0,0:0:0:0:
475,192,22260,1,0,0:0:0:0:
256,192,22260,1,0,0:0:0:0:
182,192,22436,1,0,0:0:0:0:
36,192,22613,1,0,0:0:0:0:
329,192,22789,1,0,0:0:0:0:
256,192,22966,1,0,0:0:0:0:
256,192,23142,1,0,0:0:0:0:
402,192,23319,1,0,0:0:0:0:
109,192,23495,1,0,0:0:0:0:
475,192,23672,1,0,0:0:0:0:
256,192,25436,5,0,0:0:0:0:
36,192,25436,1,0,0:0:0:0:
475,192,25436,1,0,0:0:0:0:
329,192,25612,1,0,0:0:0:0:
109,192,25612,1,0,0:0:0:0:
475,192,25788,1,0,0:0:0:0:
402,192,25788,1,0,0:0:0:0:
182,192,25788,1,0,0:0:0:0:
256,192,25788,1,0,0:0:0:0:
36,192,25965,1,0,0:0:0:0:
109,192,25965,1,0,0:0:0:0:
475,192,26141,1,0,0:0:0:0:
182,192,26141,1,0,0:0:0:0:
329,192,26141,1,0,0:0:0:0:
475,192,26318,1,0,0:0:0:0:
329,192,26318,1,0,0:0:0:0:
182,192,26318,1,0,0:0:0:0:
256,192,26494,1,0,0:0:0:0:
402,192,26494,1,0,0:0:0:0:
36,192,26494,1,0,0:0:0:0:
109,192,26494,1,0,0:0:0:0:
475,192,26671,1,0,0:0:0:0:
182,192,26671,1,0,0:0:0:0:
256,192,26847,1,0,0:0:0:0:
402,192,26847,1,0,0:0:0:0:
36,192,26847,1,0,0:0:0:0:
109,192,26847,1,0,0:0:0:0:
329,192,27024,1,0,0:0:0:0:
182,192,27200,1,0,0:0:0:0:
329,192,27288,1,0,0:0:0:0:
475,192,27377,1,0,0:0:0:0:
36,192,27377,1,0,0:0:0:0:
109,192,27377,1,0,0:0:0:0:
402,192,27553,1,0,0:0:0:0:
256,192,27553,1,0,0:0:0:0:
36,192,27729,1,0,0:0:0:0:
329,192,27729,1,0,0:0:0:0:
182,192,27729,1,0,0:0:0:0:
109,192,27729,1,0,0:0:0:0:
256,192,27906,1,0,0:0:0:0:
475,192,27906,1,0,0:0:0:0:
329,192,28082,1,0,0:0:0:0:
36,192,28082,1,0,0:0:0:0:
182,192,28082,1,0,0:0:0:0:
329,192,28259,1,0,0:0:0:0:
36,192,28259,1,0,0:0:0:0:
182,192,28259,1,0,0:0:0:0:
475,192,28347,1,0,0:0:0:0:
402,192,28347,1,0,0:0:0:0:
36,192,28435,1,0,0:0:0:0:
256,192,28435,1,0,0:0:0:0:
182,192,28435,1,0,0:0:0:0:
109,192,28435,1,0,0:0:0:0:
329,192,28612,1,0,0:0:0:0:
402,192,28612,1,0,0:0:0:0:
36,192,28788,1,0,0:0:0:0:
256,192,28788,1,0,0:0:0:0:
182,192,28788,1,0,0:0:0:0:
109,192,28788,1,0,0:0:0:0:
329,192,28965,1,0,0:0:0:0:
182,192,29141,1,0,0:0:0:0:
329,192,29229,1,0,0:0:0:0:
36,192,29318,1,0,0:0:0:0:
109,192,29318,1,0,0:0:0:0:
475,192,29318,1,0,0:0:0:0:
329,192,29494,1,0,0:0:0:0:
256,192,29494,1,0,0:0:0:0:
402,192,29670,1,0,0:0:0:0:
475,192,29670,1,0,0:0:0:0:
182,192,29670,1,0,0:0:0:0:
36,192,29670,1,0,0:0:0:0:
109,192,29847,1,0,0:0:0:0:
256,192,29847,1,0,0:0:0:0:
402,192,30023,1,0,0:0:0:0:
36,192,30023,1,0,0:0:0:0:
182,192,30023,1,0,0:0:0:0:
402,192,30200,1,0,0:0:0:0:
36,192,30200,1,0,0:0:0:0:
182,192,30200,1,0,0:0:0:0:
329,192,30376,1,0,0:0:0:0:
475,192,30376,1,0,0:0:0:0:
109,192,30376,1,0,0:0:0:0:
256,192,30376,1,0,0:0:0:0:
402,192,30553,1,0,0:0:0:0:
36,192,30553,1,0,0:0:0:0:
329,192,30729,1,0,0:0:0:0:
475,192,30729,1,0,0:0:0:0:
109,192,30729,1,0,0:0:0:0:
256,192,30729,1,0,0:0:0:0:
182,192,30906,1,0,0:0:0:0:
329,192,31082,1,0,0:0:0:0:
182,192,31170,1,0,0:0:0:0:
475,192,31259,1,0,0:0:0:0:
402,192,31259,1,0,0:0:0:0:
36,192,31259,1,0,0:0:0:0:
182,192,31435,1,0,0:0:0:0:
256,192,31435,1,0,0:0:0:0:
402,192,31611,1,0,0:0:0:0:
475,192,31611,1,0,0:0:0:0:
109,192,31611,1,0,0:0:0:0:
329,192,31611,1,0,0:0:0:0:
36,192,31788,1,0,0:0:0:0:
256,192,31788,1,0,0:0:0:0:
402,192,31964,1,0,0:0:0:0:
329,192,31964,1,0,0:0:0:0:
182,192,31964,1,0,0:0:0:0:
402,192,32141,1,0,0:0:0:0:
329,192,32141,1,0,0:0:0:0:
182,192,32141,1,0,0:0:0:0:
36,192,32229,1,0,0:0:0:0:
109,192,32229,1,0,0:0:0:0:
402,192,32317,1,0,0:0:0:0:
475,192,32317,1,0,0:0:0:0:
256,192,32317,1,0,0:0:0:0:
329,192,32317,1,0,0:0:0:0:
109,192,32494,1,0,0:0:0:0:
182,192,32494,1,0,0:0:0:0:
475,192,32670,1,0,0:0:0:0:
36,192,32670,1,0,0:0:0:0:
329,192,32670,1,0,0:0:0:0:
402,192,32670,1,0,0:0:0:0:
182,192,32847,1,0,0:0:0:0:
256,192,32847,1,0,0:0:0:0:
475,192,33023,1,0,0:0:0:0:
109,192,33023,1,0,0:0:0:0:
36,192,33023,1,0,0:0:0:0:
402,192,33023,1,0,0:0:0:0:
329,192,33111,1,0,0:0:0:0:
402,192,33200,1,0,0:0:0:0:
256,192,33200,1,0,0:0:0:0:
109,192,33200,1,0,0:0:0:0:
182,192,33376,1,0,0:0:0:0:
36,192,33376,1,0,0:0:0:0:
475,192,33376,1,0,0:0:0:0:
329,192,33376,1,0,0:0:0:0:
402,192,33552,1,0,0:0:0:0:
256,192,33552,1,0,0:0:0:0:
109,192,33552,1,0,0:0:0:0:
329,192,33729,1,0,0:0:0:0:
475,192,33729,1,0,0:0:0:0:
36,192,33729,1,0,0:0:0:0:
182,192,33729,1,0,0:0:0:0:
256,192,33905,1,0,0:0:0:0:
402,192,33905,1,0,0:0:0:0:
109,192,33905,1,0,0:0:0:0:
182,192,34081,1,0,0:0:0:0:
475,192,34081,1,0,0:0:0:0:
256,192,34257,1,0,0:0:0:0:
36,192,34257,1,0,0:0:0:0:
402,192,34257,1,0,0:0:0:0:
329,192,34257,1,0,0:0:0:0:
182,192,34434,1,0,0:0:0:0:
109,192,34434,1,0,0:0:0:0:
256,192,34610,1,0,0:0:0:0:
402,192,34610,1,0,0:0:0:0:
36,192,34610,1,0,0:0:0:0:
256,192,34787,1,0,0:0:0:0:
36,192,34787,1,0,0:0:0:0:
402,192,34787,1,0,0:0:0:0:
329,192,34963,1,0,0:0:0:0:
475,192,34963,1,0,0:0:0:0:
109,192,34963,1,0,0:0:0:0:
182,192,34963,1,0,0:0:0:0:
256,192,35140,1,0,0:0:0:0:
36,192,35140,1,0,0:0:0:0:
329,192,35316,1,0,0:0:0:0:
475,192,35316,1,0,0:0:0:0:
109,192,35316,1,0,0:0:0:0:
182,192,35316,1,0,0:0:0:0:
402,192,35493,1,0,0:0:0:0:
109,192,35669,1,0,0:0:0:0:
402,192,35757,1,0,0:0:0:0:
36,192,35846,1,0,0:0:0:0:
256,192,35846,1,0,0:0:0:0:
329,192,35846,1,0,0:0:0:0:
109,192,36022,1,0,0:0:0:0:
182,192,36022,1,0,0:0:0:0:
475,192,36198,1,0,0:0:0:0:
256,192,36198,1,0,0:0:0:0:
36,192,36198,1,0,0:0:0:0:
402,192,36198,1,0,0:0:0:0:
329,192,36375,1,0,0:0:0:0:
182,192,36375,1,0,0:0:0:0:
475,192,36551,1,0,0:0:0:0:
109,192,36551,1,0,0:0:0:0:
36,192,36551,1,0,0:0:0:0:
475,192,36728,1,0,0:0:0:0:
109,192,36728,1,0,0:0:0:0:
36,192,36728,1,0,0:0:0:0:
329,192,36816,1,0,0:0:0:0:
402,192,36816,1,0,0:0:0:0:
109,192,36904,1,0,0:0:0:0:
36,192,36904,1,0,0:0:0:0:
256,192,36904,1,0,0:0:0:0:
182,192,36904,1,0,0:0:0:0:
475,192,37081,1,0,0:0:0:0:
402,192,37081,1,0,0:0:0:0:
109,192,37257,1,0,0:0:0:0:
36,192,37257,1,0,0:0:0:0:
256,192,37257,1,0,0:0:0:0:
182,192,37257,1,0,0:0:0:0:
402,192,37434,1,0,0:0:0:0:
109,192,37610,1,0,0:0:0:0:
402,192,37698,1,0,0:0:0:0:
256,192,37787,1,0,0:0:0:0:
329,192,37787,1,0,0:0:0:0:
36,192,37787,1,0,0:0:0:0:
182,192,37963,1,0,0:0:0:0:
475,192,37963,1,0,0:0:0:0:
329,192,38139,1,0,0:0:0:0:
402,192,38139,1,0,0:0:0:0:
109,192,38139,1,0,0:0:0:0:
256,192,38139,1,0,0:0:0:0:
475,192,38316,1,0,0:0:0:0:
36,192,38316,1,0,0:0:0:0:
329,192,38492,1,0,0:0:0:0:
109,192,38492,1,0,0:0:0:0:
256,192,38492,1,0,0:0:0:0:
109,192,38669,1,0,0:0:0:0:
256,192,38669,1,0,0:0:0:0:
329,192,38669,1,0,0:0:0:0:
182,192,38845,1,0,0:0:0:0:
36,192,38845,1,0,0:0:0:0:
402,192,38845,1,0,0:0:0:0:
475,192,38845,1,0,0:0:0:0:
329,192,39022,1,0,0:0:0:0:
256,192,39022,1,0,0:0:0:0:
182,192,39198,1,0,0:0:0:0:
36,192,39198,1,0,0:0:0:0:
402,192,39198,1,0,0:0:0:0:
475,192,39198,1,0,0:0:0:0:
109,192,39375,1,0,0:0:0:0:
402,192,39551,1,0,0:0:0:0:
109,192,39639,1,0,0:0:0:0:
329,192,39728,1,0,0:0:0:0:
256,192,39728,1,0,0:0:0:0:
36,192,39728,1,0,0:0:0:0:
182,192,39904,1,0,0:0:0:0:
475,192,39904,1,0,0:0:0:0:
329,192,40080,1,0,0:0:0:0:
402,192,40080,1,0,0:0:0:0:
36,192,40080,1,0,0:0:0:0:
109,192,40080,1,0,0:0:0:0:
256,192,40257,1,0,0:0:0:0:
182,192,40257,1,0,0:0:0:0:
402,192,40433,1,0,0:0:0:0:
36,192,40433,1,0,0:0:0:0:
475,192,40433,1,0,0:0:0:0:
402,192,40610,1,0,0:0:0:0:
475,192,40610,1,0,0:0:0:0:
36,192,40610,1,0,0:0:0:0:
182,192,40698,1,0,0:0:0:0:
109,192,40698,1,0,0:0:0:0:
329,192,40786,1,0,0:0:0:0:
475,192,40786,1,0,0:0:0:0:
402,192,40786,1,0,0:0:0:0:
256,192,40786,1,0,0:0:0:0:
109,192,40963,1,0,0:0:0:0:
36,192,40963,1,0,0:0:0:0:
256,192,41139,1,0,0:0:0:0:
182,192,41139,1,0,0:0:0:0:
475,192,41139,1,0,0:0:0:0:
402,192,41139,1,0,0:0:0:0:
36,192,41316,1,0,0:0:0:0:
109,192,41316,1,0,0:0:0:0:
329,192,41492,1,0,0:0:0:0:
475,192,41492,1,0,0:0:0:0:
402,192,41492,1,0,0:0:0:0:
256,192,41492,1,0,0:0:0:0:
36,192,41580,1,0,0:0:0:0:
182,192,41669,1,0,0:0:0:0:
329,192,41669,1,0,0:0:0:0:
402,192,41669,1,0,0:0:0:0:
109,192,41845,1,0,0:0:0:0:
256,192,41845,1,0,0:0:0:0:
475,192,42021,1,0,0:0:0:0:
182,192,42021,1,0,0:0:0:0:
36,192,42021,1,0,0:0:0:0:
402,192,42021,1,0,0:0:0:0:
256,192,42198,1,0,0:0:0:0:
329,192,42198,1,0,0:0:0:0:
402,192,42374,1,0,0:0:0:0:
36,192,42374,1,0,0:0:0:0:
182,192,42374,1,0,0:0:0:0:
402,192,42551,1,0,0:0:0:0:
36,192,42551,1,0,0:0:0:0:
182,192,42551,1,0,0:0:0:0:
329,192,42727,1,0,0:0:0:0:
475,192,42727,1,0,0:0:0:0:
109,192,42727,1,0,0:0:0:0:
256,192,42727,1,0,0:0:0:0:
402,192,42904,1,0,0:0:0:0:
182,192,42904,1,0,0:0:0:0:
475,192,43080,1,0,0:0:0:0:
109,192,43080,1,0,0:0:0:0:
256,192,43080,1,0,0:0:0:0:
329,192,43080,1,0,0:0:0:0:
36,192,43257,1,0,0:0:0:0:
475,192,43433,1,0,0:0:0:0:
36,192,43521,1,0,0:0:0:0:
329,192,43610,1,0,0:0:0:0:
402,192,43610,1,0,0:0:0:0:
182,192,43610,1,0,0:0:0:0:
109,192,43786,1,0,0:0:0:0:
256,192,43786,1,0,0:0:0:0:
402,192,43962,1,0,0:0:0:0:
475,192,43962,1,0,0:0:0:0:
36,192,43962,1,0,0:0:0:0:
182,192,43962,1,0,0:0:0:0:
256,192,44139,1,0,0:0:0:0:
329,192,44139,1,0,0:0:0:0:
475,192,44315,1,0,0:0:0:0:
182,192,44315,1,0,0:0:0:0:
109,192,44315,1,0,0:0:0:0:
475,192,44492,1,0,0:0:0:0:
182,192,44492,1,0,0:0:0:0:
109,192,44492,1,0,0:0:0:0:
329,192,44580,1,0,0:0:0:0:
402,192,44580,1,0,0:0:0:0:
109,192,44668,1,0,0:0:0:0:
36,192,44668,1,0,0:0:0:0:
256,192,44668,1,0,0:0:0:0:
182,192,44668,1,0,0:0:0:0:
475,192,44845,1,0,0:0:0:0:
402,192,44845,1,0,0:0:0:0:
109,192,45021,1,0,0:0:0:0:
36,192,45021,1,0,0:0:0:0:
256,192,45021,1,0,0:0:0:0:
182,192,45021,1,0,0:0:0:0:
475,192,45198,1,0,0:0:0:0:
36,192,45374,1,0,0:0:0:0:
475,192,45462,1,0,0:0:0:0:
329,192,45551,1,0,0:0:0:0:
182,192,45551,1,0,0:0:0:0:
109,192,45551,1,0,0:0:0:0:
36,192,45727,1,0,0:0:0:0:
256,192,45727,1,0,0:0:0:0:
402,192,45903,1,0,0:0:0:0:
475,192,45903,1,0,0:0:0:0:
182,192,45903,1,0,0:0:0:0:
329,192,45903,1,0,0:0:0:0:
256,192,46080,1,0,0:0:0:0:
109,192,46080,1,0,0:0:0:0:
402,192,46256,1,0,0:0:0:0:
329,192,46256,1,0,0:0:0:0:
36,192,46256,1,0,0:0:0:0:
402,192,46433,1,0,0:0:0:0:
36,192,46433,1,0,0:0:0:0:
329,192,46433,1,0,0:0:0:0:
182,192,46609,1,0,0:0:0:0:
475,192,46609,1,0,0:0:0:0:
109,192,46609,1,0,0:0:0:0:
256,192,46609,1,0,0:0:0:0:
402,192,46786,1,0,0:0:0:0:
329,192,46786,1,0,0:0:0:0:
109,192,46962,1,0,0:0:0:0:
475,192,46962,1,0,0:0:0:0:
182,192,46962,1,0,0:0:0:0:
256,192,46962,1,0,0:0:0:0:
36,192,47139,1,0,0:0:0:0:
475,192,47315,1,0,0:0:0:0:
36,192,47403,1,0,0:0:0:0:
402,192,47492,1,0,0:0:0:0:
329,192,47492,1,0,0:0:0:0:
182,192,47492,1,0,0:0:0:0:
475,192,47668,1,0,0:0:0:0:
109,192,47668,1,0,0:0:0:0:
402,192,47844,1,0,0:0:0:0:
182,192,47844,1,0,0:0:0:0:
256,192,47844,1,0,0:0:0:0:
36,192,47844,1,0,0:0:0:0:
329,192,48021,1,0,0:0:0:0:
109,192,48021,1,0,0:0:0:0:
182,192,48197,1,0,0:0:0:0:
36,192,48197,1,0,0:0:0:0:
475,192,48197,1,0,0:0:0:0:
475,192,48374,1,0,0:0:0:0:
36,192,48374,1,0,0:0:0:0:
182,192,48374,1,0,0:0:0:0:
329,192,48462,1,0,0:0:0:0:
402,192,48462,1,0,0:0:0:0:
182,192,48550,1,0,0:0:0:0:
36,192,48550,1,0,0:0:0:0:
109,192,48550,1,0,0:0:0:0:
256,192,48550,1,0,0:0:0:0:
475,192,48727,1,0,0:0:0:0:
402,192,48727,1,0,0:0:0:0:
36,192,48903,1,0,0:0:0:0:
256,192,48903,1,0,0:0:0:0:
329,192,48903,1,0,0:0:0:0:
109,192,48903,1,0,0:0:0:0:
475,192,49080,1,0,0:0:0:0:
402,192,49080,1,0,0:0:0:0:
109,192,49256,1,0,0:0:0:0:
36,192,49256,1,0,0:0:0:0:
256,192,49256,1,0,0:0:0:0:
182,192,49256,1,0,0:0:0:0:
475,192,49344,1,0,0:0:0:0:
329,192,49433,1,0,0:0:0:0:
109,192,49433,1,0,0:0:0:0:
182,192,49433,1,0,0:0:0:0:
256,192,49609,1,0,0:0:0:0:
402,192,49609,1,0,0:0:0:0:
182,192,49785,1,0,0:0:0:0:
475,192,49785,1,0,0:0:0:0:
36,192,49785,1,0,0:0:0:0:
109,192,49785,1,0,0:0:0:0:
329,192,49962,1,0,0:0:0:0:
256,192,49962,1,0,0:0:0:0:
402,192,50138,1,0,0:0:0:0:
182,192,50138,1,0,0:0:0:0:
36,192,50138,1,0,0:0:0:0:
182,192,50315,1,0,0:0:0:0:
402,192,50315,1,0,0:0:0:0:
36,192,50315,1,0,0:0:0:0:
329,192,50491,1,0,0:0:0:0:
475,192,50491,1,0,0:0:0:0:
109,192,50491,1,0,0:0:0:0:
256,192,50491,1,0,0:0:0:0:
36,192,50668,1,0,0:0:0:0:
182,192,50668,1,0,0:0:0:0:
256,192,50844,1,0,0:0:0:0:
475,192,50844,1,0,0:0:0:0:
329,192,50844,1,0,0:0:0:0:
109,192,50844,1,0,0:0:0:0:
402,192,51021,1,0,0:0:0:0:
109,192,51197,1,0,0:0:0:0:
402,192,51285,1,0,0:0:0:0:
36,192,51374,1,0,0:0:0:0:
182,192,51374,1,0,0:0:0:0:
329,192,51374,1,0,0:0:0:0:
475,192,51550,1,0,0:0:0:0:
256,192,51550,1,0,0:0:0:0:
109,192,51726,1,0,0:0:0:0:
36,192,51726,1,0,0:0:0:0:
402,192,51726,1,0,0:0:0:0:
329,192,51726,1,0,0:0:0:0:
182,192,51903,1,0,0:0:0:0:
256,192,51903,1,0,0:0:0:0:
36,192,52079,1,0,0:0:0:0:
329,192,52079,1,0,0:0:0:0:
475,192,52079,1,0,0:0:0:0:
36,192,52256,1,0,0:0:0:0:
329,192,52256,1,0,0:0:0:0:
475,192,52256,1,0,0:0:0:0:
182,192,52344,1,0,0:0:0:0:
109,192,52344,1,0,0:0:0:0:
402,192,52432,1,0,0:0:0:0:
475,192,52432,1,0,0:0:0:0:
256,192,52432,1,0,0:0:0:0:
329,192,52432,1,0,0:0:0:0:
36,192,52609,1,0,0:0:0:0:
109,192,52609,1,0,0:0:0:0:
402,192,52785,1,0,0:0:0:0:
475,192,52785,1,0,0:0:0:0:
256,192,52785,1,0,0:0:0:0:
329,192,52785,1,0,0:0:0:0:
109,192,52962,1,0,0:0:0:0:
402,192,53138,1,0,0:0:0:0:
109,192,53226,1,0,0:0:0:0:
329,192,53315,1,0,0:0:0:0:
475,192,53315,1,0,0:0:0:0:
182,192,53315,1,0,0:0:0:0:
36,192,53491,1,0,0:0:0:0:
256,192,53491,1,0,0:0:0:0:
329,192,53667,1,0,0:0:0:0:
402,192,53667,1,0,0:0:0:0:
109,192,53667,1,0,0:0:0:0:
182,192,53667,1,0,0:0:0:0:
36,192,53844,1,0,0:0:0:0:
475,192,53844,1,0,0:0:0:0:
329,192,54020,1,0,0:0:0:0:
109,192,54020,1,0,0:0:0:0:
256,192,54020,1,0,0:0:0:0:
329,192,54197,1,0,0:0:0:0:
109,192,54197,1,0,0:0:0:0:
256,192,54197,1,0,0:0:0:0:
36,192,54373,1,0,0:0:0:0:
402,192,54373,1,0,0:0:0:0:
475,192,54373,1,0,0:0:0:0:
182,192,54373,1,0,0:0:0:0:
329,192,54550,1,0,0:0:0:0:
109,192,54550,1,0,0:0:0:0:
475,192,54726,1,0,0:0:0:0:
402,192,54726,1,0,0:0:0:0:
36,192,54726,1,0,0:0:0:0:
182,192,54726,1,0,0:0:0:0:
109,192,54903,1,0,0:0:0:0:
402,192,55079,1,0,0:0:0:0:
109,192,55167,1,0,0:0:0:0:
182,192,55256,1,0,0:0:0:0:
475,192,55256,1,0,0:0:0:0:
329,192,55256,1,0,0:0:0:0:
36,192,55432,1,0,0:0:0:0:
256,192,55432,1,0,0:0:0:0:
402,192,55608,1,0,0:0:0:0:
475,192,55608,1,0,0:0:0:0:
109,192,55608,1,0,0:0:0:0:
329,192,55608,1,0,0:0:0:0:
182,192,55785,1,0,0:0:0:0:
256,192,55785,1,0,0:0:0:0:
36,192,55961,1,0,0:0:0:0:
475,192,55961,1,0,0:0:0:0:
109,192,55961,1,0,0:0:0:0:
36,192,56138,1,0,0:0:0:0:
475,192,56138,1,0,0:0:0:0:
109,192,56138,1,0,0:0:0:0:
329,192,56226,1,0,0:0:0:0:
402,192,56226,1,0,0:0:0:0:
182,192,56314,1,0,0:0:0:0:
256,192,56314,1,0,0:0:0:0:
36,192,56314,1,0,0:0:0:0:
109,192,56314,1,0,0:0:0:0:
475,192,56491,1,0,0:0:0:0:
402,192,56491,1,0,0:0:0:0:
256,192,56667,1,0,0:0:0:0:
329,192,56667,1,0,0:0:0:0:
36,192,56667,1,0,0:0:0:0:
109,192,56667,1,0,0:0:0:0:
475,192,56844,1,0,0:0:0:0:
402,192,56844,1,0,0:0:0:0:
109,192,57020,1,0,0:0:0:0:
36,192,57020,1,0,0:0:0:0:
256,192,57020,1,0,0:0:0:0:
182,192,57020,1,0,0:0:0:0:
475,192,57108,1,0,0:0:0:0:
36,192,57197,1,0,0:0:0:0:
182,192,57197,1,0,0:0:0:0:
329,192,57197,1,0,0:0:0:0:
402,192,57373,1,0,0:0:0:0:
256,192,57373,1,0,0:0:0:0:
329,192,57549,1,0,0:0:0:0:
475,192,57549,1,0,0:0:0:0:
109,192,57549,1,0,0:0:0:0:
182,192,57549,1,0,0:0:0:0:
36,192,57726,1,0,0:0:0:0:
256,192,57726,1,0,0:0:0:0:
109,192,57902,1,0,0:0:0:0:
329,192,57902,1,0,0:0:0:0:
402,192,57902,1,0,0:0:0:0:
109,192,58079,1,0,0:0:0:0:
329,192,58079,1,0,0:0:0:0:
402,192,58079,1,0,0:0:0:0:
256,192,58255,1,0,0:0:0:0:
475,192,58255,1,0,0:0:0:0:
182,192,58255,1,0,0:0:0:0:
36,192,58255,1,0,0:0:0:0:
109,192,58432,1,0,0:0:0:0:
402,192,58432,1,0,0:0:0:0:
36,192,58608,1,0,0:0:0:0:
256,192,58608,1,0,0:0:0:0:
475,192,58608,1,0,0:0:0:0:
182,192,58608,1,0,0:0:0:0:
329,192,58785,1,0,0:0:0:0:
182,192,58961,1,0,0:0:0:0:
329,192,59049,1,0,0:0:0:0:
36,192,59138,1,0,0:0:0:0:
109,192,59138,1,0,0:0:0:0:
475,192,59138,1,0,0:0:0:0:
256,192,59314,1,0,0:0:0:0:
402,192,59314,1,0,0:0:0:0:
36,192,59490,1,0,0:0:0:0:
329,192,59490,1,0,0:0:0:0:
182,192,59490,1,0,0:0:0:0:
109,192,59490,1,0,0:0:0:0:
475,192,59667,1,0,0:0:0:0:
402,192,59667,1,0,0:0:0:0:
329,192,59843,1,0,0:0:0:0:
36,192,59843,1,0,0:0:0:0:
256,192,59843,1,0,0:0:0:0:
329,192,60020,1,0,0:0:0:0:
36,192,60020,1,0,0:0:0:0:
256,192,60020,1,0,0:0:0:0:
475,192,60108,1,0,0:0:0:0:
402,192,60108,1,0,0:0:0:0:
256,192,60196,1,0,0:0:0:0:
36,192,60196,1,0,0:0:0:0:
109,192,60196,1,0,0:0:0:0:
182,192,60196,1,0,0:0:0:0:
402,192,60373,1,0,0:0:0:0:
329,192,60373,1,0,0:0:0:0:
256,192,60549,1,0,0:0:0:0:
36,192,60549,1,0,0:0:0:0:
109,192,60549,1,0,0:0:0:0:
182,192,60549,1,0,0:0:0:0:
329,192,60726,1,0,0:0:0:0:
182,192,60902,1,0,0:0:0:0:
329,192,60990,1,0,0:0:0:0:
475,192,61079,1,0,0:0:0:0:
36,192,61079,1,0,0:0:0:0:
109,192,61079,1,0,0:0:0:0:
256,192,61255,1,0,0:0:0:0:
182,192,61255,1,0,0:0:0:0:
475,192,61431,1,0,0:0:0:0:
109,192,61431,1,0,0:0:0:0:
329,192,61431,1,0,0:0:0:0:
402,192,61431,1,0,0:0:0:0:
36,192,61608,1,0,0:0:0:0:
256,192,61608,1,0,0:0:0:0:
402,192,61784,1,0,0:0:0:0:
182,192,61784,1,0,0:0:0:0:
109,192,61784,1,0,0:0:0:0:
402,192,61961,1,0,0:0:0:0:
109,192,61961,1,0,0:0:0:0:
182,192,61961,1,0,0:0:0:0:
256,192,62137,1,0,0:0:0:0:
475,192,62137,1,0,0:0:0:0:
329,192,62137,1,0,0:0:0:0:
36,192,62137,1,0,0:0:0:0:
109,192,62314,1,0,0:0:0:0:
402,192,62314,1,0,0:0:0:0:
256,192,62490,1,0,0:0:0:0:
475,192,62490,1,0,0:0:0:0:
329,192,62490,1,0,0:0:0:0:
36,192,62490,1,0,0:0:0:0:
182,192,62667,1,0,0:0:0:0:
329,192,62843,1,0,0:0:0:0:
182,192,62931,1,0,0:0:0:0:
36,192,63020,1,0,0:0:0:0:
402,192,63020,1,0,0:0:0:0:
475,192,63020,1,0,0:0:0:0:
256,192,63196,1,0,0:0:0:0:
109,192,63196,1,0,0:0:0:0:
36,192,63372,1,0,0:0:0:0:
402,192,63372,1,0,0:0:0:0:
182,192,63372,1,0,0:0:0:0:
475,192,63372,1,0,0:0:0:0:
256,192,63549,1,0,0:0:0:0:
329,192,63549,1,0,0:0:0:0:
402,192,63725,1,0,0:0:0:0:
36,192,63725,1,0,0:0:0:0:
475,192,63725,1,0,0:0:0:0:
402,192,63902,1,0,0:0:0:0:
36,192,63902,1,0,0:0:0:0:
475,192,63902,1,0,0:0:0:0:
109,192,63990,1,0,0:0:0:0:
182,192,63990,1,0,0:0:0:0:
475,192,64078,1,0,0:0:0:0:
402,192,64078,1,0,0:0:0:0:
329,192,64078,1,0,0:0:0:0:
256,192,64078,1,0,0:0:0:0:
109,192,64255,1,0,0:0:0:0:
36,192,64255,1,0,0:0:0:0:
475,192,64431,1,0,0:0:0:0:
402,192,64431,1,0,0:0:0:0:
256,192,64431,1,0,0:0:0:0:
182,192,64431,1,0,0:0:0:0:
109,192,64608,1,0,0:0:0:0:
36,192,64608,1,0,0:0:0:0:
256,192,64784,1,0,0:0:0:0:
329,192,64784,1,0,0:0:0:0:
402,192,64784,1,0,0:0:0:0:
475,192,64784,1,0,0:0:0:0:
36,192,64872,1,0,0:0:0:0:
182,192,64961,1,0,0:0:0:0:
329,192,64961,1,0,0:0:0:0:
475,192,64961,1,0,0:0:0:0:
256,192,65137,1,0,0:0:0:0:
109,192,65137,1,0,0:0:0:0:
402,192,65313,1,0,0:0:0:0:
475,192,65313,1,0,0:0:0:0:
36,192,65313,1,0,0:0:0:0:
182,192,65313,1,0,0:0:0:0:
256,192,65490,1,0,0:0:0:0:
329,192,65490,1,0,0:0:0:0:
402,192,65666,1,0,0:0:0:0:
36,192,65666,1,0,0:0:0:0:
109,192,65666,1,0,0:0:0:0:
475,192,65843,1,0,0:0:0:0:
256,192,65843,1,0,0:0:0:0:
182,192,65843,1,0,0:0:0:0:
109,192,66019,1,0,0:0:0:0:
329,192,66019,1,0,0:0:0:0:
402,192,66196,1,0,0:0:0:0:
475,192,66196,1,0,0:0:0:0:
36,192,66196,1,0,0:0:0:0:
182,192,66196,1,0,0:0:0:0:
256,192,66372,1,0,0:0:0:0:
109,192,66372,1,0,0:0:0:0:
402,192,66549,1,0,0:0:0:0:
182,192,66549,1,0,0:0:0:0:
329,192,66725,1,0,0:0:0:0:
475,192,66725,1,0,0:0:0:0:
36,192,66725,1,0,0:0:0:0:
256,192,66902,1,0,0:0:0:0:
109,192,66902,1,0,0:0:0:0:
402,192,67078,1,0,0:0:0:0:
329,192,67078,1,0,0:0:0:0:
475,192,67078,1,0,0:0:0:0:
182,192,67078,1,0,0:0:0:0:
256,192,67255,1,0,0:0:0:0:
36,192,67255,1,0,0:0:0:0:
182,192,67431,1,0,0:0:0:0:
475,192,67431,1,0,0:0:0:0:
109,192,67431,1,0,0:0:0:0:
329,192,67608,1,0,0:0:0:0:
36,192,67608,1,0,0:0:0:0:
402,192,67608,1,0,0:0:0:0:
182,192,67784,1,0,0:0:0:0:
256,192,67784,1,0,0:0:0:0:
475,192,67961,1,0,0:0:0:0:
329,192,67961,1,0,0:0:0:0:
109,192,67961,1,0,0:0:0:0:
402,192,67961,1,0,0:0:0:0:
256,192,68137,1,0,0:0:0:0:
36,192,68137,1,0,0:0:0:0:
475,192,68313,1,0,0:0:0:0:
182,192,68313,1,0,0:0:0:0:
329,192,68490,1,0,0:0:0:0:
402,192,68490,1,0,0:0:0:0:
109,192,68490,1,0,0:0:0:0:
36,192,68666,1,0,0:0:0:0:
256,192,68666,1,0,0:0:0:0:
475,192,68843,1,0,0:0:0:0:
109,192,68843,1,0,0:0:0:0:
182,192,68843,1,0,0:0:0:0:
329,192,68843,1,0,0:0:0:0:
402,192,69019,1,0,0:0:0:0:
256,192,69019,1,0,0:0:0:0:
475,192,69196,1,0,0:0:0:0:
182,192,69196,1,0,0:0:0:0:
36,192,69196,1,0,0:0:0:0:
329,192,69372,1,0,0:0:0:0:
402,192,69372,1,0,0:0:0:0:
109,192,69372,1,0,0:0:0:0:
182,192,69549,1,0,0:0:0:0:
256,192,69549,1,0,0:0:0:0:
402,192,69725,1,0,0:0:0:0:
475,192,69725,1,0,0:0:0:0:
36,192,69725,1,0,0:0:0:0:
109,192,69725,1,0,0:0:0:0:
329,192,69902,1,0,0:0:0:0:
256,192,69902,1,0,0:0:0:0:
402,192,70078,1,0,0:0:0:0:
182,192,70078,1,0,0:0:0:0:
36,192,70255,1,0,0:0:0:0:
475,192,70255,1,0,0:0:0:0:
109,192,70255,1,0,0:0:0:0:
329,192,70431,1,0,0:0:0:0:
256,192,70431,1,0,0:0:0:0:
475,192,70608,1,0,0:0:0:0:
402,192,70608,1,0,0:0:0:0:
36,192,70608,1,0,0:0:0:0:
182,192,70608,1,0,0:0:0:0:
329,192,70784,1,0,0:0:0:0:
109,192,70784,1,0,0:0:0:0:
402,192,70961,1,0,0:0:0:0:
36,192,70961,1,0,0:0:0:0:
256,192,70961,1,0,0:0:0:0:
475,192,71137,1,0,0:0:0:0:
182,192,71137,1,0,0:0:0:0:
109,192,71137,1,0,0:0:0:0:
329,192,71313,1,0,0:0:0:0:
402,192,71313,1,0,0:0:0:0:
109,192,71490,1,0,0:0:0:0:
475,192,71490,1,0,0:0:0:0:
36,192,71490,1,0,0:0:0:0:
256,192,71490,1,0,0:0:0:0:
329,192,71666,1,0,0:0:0:0:
182,192,71666,1,0,0:0:0:0:
402,192,71843,1,0,0:0:0:0:
36,192,71843,1,0,0:0:0:0:
475,192,72019,1,0,0:0:0:0:
256,192,72019,1,0,0:0:0:0:
109,192,72019,1,0,0:0:0:0:
402,192,72196,1,0,0:0:0:0:
109,192,72196,1,0,0:0:0:0:
475,192,72372,1,0,0:0:0:0:
329,192,72372,1,0,0:0:0:0:
182,192,72372,1,0,0:0:0:0:
256,192,72372,1,0,0:0:0:0:
402,192,72549,1,0,0:0:0:0:
36,192,72549,1,0,0:0:0:0:
182,192,72725,1,0,0:0:0:0:
329,192,72725,1,0,0:0:0:0:
109,192,72725,1,0,0:0:0:0:
182,192,72902,1,0,0:0:0:0:
475,192,72902,1,0,0:0:0:0:
329,192,72902,1,0,0:0:0:0:
256,192,73078,1,0,0:0:0:0:
36,192,73078,1,0,0:0:0:0:
109,192,73255,1,0,0:0:0:0:
402,192,73255,1,0,0:0:0:0:
36,192,73255,1,0,0:0:0:0:
329,192,73255,1,0,0:0:0:0:
182,192,73431,1,0,0:0:0:0:
475,192,73431,1,0,0:0:0:0:
256,192,73608,1,0,0:0:0:0:
475,192,73608,1,0,0:0:0:0:
402,192,73784,1,0,0:0:0:0:
109,192,73784,1,0,0:0:0:0:
36,192,73784,1,0,0:0:0:0:
329,192,73961,1,0,0:0:0:0:
36,192,73961,1,0,0:0:0:0:
402,192,74137,1,0,0:0:0:0:
475,192,74137,1,0,0:0:0:0:
182,192,74137,1,0,0:0:0:0:
256,192,74137,1,0,0:0:0:0:
109,192,74313,1,0,0:0:0:0:
329,192,74313,1,0,0:0:0:0:
36,192,74490,1,0,0:0:0:0:
182,192,74490,1,0,0:0:0:0:
475,192,74490,1,0,0:0:0:0:
402,192,74666,1,0,0:0:0:0:
182,192,74666,1,0,0:0:0:0:
475,192,74666,1,0,0:0:0:0:
256,192,74843,1,0,0:0:0:0:
109,192,74843,1,0,0:0:0:0:
182,192,75019,1,0,0:0:0:0:
475,192,75019,1,0,0:0:0:0:
329,192,75019,1,0,0:0:0:0:
36,192,75019,1,0,0:0:0:0:
109,192,75196,1,0,0:0:0:0:
402,192,75196,1,0,0:0:0:0:
256,192,75372,1,0,0:0:0:0:
402,192,75372,1,0,0:0:0:0:
329,192,75549,1,0,0:0:0:0:
36,192,75549,1,0,0:0:0:0:
182,192,75549,1,0,0:0:0:0:
475,192,75725,1,0,0:0:0:0:
182,192,75725,1,0,0:0:0:0:
109,192,75902,1,0,0:0:0:0:
36,192,75902,1,0,0:0:0:0:
402,192,75902,1,0,0:0:0:0:
256,192,75902,1,0,0:0:0:0:
475,192,76078,1,0,0:0:0:0:
329,192,76078,1,0,0:0:0:0:
402,192,76255,1,0,0:0:0:0:
182,192,76255,1,0,0:0:0:0:
36,192,76255,1,0,0:0:0:0:
329,192,76431,1,0,0:0:0:0:
402,192,76431,1,0,0:0:0:0:
36,192,76431,1,0,0:0:0:0:
256,192,76608,1,0,0:0:0:0:
109,192,76608,1,0,0:0:0:0:
402,192,76784,1,0,0:0:0:0:
36,192,76784,1,0,0:0:0:0:
475,192,76784,1,0,0:0:0:0:
182,192,76784,1,0,0:0:0:0:
109,192,76961,1,0,0:0:0:0:
329,192,76961,1,0,0:0:0:0:
36,192,77137,1,0,0:0:0:0:
329,192,77137,1,0,0:0:0:0:
475,192,77313,1,0,0:0:0:0:
256,192,77313,1,0,0:0:0:0:
182,192,77313,1,0,0:0:0:0:
402,192,77490,1,0,0:0:0:0:
182,192,77490,1,0,0:0:0:0:
475,192,77666,1,0,0:0:0:0:
329,192,77666,1,0,0:0:0:0:
36,192,77666,1,0,0:0:0:0:
109,192,77666,1,0,0:0:0:0:
402,192,77843,1,0,0:0:0:0:
256,192,77843,1,0,0:0:0:0:
182,192,78019,1,0,0:0:0:0:
109,192,78019,1,0,0:0:0:0:
329,192,78019,1,0,0:0:0:0:
475,192,78196,1,0,0:0:0:0:
109,192,78196,1,0,0:0:0:0:
329,192,78196,1,0,0:0:0:0:
36,192,78372,1,0,0:0:0:0:
256,192,78372,1,0,0:0:0:0:
329,192,78549,1,0,0:0:0:0:
109,192,78549,1,0,0:0:0:0:
182,192,78549,1,0,0:0:0:0:
475,192,78549,1,0,0:0:0:0:
256,192,78725,1,0,0:0:0:0:
402,192,78725,1,0,0:0:0:0:
36,192,78902,1,0,0:0:0:0:
402,192,78902,1,0,0:0:0:0:
329,192,79078,1,0,0:0:0:0:
182,192,79078,1,0,0:0:0:0:
109,192,79078,1,0,0:0:0:0:
475,192,79255,1,0,0:0:0:0:
256,192,79255,1,0,0:0:0:0:
109,192,79431,1,0,0:0:0:0:
36,192,79431,1,0,0:0:0:0:
402,192,79431,1,0,0:0:0:0:
329,192,79431,1,0,0:0:0:0:
256,192,79608,1,0,0:0:0:0:
182,192,79608,1,0,0:0:0:0:
36,192,79784,1,0,0:0:0:0:
329,192,79784,1,0,0:0:0:0:
475,192,79784,1,0,0:0:0:0:
182,192,79960,1,0,0:0:0:0:
402,192,79960,1,0,0:0:0:0:
109,192,79960,1,0,0:0:0:0:
475,192,80137,1,0,0:0:0:0:
256,192,80137,1,0,0:0:0:0:
109,192,80313,1,0,0:0:0:0:
402,192,80313,1,0,0:0:0:0:
329,192,80313,1,0,0:0:0:0:
36,192,80313,1,0,0:0:0:0:
475,192,80490,1,0,0:0:0:0:
182,192,80490,1,0,0:0:0:0:
256,192,80666,1,0,0:0:0:0:
329,192,80666,1,0,0:0:0:0:
402,192,80843,1,0,0:0:0:0:
109,192,80843,1,0,0:0:0:0:
36,192,80843,1,0,0:0:0:0:
182,192,81019,1,0,0:0:0:0:
475,192,81019,1,0,0:0:0:0:
36,192,81196,1,0,0:0:0:0:
402,192,81196,1,0,0:0:0:0:
329,192,81196,1,0,0:0:0:0:
256,192,81196,1,0,0:0:0:0:
475,192,81372,1,0,0:0:0:0:
109,192,81372,1,0,0:0:0:0:
402,192,81549,1,0,0:0:0:0:
256,192,81549,1,0,0:0:0:0:
182,192,81549,1,0,0:0:0:0:
329,192,81725,1,0,0:0:0:0:
109,192,81725,1,0,0:0:0:0:
36,192,81725,1,0,0:0:0:0:
182,192,81902,1,0,0:0:0:0:
475,192,81902,1,0,0:0:0:0:
36,192,82078,1,0,0:0:0:0:
329,192,82078,1,0,0:0:0:0:
256,192,82078,1,0,0:0:0:0:
402,192,82078,1,0,0:0:0:0:
475,192,82255,1,0,0:0:0:0:
109,192,82255,1,0,0:0:0:0:
182,192,82431,1,0,0:0:0:0:
402,192,82431,1,0,0:0:0:0:
109,192,82608,1,0,0:0:0:0:
329,192,82608,1,0,0:0:0:0:
36,192,82608,1,0,0:0:0:0:
256,192,82784,1,0,0:0:0:0:
475,192,82784,1,0,0:0:0:0:
182,192,82960,1,0,0:0:0:0:
36,192,82960,1,0,0:0:0:0:
329,192,82960,1,0,0:0:0:0:
402,192,82960,1,0,0:0:0:0:
475,192,83137,1,0,0:0:0:0:
109,192,83137,1,0,0:0:0:0:
36,192,83313,1,0,0:0:0:0:
256,192,83313,1,0,0:0:0:0:
402,192,83313,1,0,0:0:0:0:
109,192,83490,1,0,0:0:0:0:
329,192,83490,1,0,0:0:0:0:
182,192,83490,1,0,0:0:0:0:
256,192,83666,1,0,0:0:0:0:
475,192,83666,1,0,0:0:0:0:
36,192,83843,1,0,0:0:0:0:
109,192,83843,1,0,0:0:0:0:
402,192,83843,1,0,0:0:0:0:
329,192,83843,1,0,0:0:0:0:
475,192,84019,1,0,0:0:0:0:
182,192,84019,1,0,0:0:0:0:
36,192,84196,1,0,0:0:0:0:
256,192,84196,1,0,0:0:0:0:
402,192,84372,1,0,0:0:0:0:
329,192,84372,1,0,0:0:0:0:
109,192,84372,1,0,0:0:0:0:
475,192,84549,1,0,0:0:0:0:
182,192,84549,1,0,0:0:0:0:
36,192,84725,1,0,0:0:0:0:
109,192,84725,1,0,0:0:0:0:
256,192,84725,1,0,0:0:0:0:
402,192,84725,1,0,0:0:0:0:
182,192,84902,1,0,0:0:0:0:
329,192,84902,1,0,0:0:0:0:
36,192,85078,1,0,0:0:0:0:
256,192,85078,1,0,0:0:0:0:
475,192,85078,1,0,0:0:0:0:
329,192,85255,1,0,0:0:0:0:
402,192,85255,1,0,0:0:0:0:
109,192,85255,1,0,0:0:0:0:
182,192,85431,1,0,0:0:0:0:
475,192,85431,1,0,0:0:0:0:
256,192,85608,1,0,0:0:0:0:
402,192,85608,1,0,0:0:0:0:
36,192,85608,1,0,0:0:0:0:
109,192,85608,1,0,0:0:0:0:
182,192,85784,1,0,0:0:0:0:
329,192,85784,1,0,0:0:0:0:
36,192,85960,1,0,0:0:0:0:
475,192,85960,1,0,0:0:0:0:
329,192,86137,1,0,0:0:0:0:
109,192,86137,1,0,0:0:0:0:
256,192,86137,1,0,0:0:0:0:
402,192,86313,1,0,0:0:0:0:
256,192,86313,1,0,0:0:0:0:
36,192,86490,1,0,0:0:0:0:
475,192,86490,1,0,0:0:0:0:
329,192,86490,1,0,0:0:0:0:
182,192,86490,1,0,0:0:0:0:
402,192,86666,1,0,0:0:0:0:
109,192,86666,1,0,0:0:0:0:
329,192,86843,1,0,0:0:0:0:
182,192,86843,1,0,0:0:0:0:
475,192,86843,1,0,0:0:0:0:
36,192,87019,1,0,0:0:0:0:
182,192,87019,1,0,0:0:0:0:
475,192,87019,1,0,0:0:0:0:
256,192,87196,1,0,0:0:0:0:
109,192,87196,1,0,0:0:0:0:
329,192,87372,1,0,0:0:0:0:
475,192,87372,1,0,0:0:0:0:
402,192,87372,1,0,0:0:0:0:
182,192,87372,1,0,0:0:0:0:
256,192,87549,1,0,0:0:0:0:
36,192,87549,1,0,0:0:0:0:
475,192,87725,1,0,0:0:0:0:
36,192,87725,1,0,0:0:0:0:
329,192,87902,1,0,0:0:0:0:
109,192,87902,1,0,0:0:0:0:
402,192,87902,1,0,0:0:0:0:
182,192,88078,1,0,0:0:0:0:
402,192,88078,1,0,0:0:0:0:
256,192,88255,1,0,0:0:0:0:
475,192,88255,1,0,0:0:0:0:
36,192,88255,1,0,0:0:0:0:
109,192,88255,1,0,0:0:0:0:
182,192,88431,1,0,0:0:0:0:
329,192,88431,1,0,0:0:0:0:
402,192,88608,1,0,0:0:0:0:
109,192,88608,1,0,0:0:0:0:
256,192,88608,1,0,0:0:0:0:
475,192,88784,1,0,0:0:0:0:
109,192,88784,1,0,0:0:0:0:
256,192,88784,1,0,0:0:0:0:
329,192,88960,1,0,0:0:0:0:
36,192,88960,1,0,0:0:0:0:
475,192,89137,1,0,0:0:0:0:
256,192,89137,1,0,0:0:0:0:
402,192,89137,1,0,0:0:0:0:
109,192,89137,1,0,0:0:0:0:
329,192,89313,1,0,0:0:0:0:
182,192,89313,1,0,0:0:0:0:
402,192,89490,1,0,0:0:0:0:
182,192,89490,1,0,0:0:0:0:
256,192,89666,1,0,0:0:0:0:
36,192,89666,1,0,0:0:0:0:
475,192,89666,1,0,0:0:0:0:
109,192,89843,1,0,0:0:0:0:
475,192,89843,1,0,0:0:0:0:
256,192,90019,1,0,0:0:0:0:
402,192,90019,1,0,0:0:0:0:
329,192,90019,1,0,0:0:0:0:
182,192,90019,1,0,0:0:0:0:
475,192,90196,1,0,0:0:0:0:
36,192,90196,1,0,0:0:0:0:
182,192,90372,1,0,0:0:0:0:
109,192,90372,1,0,0:0:0:0:
402,192,90372,1,0,0:0:0:0:
329,192,90549,1,0,0:0:0:0:
109,192,90549,1,0,0:0:0:0:
402,192,90549,1,0,0:0:0:0:
36,192,90725,1,0,0:0:0:0:
256,192,90725,1,0,0:0:0:0:
402,192,90902,1,0,0:0:0:0:
109,192,90902,1,0,0:0:0:0:
475,192,90902,1,0,0:0:0:0:
182,192,90902,1,0,0:0:0:0:
329,192,91078,1,0,0:0:0:0:
256,192,91078,1,0,0:0:0:0:
36,192,91255,1,0,0:0:0:0:
256,192,91255,1,0,0:0:0:0:
402,192,91431,1,0,0:0:0:0:
109,192,91431,1,0,0:0:0:0:
475,192,91431,1,0,0:0:0:0:
182,192,91608,1,0,0:0:0:0:
475,192,91608,1,0,0:0:0:0:
256,192,91784,1,0,0:0:0:0:
402,192,91784,1,0,0:0:0:0:
36,192,91784,1,0,0:0:0:0:
109,192,91784,1,0,0:0:0:0:
475,192,91960,1,0,0:0:0:0:
182,192,91960,1,0,0:0:0:0:
256,192,92137,1,0,0:0:0:0:
36,192,92137,1,0,0:0:0:0:
329,192,92137,1,0,0:0:0:0:
402,192,92313,1,0,0:0:0:0:
329,192,92313,1,0,0:0:0:0:
36,192,92313,1,0,0:0:0:0:
475,192,92490,1,0,0:0:0:0:
109,192,92490,1,0,0:0:0:0:
182,192,92666,1,0,0:0:0:0:
36,192,92666,1,0,0:0:0:0:
329,192,92666,1,0,0:0:0:0:
402,192,92666,1,0,0:0:0:0:
475,192,92843,1,0,0:0:0:0:
256,192,92843,1,0,0:0:0:0:
109,192,93019,1,0,0:0:0:0:
256,192,93019,1,0,0:0:0:0:
402,192,93196,1,0,0:0:0:0:
182,192,93196,1,0,0:0:0:0:
36,192,93196,1,0,0:0:0:0:
256,192,93372,1,0,0:0:0:0:
475,192,93372,1,0,0:0:0:0:
329,192,93549,1,0,0:0:0:0:
402,192,93549,1,0,0:0:0:0:
109,192,93549,1,0,0:0:0:0:
182,192,93549,1,0,0:0:0:0:
475,192,93725,1,0,0:0:0:0:
36,192,93725,1,0,0:0:0:0:
329,192,93902,1,0,0:0:0:0:
109,192,93902,1,0,0:0:0:0:
256,192,93902,1,0,0:0:0:0:
475,192,94078,1,0,0:0:0:0:
182,192,94078,1,0,0:0:0:0:
402,192,94078,1,0,0:0:0:0:
256,192,94255,1,0,0:0:0:0:
36,192,94255,1,0,0:0:0:0:
329,192,94431,1,0,0:0:0:0:
402,192,94431,1,0,0:0:0:0:
182,192,94431,1,0,0:0:0:0:
109,192,94431,1,0,0:0:0:0:
256,192,94608,1,0,0:0:0:0:
475,192,94608,1,0,0:0:0:0:
402,192,94784,1,0,0:0:0:0:
36,192,94784,1,0,0:0:0:0:
329,192,94960,1,0,0:0:0:0:
182,192,94960,1,0,0:0:0:0:
109,192,94960,1,0,0:0:0:0:
475,192,95137,1,0,0:0:0:0:
256,192,95137,1,0,0:0:0:0:
36,192,95313,1,0,0:0:0:0:
109,192,95313,1,0,0:0:0:0:
402,192,95313,1,0,0:0:0:0:
329,192,95313,1,0,0:0:0:0:
256,192,95490,1,0,0:0:0:0:
182,192,95490,1,0,0:0:0:0:
402,192,95666,1,0,0:0:0:0:
36,192,95666,1,0,0:0:0:0:
475,192,95666,1,0,0:0:0:0:
329,192,95843,1,0,0:0:0:0:
182,192,95843,1,0,0:0:0:0:
109,192,95843,1,0,0:0:0:0:
475,192,96019,1,0,0:0:0:0:
256,192,96019,1,0,0:0:0:0:
182,192,96196,1,0,0:0:0:0:
402,192,96196,1,0,0:0:0:0:
36,192,96196,1,0,0:0:0:0:
109,192,96196,1,0,0:0:0:0:
475,192,96372,1,0,0:0:0:0:
329,192,96372,1,0,0:0:0:0:
36,192,96549,1,0,0:0:0:0:
256,192,96549,1,0,0:0:0:0:
329,192,96725,1,0,0:0:0:0:
402,192,96725,1,0,0:0:0:0:
109,192,96725,1,0,0:0:0:0:
182,192,96902,1,0,0:0:0:0:
475,192,96902,1,0,0:0:0:0:
109,192,97078,1,0,0:0:0:0:
329,192,97078,1,0,0:0:0:0:
36,192,97078,1,0,0:0:0:0:
256,192,97078,1,0,0:0:0:0:
182,192,97255,1,0,0:0:0:0:
402,192,97255,1,0,0:0:0:0:
475,192,97431,1,0,0:0:0:0:
256,192,97431,1,0,0:0:0:0:
36,192,97431,1,0,0:0:0:0:
329,192,97608,1,0,0:0:0:0:
402,192,97608,1,0,0:0:0:0:
109,192,97608,1,0,0:0:0:0:
182,192,97784,1,0,0:0:0:0:
475,192,97784,1,0,0:0:0:0:
256,192,97960,1,0,0:0:0:0:
329,192,97960,1,0,0:0:0:0:
36,192,97960,1,0,0:0:0:0:
109,192,97960,1,0,0:0:0:0:
182,192,98137,1,0,0:0:0:0:
402,192,98137,1,0,0:0:0:0:
475,192,98313,1,0,0:0:0:0:
36,192,98313,1,0,0:0:0:0:
329,192,98490,1,0,0:0:0:0:
109,192,98490,1,0,0:0:0:0:
256,192,98490,1,0,0:0:0:0:
182,192,98666,1,0,0:0:0:0:
402,192,98666,1,0,0:0:0:0:
475,192,98843,1,0,0:0:0:0:
329,192,98843,1,0,0:0:0:0:
36,192,98843,1,0,0:0:0:0:
109,192,98843,1,0,0:0:0:0:
182,192,99019,1,0,0:0:0:0:
256,192,99019,1,0,0:0:0:0:
402,192,99196,5,0,0:0:0:0:
36,192,99196,1,0,0:0:0:0:
475,192,99196,1,0,0:0:0:0:
182,192,99372,1,0,0:0:0:0:
329,192,99372,1,0,0:0:0:0:
109,192,99372,1,0,0:0:0:0:
256,192,99549,1,0,0:0:0:0:
475,192,99549,1,0,0:0:0:0:
402,192,99725,1,0,0:0:0:0:
109,192,99725,1,0,0:0:0:0:
36,192,99725,1,0,0:0:0:0:
329,192,99725,1,0,0:0:0:0:
182,192,99902,1,0,0:0:0:0:
256,192,99902,1,0,0:0:0:0:
475,192,100078,1,0,0:0:0:0:
36,192,100078,1,0,0:0:0:0:
256,192,100255,5,0,0:0:0:0:
402,192,100255,1,0,0:0:0:0:
109,192,100255,1,0,0:0:0:0:
402,192,100431,1,0,0:0:0:0:
182,192,100431,1,0,0:0:0:0:
36,192,100608,1,0,0:0:0:0:
109,192,100608,1,0,0:0:0:0:
329,192,100608,1,0,0:0:0:0:
475,192,100608,1,0,0:0:0:0:
256,192,100784,1,0,0:0:0:0:
402,192,100784,1,0,0:0:0:0:
329,192,100960,1,0,0:0:0:0:
182,192,100960,1,0,0:0:0:0:
109,192,100960,1,0,0:0:0:0:
329,192,101137,1,0,0:0:0:0:
182,192,101137,1,0,0:0:0:0:
475,192,101137,1,0,0:0:0:0:
256,192,101313,1,0,0:0:0:0:
36,192,101313,1,0,0:0:0:0:
182,192,101490,1,0,0:0:0:0:
329,192,101490,1,0,0:0:0:0:
402,192,101490,1,0,0:0:0:0:
475,192,101490,1,0,0:0:0:0:
109,192,101666,1,0,0:0:0:0:
256,192,101666,1,0,0:0:0:0:
109,192,101843,1,0,0:0:0:0:
402,192,101843,1,0,0:0:0:0:
36,192,102019,1,0,0:0:0:0:
182,192,102019,1,0,0:0:0:0:
475,192,102019,1,0,0:0:0:0:
475,192,102196,1,0,0:0:0:0:
256,192,102196,1,0,0:0:0:0:
182,192,102372,1,0,0:0:0:0:
402,192,102372,1,0,0:0:0:0:
329,192,102372,1,0,0:0:0:0:
36,192,102372,1,0,0:0:0:0:
256,192,102549,1,0,0:0:0:0:
109,192,102549,1,0,0:0:0:0:
402,192,102725,1,0,0:0:0:0:
36,192,102725,1,0,0:0:0:0:
475,192,102725,1,0,0:0:0:0:
402,192,102902,1,0,0:0:0:0:
36,192,102902,1,0,0:0:0:0:
182,192,102902,1,0,0:0:0:0:
109,192,103078,1,0,0:0:0:0:
329,192,103078,1,0,0:0:0:0:
256,192,103255,1,0,0:0:0:0:
475,192,103255,1,0,0:0:0:0:
402,192,103255,1,0,0:0:0:0:
36,192,103255,1,0,0:0:0:0:
182,192,103431,1,0,0:0:0:0:
329,192,103431,1,0,0:0:0:0:
182,192,103608,1,0,0:0:0:0:
475,192,103608,1,0,0:0:0:0:
256,192,103784,1,0,0:0:0:0:
329,192,103784,1,0,0:0:0:0:
36,192,103784,1,0,0:0:0:0:
329,192,103960,1,0,0:0:0:0:
109,192,103960,1,0,0:0:0:0:
402,192,104137,1,0,0:0:0:0:
475,192,104137,1,0,0:0:0:0:
182,192,104137,1,0,0:0:0:0:
256,192,104137,1,0,0:0:0:0:
329,192,104313,1,0,0:0:0:0:
36,192,104313,1,0,0:0:0:0:
109,192,104490,1,0,0:0:0:0:
475,192,104490,1,0,0:0:0:0:
182,192,104490,1,0,0:0:0:0:
109,192,104666,1,0,0:0:0:0:
475,192,104666,1,0,0:0:0:0:
402,192,104666,1,0,0:0:0:0:
329,192,104843,1,0,0:0:0:0:
36,192,104843,1,0,0:0:0:0:
182,192,105019,1,0,0:0:0:0:
256,192,105019,1,0,0:0:0:0:
109,192,105019,1,0,0:0:0:0:
402,192,105019,1,0,0:0:0:0:
36,192,105196,1,0,0:0:0:0:
475,192,105196,1,0,0:0:0:0:
36,192,105372,1,0,0:0:0:0:
329,192,105372,1,0,0:0:0:0:
402,192,105549,1,0,0:0:0:0:
109,192,105549,1,0,0:0:0:0:
182,192,105549,1,0,0:0:0:0:
402,192,105725,1,0,0:0:0:0:
256,192,105725,1,0,0:0:0:0:
329,192,105902,1,0,0:0:0:0:
36,192,105902,1,0,0:0:0:0:
109,192,105902,1,0,0:0:0:0:
475,192,105902,1,0,0:0:0:0:
256,192,106078,1,0,0:0:0:0:
182,192,106078,1,0,0:0:0:0:
475,192,106255,1,0,0:0:0:0:
36,192,106255,1,0,0:0:0:0:
402,192,106255,1,0,0:0:0:0:
475,192,106431,1,0,0:0:0:0:
36,192,106431,1,0,0:0:0:0:
182,192,106431,1,0,0:0:0:0:
329,192,106608,1,0,0:0:0:0:
109,192,106608,1,0,0:0:0:0:
256,192,106784,1,0,0:0:0:0:
402,192,106784,1,0,0:0:0:0:
475,192,106784,1,0,0:0:0:0:
36,192,106784,1,0,0:0:0:0:
182,192,106960,1,0,0:0:0:0:
329,192,106960,1,0,0:0:0:0:
182,192,107137,1,0,0:0:0:0:
402,192,107137,1,0,0:0:0:0:
109,192,107313,1,0,0:0:0:0:
475,192,107313,1,0,0:0:0:0:
256,192,107313,1,0,0:0:0:0:
329,192,107489,1,0,0:0:0:0:
36,192,107489,1,0,0:0:0:0:
109,192,107577,1,0,0:0:0:0:
182,192,107665,1,0,0:0:0:0:
402,192,107665,1,0,0:0:0:0:
329,192,107754,1,0,0:0:0:0:
256,192,107754,1,0,0:0:0:0:
475,192,107842,1,0,0:0:0:0:
402,192,107842,1,0,0:0:0:0:
36,192,107842,1,0,0:0:0:0:
109,192,107842,1,0,0:0:0:0:
256,192,108018,1,0,0:0:0:0:
182,192,108018,1,0,0:0:0:0:
109,192,108195,1,0,0:0:0:0:
475,192,108195,1,0,0:0:0:0:
402,192,108283,1,0,0:0:0:0:
182,192,108371,1,0,0:0:0:0:
109,192,108371,1,0,0:0:0:0:
329,192,108371,1,0,0:0:0:0:
256,192,108548,1,0,0:0:0:0:
36,192,108548,1,0,0:0:0:0:
402,192,108548,1,0,0:0:0:0:
475,192,108548,1,0,0:0:0:0:
109,192,108724,1,0,0:0:0:0:
402,192,108901,1,0,0:0:0:0:
36,192,108901,1,0,0:0:0:0:
256,192,108901,1,0,0:0:0:0:
475,192,108901,1,0,0:0:0:0:
329,192,109077,1,0,0:0:0:0:
182,192,109077,1,0,0:0:0:0:
256,192,109254,1,0,0:0:0:0:
109,192,109254,1,0,0:0:0:0:
329,192,109254,1,0,0:0:0:0:
36,192,109430,1,0,0:0:0:0:
475,192,109430,1,0,0:0:0:0:
402,192,109518,1,0,0:0:0:0:
109,192,109606,1,0,0:0:0:0:
329,192,109606,1,0,0:0:0:0:
256,192,109695,1,0,0:0:0:0:
182,192,109695,1,0,0:0:0:0:
402,192,109783,1,0,0:0:0:0:
475,192,109783,1,0,0:0:0:0:
109,192,109783,1,0,0:0:0:0:
36,192,109783,1,0,0:0:0:0:
182,192,109959,1,0,0:0:0:0:
329,192,109959,1,0,0:0:0:0:
36,192,110136,1,0,0:0:0:0:
475,192,110136,1,0,0:0:0:0:
109,192,110224,1,0,0:0:0:0:
182,192,110312,1,0,0:0:0:0:
402,192,110312,1,0,0:0:0:0:
475,192,110312,1,0,0:0:0:0:
36,192,110489,1,0,0:0:0:0:
109,192,110489,1,0,0:0:0:0:
329,192,110489,1,0,0:0:0:0:
256,192,110489,1,0,0:0:0:0:
402,192,110665,1,0,0:0:0:0:
329,192,110842,1,0,0:0:0:0:
109,192,110842,1,0,0:0:0:0:
36,192,110842,1,0,0:0:0:0:
256,192,110842,1,0,0:0:0:0:
182,192,111018,1,0,0:0:0:0:
475,192,111018,1,0,0:0:0:0:
182,192,111195,1,0,0:0:0:0:
329,192,111195,1,0,0:0:0:0:
402,192,111195,1,0,0:0:0:0:
256,192,111371,1,0,0:0:0:0:
36,192,111371,1,0,0:0:0:0:
109,192,111459,1,0,0:0:0:0:
475,192,111547,1,0,0:0:0:0:
182,192,111547,1,0,0:0:0:0:
329,192,111636,1,0,0:0:0:0:
402,192,111636,1,0,0:0:0:0:
36,192,111724,1,0,0:0:0:0:
182,192,111724,1,0,0:0:0:0:
256,192,111724,1,0,0:0:0:0:
109,192,111724,1,0,0:0:0:0:
329,192,111900,1,0,0:0:0:0:
402,192,111900,1,0,0:0:0:0:
475,192,112077,1,0,0:0:0:0:
36,192,112077,1,0,0:0:0:0:
402,192,112165,1,0,0:0:0:0:
329,192,112253,1,0,0:0:0:0:
109,192,112253,1,0,0:0:0:0:
36,192,112253,1,0,0:0:0:0:
475,192,112430,1,0,0:0:0:0:
402,192,112430,1,0,0:0:0:0:
182,192,112430,1,0,0:0:0:0:
256,192,112430,1,0,0:0:0:0:
109,192,112606,1,0,0:0:0:0:
402,192,112783,1,0,0:0:0:0:
475,192,112783,1,0,0:0:0:0:
182,192,112783,1,0,0:0:0:0:
256,192,112783,1,0,0:0:0:0:
182,192,112959,1,0,0:0:0:0:
329,192,112959,1,0,0:0:0:0:
36,192,112959,1,0,0:0:0:0:
256,192,113135,1,0,0:0:0:0:
475,192,113135,1,0,0:0:0:0:
402,192,113223,1,0,0:0:0:0:
36,192,113311,1,0,0:0:0:0:
329,192,113311,1,0,0:0:0:0:
109,192,113400,1,0,0:0:0:0:
182,192,113400,1,0,0:0:0:0:
329,192,113488,1,0,0:0:0:0:
256,192,113488,1,0,0:0:0:0:
402,192,113488,1,0,0:0:0:0:
475,192,113488,1,0,0:0:0:0:
36,192,113664,1,0,0:0:0:0:
475,192,113664,1,0,0:0:0:0:
182,192,113841,1,0,0:0:0:0:
475,192,113841,1,0,0:0:0:0:
256,192,113929,1,0,0:0:0:0:
475,192,114017,1,0,0:0:0:0:
329,192,114017,1,0,0:0:0:0:
109,192,114017,1,0,0:0:0:0:
36,192,114194,1,0,0:0:0:0:
402,192,114194,1,0,0:0:0:0:
182,192,114370,1,0,0:0:0:0:
402,192,114547,1,0,0:0:0:0:
475,192,114547,1,0,0:0:0:0:
36,192,114547,1,0,0:0:0:0:
109,192,114547,1,0,0:0:0:0:
329,192,114723,1,0,0:0:0:0:
182,192,114723,1,0,0:0:0:0:
256,192,114900,1,0,0:0:0:0:
402,192,115077,1,0,0:0:0:0:
109,192,115077,1,0,0:0:0:0:
36,192,115077,1,0,0:0:0:0:
182,192,115253,1,0,0:0:0:0:
475,192,115253,1,0,0:0:0:0:
402,192,115341,1,0,0:0:0:0:
109,192,115429,1,0,0:0:0:0:
329,192,115429,1,0,0:0:0:0:
182,192,115518,1,0,0:0:0:0:
256,192,115518,1,0,0:0:0:0:
402,192,115606,1,0,0:0:0:0:
475,192,115606,1,0,0:0:0:0:
36,192,115606,1,0,0:0:0:0:
109,192,115606,1,0,0:0:0:0:
329,192,115782,1,0,0:0:0:0:
256,192,115782,1,0,0:0:0:0:
36,192,115959,1,0,0:0:0:0:
402,192,115959,1,0,0:0:0:0:
109,192,116047,1,0,0:0:0:0:
182,192,116135,1,0,0:0:0:0:
402,192,116135,1,0,0:0:0:0:
475,192,116135,1,0,0:0:0:0:
36,192,116312,1,0,0:0:0:0:
256,192,116312,1,0,0:0:0:0:
329,192,116312,1,0,0:0:0:0:
109,192,116312,1,0,0:0:0:0:
475,192,116488,1,0,0:0:0:0:
329,192,116665,1,0,0:0:0:0:
36,192,116665,1,0,0:0:0:0:
256,192,116665,1,0,0:0:0:0:
109,192,116665,1,0,0:0:0:0:
402,192,116841,1,0,0:0:0:0:
182,192,116841,1,0,0:0:0:0:
256,192,117018,1,0,0:0:0:0:
329,192,117018,1,0,0:0:0:0:
182,192,117018,1,0,0:0:0:0:
475,192,117194,1,0,0:0:0:0:
36,192,117194,1,0,0:0:0:0:
109,192,117282,1,0,0:0:0:0:
402,192,117370,1,0,0:0:0:0:
182,192,117370,1,0,0:0:0:0:
329,192,117459,1,0,0:0:0:0:
256,192,117459,1,0,0:0:0:0:
402,192,117547,1,0,0:0:0:0:
475,192,117547,1,0,0:0:0:0:
109,192,117547,1,0,0:0:0:0:
36,192,117547,1,0,0:0:0:0:
256,192,117723,1,0,0:0:0:0:
182,192,117723,1,0,0:0:0:0:
329,192,117900,1,0,0:0:0:0:
36,192,117900,1,0,0:0:0:0:
402,192,117988,1,0,0:0:0:0:
182,192,118076,1,0,0:0:0:0:
475,192,118076,1,0,0:0:0:0:
36,192,118076,1,0,0:0:0:0:
402,192,118253,1,0,0:0:0:0:
109,192,118253,1,0,0:0:0:0:
256,192,118253,1,0,0:0:0:0:
329,192,118253,1,0,0:0:0:0:
182,192,118429,1,0,0:0:0:0:
329,192,118606,1,0,0:0:0:0:
402,192,118606,1,0,0:0:0:0:
109,192,118606,1,0,0:0:0:0:
256,192,118606,1,0,0:0:0:0:
36,192,118782,1,0,0:0:0:0:
475,192,118782,1,0,0:0:0:0:
182,192,118959,1,0,0:0:0:0:
475,192,118959,1,0,0:0:0:0:
256,192,118959,1,0,0:0:0:0:
109,192,119135,1,0,0:0:0:0:
329,192,119135,1,0,0:0:0:0:
402,192,119223,1,0,0:0:0:0:
36,192,119311,1,0,0:0:0:0:
475,192,119311,1,0,0:0:0:0:
182,192,119400,1,0,0:0:0:0:
109,192,119400,1,0,0:0:0:0:
475,192,119488,1,0,0:0:0:0:
402,192,119488,1,0,0:0:0:0:
256,192,119488,1,0,0:0:0:0:
329,192,119488,1,0,0:0:0:0:
109,192,119664,1,0,0:0:0:0:
36,192,119664,1,0,0:0:0:0:
402,192,119841,1,0,0:0:0:0:
182,192,119841,1,0,0:0:0:0:
109,192,119929,1,0,0:0:0:0:
475,192,120017,1,0,0:0:0:0:
329,192,120017,1,0,0:0:0:0:
36,192,120017,1,0,0:0:0:0:
402,192,120194,1,0,0:0:0:0:
256,192,120194,1,0,0:0:0:0:
182,192,120194,1,0,0:0:0:0:
109,192,120194,1,0,0:0:0:0:
329,192,120370,1,0,0:0:0:0:
256,192,120547,1,0,0:0:0:0:
402,192,120547,1,0,0:0:0:0:
109,192,120547,1,0,0:0:0:0:
182,192,120547,1,0,0:0:0:0:
475,192,120723,1,0,0:0:0:0:
36,192,120723,1,0,0:0:0:0:
36,192,120900,1,0,0:0:0:0:
109,192,120988,1,0,0:0:0:0:
329,192,121076,1,0,0:0:0:0:
182,192,121076,1,0,0:0:0:0:
256,192,121429,1,0,0:0:0:0:
402,192,121517,1,0,0:0:0:0:
182,192,121606,1,0,0:0:0:0:
475,192,121959,1,0,0:0:0:0:
36,192,122135,1,0,0:0:0:0:
256,192,122135,1,0,0:0:0:0:
109,192,122311,1,0,0:0:0:0:
329,192,122311,1,0,0:0:0:0:
182,192,122488,1,0,0:0:0:0:
402,192,122488,1,0,0:0:0:0:
475,192,122664,1,0,0:0:0:0:
256,192,122664,1,0,0:0:0:0:
36,192,123194,1,0,0:0:0:0:
475,192,123194,1,0,0:0:0:0:
256,192,123194,1,0,0:0:0:0:
109,192,123370,1,0,0:0:0:0:
329,192,123370,1,0,0:0:0:0:
475,192,123546,1,0,0:0:0:0:
36,192,123546,1,0,0:0:0:0:
182,192,123546,1,0,0:0:0:0:
256,192,123546,1,0,0:0:0:0:
329,192,123723,1,0,0:0:0:0:
402,192,123723,1,0,0:0:0:0:
256,192,123899,1,0,0:0:0:0:
109,192,123899,1,0,0:0:0:0:
475,192,123899,1,0,0:0:0:0:
256,192,124076,1,0,0:0:0:0:
475,192,124076,1,0,0:0:0:0:
109,192,124076,1,0,0:0:0:0:
182,192,124252,1,0,0:0:0:0:
36,192,124252,1,0,0:0:0:0:
402,192,124252,1,0,0:0:0:0:
329,192,124252,1,0,0:0:0:0:
256,192,124429,1,0,0:0:0:0:
475,192,124429,1,0,0:0:0:0:
182,192,124605,1,0,0:0:0:0:
36,192,124605,1,0,0:0:0:0:
402,192,124605,1,0,0:0:0:0:
329,192,124605,1,0,0:0:0:0:
109,192,124782,1,0,0:0:0:0:
402,192,124958,1,0,0:0:0:0:
109,192,125046,1,0,0:0:0:0:
475,192,125135,1,0,0:0:0:0:
256,192,125135,1,0,0:0:0:0:
182,192,125135,1,0,0:0:0:0:
402,192,125311,1,0,0:0:0:0:
329,192,125311,1,0,0:0:0:0:
36,192,125487,1,0,0:0:0:0:
256,192,125487,1,0,0:0:0:0:
475,192,125487,1,0,0:0:0:0:
109,192,125487,1,0,0:0:0:0:
182,192,125664,1,0,0:0:0:0:
329,192,125664,1,0,0:0:0:0:
36,192,125840,1,0,0:0:0:0:
402,192,125840,1,0,0:0:0:0:
475,192,125840,1,0,0:0:0:0:
36,192,126017,1,0,0:0:0:0:
402,192,126017,1,0,0:0:0:0:
475,192,126017,1,0,0:0:0:0:
182,192,126105,1,0,0:0:0:0:
109,192,126105,1,0,0:0:0:0:
402,192,126193,1,0,0:0:0:0:
475,192,126193,1,0,0:0:0:0:
256,192,126193,1,0,0:0:0:0:
329,192,126193,1,0,0:0:0:0:
36,192,126370,1,0,0:0:0:0:
109,192,126370,1,0,0:0:0:0:
402,192,126546,1,0,0:0:0:0:
475,192,126546,1,0,0:0:0:0:
256,192,126546,1,0,0:0:0:0:
329,192,126546,1,0,0:0:0:0:
109,192,126723,1,0,0:0:0:0:
402,192,126899,1,0,0:0:0:0:
109,192,126987,1,0,0:0:0:0:
256,192,127076,1,0,0:0:0:0:
182,192,127076,1,0,0:0:0:0:
475,192,127076,1,0,0:0:0:0:
329,192,127252,1,0,0:0:0:0:
36,192,127252,1,0,0:0:0:0:
182,192,127428,1,0,0:0:0:0:
109,192,127428,1,0,0:0:0:0:
402,192,127428,1,0,0:0:0:0:
256,192,127428,1,0,0:0:0:0:
36,192,127605,1,0,0:0:0:0:
475,192,127605,1,0,0:0:0:0:
182,192,127781,1,0,0:0:0:0:
402,192,127781,1,0,0:0:0:0:
256,192,127781,1,0,0:0:0:0:
402,192,127958,1,0,0:0:0:0:
256,192,127958,1,0,0:0:0:0:
182,192,127958,1,0,0:0:0:0:
329,192,128134,1,0,0:0:0:0:
475,192,128134,1,0,0:0:0:0:
109,192,128134,1,0,0:0:0:0:
36,192,128134,1,0,0:0:0:0:
182,192,128311,1,0,0:0:0:0:
256,192,128311,1,0,0:0:0:0:
329,192,128487,1,0,0:0:0:0:
475,192,128487,1,0,0:0:0:0:
109,192,128487,1,0,0:0:0:0:
36,192,128487,1,0,0:0:0:0:
402,192,128664,1,0,0:0:0:0:
109,192,128840,1,0,0:0:0:0:
402,192,128928,1,0,0:0:0:0:
182,192,129017,1,0,0:0:0:0:
256,192,129017,1,0,0:0:0:0:
475,192,129017,1,0,0:0:0:0:
329,192,129193,1,0,0:0:0:0:
36,192,129193,1,0,0:0:0:0:
182,192,129369,1,0,0:0:0:0:
109,192,129369,1,0,0:0:0:0:
475,192,129369,1,0,0:0:0:0:
402,192,129369,1,0,0:0:0:0:
256,192,129546,1,0,0:0:0:0:
329,192,129546,1,0,0:0:0:0:
109,192,129722,1,0,0:0:0:0:
475,192,129722,1,0,0:0:0:0:
36,192,129722,1,0,0:0:0:0:
109,192,129899,1,0,0:0:0:0:
36,192,129899,1,0,0:0:0:0:
475,192,129899,1,0,0:0:0:0:
329,192,129987,1,0,0:0:0:0:
402,192,129987,1,0,0:0:0:0:
182,192,130075,1,0,0:0:0:0:
36,192,130075,1,0,0:0:0:0:
109,192,130075,1,0,0:0:0:0:
256,192,130075,1,0,0:0:0:0:
402,192,130252,1,0,0:0:0:0:
475,192,130252,1,0,0:0:0:0:
256,192,130428,1,0,0:0:0:0:
329,192,130428,1,0,0:0:0:0:
36,192,130428,1,0,0:0:0:0:
109,192,130428,1,0,0:0:0:0:
475,192,130605,1,0,0:0:0:0:
402,192,130605,1,0,0:0:0:0:
182,192,130781,1,0,0:0:0:0:
36,192,130781,1,0,0:0:0:0:
109,192,130781,1,0,0:0:0:0:
256,192,130781,1,0,0:0:0:0:
475,192,130869,1,0,0:0:0:0:
329,192,130958,1,0,0:0:0:0:
182,192,130958,1,0,0:0:0:0:
109,192,130958,1,0,0:0:0:0:
402,192,131134,1,0,0:0:0:0:
256,192,131134,1,0,0:0:0:0:
36,192,131310,1,0,0:0:0:0:
329,192,131310,1,0,0:0:0:0:
475,192,131310,1,0,0:0:0:0:
109,192,131310,1,0,0:0:0:0:
256,192,131487,1,0,0:0:0:0:
182,192,131487,1,0,0:0:0:0:
109,192,131663,1,0,0:0:0:0:
475,192,131663,1,0,0:0:0:0:
329,192,131663,1,0,0:0:0:0:
109,192,131840,1,0,0:0:0:0:
475,192,131840,1,0,0:0:0:0:
329,192,131840,1,0,0:0:0:0:
182,192,132016,1,0,0:0:0:0:
36,192,132016,1,0,0:0:0:0:
402,192,132016,1,0,0:0:0:0:
256,192,132016,1,0,0:0:0:0:
109,192,132193,1,0,0:0:0:0:
329,192,132193,1,0,0:0:0:0:
36,192,132369,1,0,0:0:0:0:
402,192,132369,1,0,0:0:0:0:
256,192,132369,1,0,0:0:0:0:
182,192,132369,1,0,0:0:0:0:
475,192,132546,1,0,0:0:0:0:
36,192,132722,1,0,0:0:0:0:
475,192,132810,1,0,0:0:0:0:
182,192,132899,1,0,0:0:0:0:
109,192,132899,1,0,0:0:0:0:
329,192,132899,1,0,0:0:0:0:
402,192,133075,1,0,0:0:0:0:
256,192,133075,1,0,0:0:0:0:
109,192,133251,1,0,0:0:0:0:
36,192,133251,1,0,0:0:0:0:
475,192,133251,1,0,0:0:0:0:
329,192,133251,1,0,0:0:0:0:
256,192,133428,1,0,0:0:0:0:
182,192,133428,1,0,0:0:0:0:
36,192,133604,1,0,0:0:0:0:
329,192,133604,1,0,0:0:0:0:
402,192,133604,1,0,0:0:0:0:
36,192,133781,1,0,0:0:0:0:
329,192,133781,1,0,0:0:0:0:
402,192,133781,1,0,0:0:0:0:
182,192,133869,1,0,0:0:0:0:
109,192,133869,1,0,0:0:0:0:
402,192,133957,1,0,0:0:0:0:
475,192,133957,1,0,0:0:0:0:
256,192,133957,1,0,0:0:0:0:
329,192,133957,1,0,0:0:0:0:
36,192,134134,1,0,0:0:0:0:
109,192,134134,1,0,0:0:0:0:
402,192,134310,1,0,0:0:0:0:
475,192,134310,1,0,0:0:0:0:
256,192,134310,1,0,0:0:0:0:
329,192,134310,1,0,0:0:0:0:
36,192,134487,1,0,0:0:0:0:
475,192,134663,1,0,0:0:0:0:
36,192,134751,1,0,0:0:0:0:
182,192,134840,1,0,0:0:0:0:
329,192,134840,1,0,0:0:0:0:
402,192,134840,1,0,0:0:0:0:
475,192,135016,1,0,0:0:0:0:
256,192,135016,1,0,0:0:0:0:
109,192,135192,1,0,0:0:0:0:
36,192,135192,1,0,0:0:0:0:
329,192,135192,1,0,0:0:0:0:
182,192,135192,1,0,0:0:0:0:
256,192,135369,1,0,0:0:0:0:
402,192,135369,1,0,0:0:0:0:
109,192,135545,1,0,0:0:0:0:
182,192,135545,1,0,0:0:0:0:
475,192,135545,1,0,0:0:0:0:
109,192,135722,1,0,0:0:0:0:
475,192,135722,1,0,0:0:0:0:
182,192,135722,1,0,0:0:0:0:
329,192,135898,1,0,0:0:0:0:
36,192,135898,1,0,0:0:0:0:
402,192,135898,1,0,0:0:0:0:
256,192,135898,1,0,0:0:0:0:
109,192,136075,1,0,0:0:0:0:
182,192,136075,1,0,0:0:0:0:
402,192,136251,1,0,0:0:0:0:
36,192,136251,1,0,0:0:0:0:
329,192,136251,1,0,0:0:0:0:
256,192,136251,1,0,0:0:0:0:
475,192,136428,1,0,0:0:0:0:
36,192,136604,1,0,0:0:0:0:
475,192,136692,1,0,0:0:0:0:
109,192,136781,1,0,0:0:0:0:
182,192,136781,1,0,0:0:0:0:
329,192,136781,1,0,0:0:0:0:
36,192,136957,1,0,0:0:0:0:
402,192,136957,1,0,0:0:0:0:
109,192,137133,1,0,0:0:0:0:
329,192,137133,1,0,0:0:0:0:
256,192,137133,1,0,0:0:0:0:
475,192,137133,1,0,0:0:0:0:
182,192,137310,1,0,0:0:0:0:
402,192,137310,1,0,0:0:0:0:
329,192,137486,1,0,0:0:0:0:
475,192,137486,1,0,0:0:0:0:
36,192,137486,1,0,0:0:0:0:
36,192,137663,1,0,0:0:0:0:
475,192,137663,1,0,0:0:0:0:
329,192,137663,1,0,0:0:0:0:
182,192,137751,1,0,0:0:0:0:
109,192,137751,1,0,0:0:0:0:
329,192,137839,1,0,0:0:0:0:
475,192,137839,1,0,0:0:0:0:
402,192,137839,1,0,0:0:0:0:
256,192,137839,1,0,0:0:0:0:
36,192,138016,1,0,0:0:0:0:
109,192,138016,1,0,0:0:0:0:
475,192,138192,1,0,0:0:0:0:
256,192,138192,1,0,0:0:0:0:
182,192,138192,1,0,0:0:0:0:
402,192,138192,1,0,0:0:0:0:
36,192,138369,1,0,0:0:0:0:
109,192,138369,1,0,0:0:0:0:
402,192,138545,1,0,0:0:0:0:
475,192,138545,1,0,0:0:0:0:
256,192,138545,1,0,0:0:0:0:
329,192,138545,1,0,0:0:0:0:
36,192,138633,1,0,0:0:0:0:
182,192,138722,1,0,0:0:0:0:
402,192,138722,1,0,0:0:0:0:
329,192,138722,1,0,0:0:0:0:
256,192,138898,1,0,0:0:0:0:
109,192,138898,1,0,0:0:0:0:
329,192,139074,1,0,0:0:0:0:
36,192,139074,1,0,0:0:0:0:
475,192,139074,1,0,0:0:0:0:
402,192,139074,1,0,0:0:0:0:
182,192,139251,1,0,0:0:0:0:
256,192,139251,1,0,0:0:0:0:
109,192,139427,1,0,0:0:0:0:
329,192,139427,1,0,0:0:0:0:
475,192,139427,1,0,0:0:0:0:
329,192,139604,1,0,0:0:0:0:
109,192,139604,1,0,0:0:0:0:
475,192,139604,1,0,0:0:0:0:
182,192,139780,1,0,0:0:0:0:
36,192,139780,1,0,0:0:0:0:
402,192,139780,1,0,0:0:0:0:
256,192,139780,1,0,0:0:0:0:
475,192,139957,1,0,0:0:0:0:
329,192,139957,1,0,0:0:0:0:
256,192,140133,1,0,0:0:0:0:
36,192,140133,1,0,0:0:0:0:
182,192,140133,1,0,0:0:0:0:
402,192,140133,1,0,0:0:0:0:
109,192,140310,1,0,0:0:0:0:
402,192,140486,1,0,0:0:0:0:
109,192,140574,1,0,0:0:0:0:
475,192,140663,1,0,0:0:0:0:
329,192,140663,1,0,0:0:0:0:
182,192,140663,1,0,0:0:0:0:
36,192,140839,1,0,0:0:0:0:
256,192,140839,1,0,0:0:0:0:
402,192,141015,1,0,0:0:0:0:
475,192,141015,1,0,0:0:0:0:
109,192,141015,1,0,0:0:0:0:
182,192,141015,1,0,0:0:0:0:
329,192,141192,1,0,0:0:0:0:
256,192,141192,1,0,0:0:0:0:
475,192,141368,1,0,0:0:0:0:
182,192,141368,1,0,0:0:0:0:
36,192,141368,1,0,0:0:0:0:
475,192,141545,1,0,0:0:0:0:
182,192,141545,1,0,0:0:0:0:
36,192,141545,1,0,0:0:0:0:
329,192,141633,1,0,0:0:0:0:
402,192,141633,1,0,0:0:0:0:
109,192,141721,1,0,0:0:0:0:
36,192,141721,1,0,0:0:0:0:
256,192,141721,1,0,0:0:0:0:
182,192,141721,1,0,0:0:0:0:
475,192,141898,1,0,0:0:0:0:
402,192,141898,1,0,0:0:0:0:
109,192,142074,1,0,0:0:0:0:
36,192,142074,1,0,0:0:0:0:
256,192,142074,1,0,0:0:0:0:
182,192,142074,1,0,0:0:0:0:
402,192,142251,1,0,0:0:0:0:
109,192,142427,1,0,0:0:0:0:
402,192,142515,1,0,0:0:0:0:
182,192,142604,1,0,0:0:0:0:
36,192,142604,1,0,0:0:0:0:
329,192,142604,1,0,0:0:0:0:
475,192,142780,1,0,0:0:0:0:
256,192,142780,1,0,0:0:0:0:
182,192,142956,1,0,0:0:0:0:
109,192,142956,1,0,0:0:0:0:
402,192,142956,1,0,0:0:0:0:
329,192,142956,1,0,0:0:0:0:
475,192,143133,1,0,0:0:0:0:
36,192,143133,1,0,0:0:0:0:
182,192,143309,1,0,0:0:0:0:
402,192,143309,1,0,0:0:0:0:
256,192,143309,1,0,0:0:0:0:
182,192,143486,1,0,0:0:0:0:
402,192,143486,1,0,0:0:0:0:
256,192,143486,1,0,0:0:0:0:
475,192,143662,1,0,0:0:0:0:
109,192,143662,1,0,0:0:0:0:
36,192,143662,1,0,0:0:0:0:
329,192,143662,1,0,0:0:0:0:
182,192,143839,1,0,0:0:0:0:
402,192,143839,1,0,0:0:0:0:
36,192,144015,1,0,0:0:0:0:
109,192,144015,1,0,0:0:0:0:
475,192,144015,1,0,0:0:0:0:
329,192,144015,1,0,0:0:0:0:
402,192,144192,1,0,0:0:0:0:
109,192,144368,1,0,0:0:0:0:
402,192,144456,1,0,0:0:0:0:
329,192,144545,1,0,0:0:0:0:
36,192,144545,1,0,0:0:0:0:
182,192,144545,1,0,0:0:0:0:
475,192,144721,1,0,0:0:0:0:
256,192,144721,1,0,0:0:0:0:
109,192,144897,1,0,0:0:0:0:
36,192,144897,1,0,0:0:0:0:
402,192,144897,1,0,0:0:0:0:
182,192,144897,1,0,0:0:0:0:
329,192,145074,1,0,0:0:0:0:
256,192,145074,1,0,0:0:0:0:
475,192,145250,1,0,0:0:0:0:
36,192,145250,1,0,0:0:0:0:
402,192,145250,1,0,0:0:0:0:
475,192,145427,1,0,0:0:0:0:
36,192,145427,1,0,0:0:0:0:
402,192,145427,1,0,0:0:0:0:
182,192,145515,1,0,0:0:0:0:
109,192,145515,1,0,0:0:0:0:
329,192,145603,1,0,0:0:0:0:
256,192,145603,1,0,0:0:0:0:
475,192,145603,1,0,0:0:0:0:
402,192,145603,1,0,0:0:0:0:
36,192,145780,1,0,0:0:0:0:
109,192,145780,1,0,0:0:0:0:
256,192,145956,1,0,0:0:0:0:
182,192,145956,1,0,0:0:0:0:
475,192,145956,1,0,0:0:0:0:
402,192,145956,1,0,0:0:0:0:
36,192,146133,1,0,0:0:0:0:
109,192,146133,1,0,0:0:0:0:
402,192,146309,1,0,0:0:0:0:
475,192,146309,1,0,0:0:0:0:
256,192,146309,1,0,0:0:0:0:
329,192,146309,1,0,0:0:0:0:
36,192,146397,1,0,0:0:0:0:
475,192,146486,1,0,0:0:0:0:
329,192,146486,1,0,0:0:0:0:
182,192,146486,1,0,0:0:0:0:
109,192,146662,1,0,0:0:0:0:
256,192,146662,1,0,0:0:0:0:
182,192,146838,1,0,0:0:0:0:
36,192,146838,1,0,0:0:0:0:
402,192,146838,1,0,0:0:0:0:
329,192,146838,1,0,0:0:0:0:
475,192,147015,1,0,0:0:0:0:
256,192,147015,1,0,0:0:0:0:
402,192,147191,1,0,0:0:0:0:
182,192,147191,1,0,0:0:0:0:
109,192,147191,1,0,0:0:0:0:
402,192,147368,1,0,0:0:0:0:
182,192,147368,1,0,0:0:0:0:
109,192,147368,1,0,0:0:0:0:
256,192,147544,1,0,0:0:0:0:
36,192,147544,1,0,0:0:0:0:
329,192,147544,1,0,0:0:0:0:
475,192,147544,1,0,0:0:0:0:
402,192,147721,1,0,0:0:0:0:
109,192,147721,1,0,0:0:0:0:
475,192,147897,1,0,0:0:0:0:
256,192,147897,1,0,0:0:0:0:
36,192,147897,1,0,0:0:0:0:
329,192,147897,1,0,0:0:0:0:
182,192,148074,1,0,0:0:0:0:
329,192,148250,1,0,0:0:0:0:
182,192,148338,1,0,0:0:0:0:
475,192,148427,1,0,0:0:0:0:
402,192,148427,1,0,0:0:0:0:
36,192,148427,1,0,0:0:0:0:
256,192,148603,1,0,0:0:0:0:
109,192,148603,1,0,0:0:0:0:
475,192,148779,1,0,0:0:0:0:
182,192,148779,1,0,0:0:0:0:
329,192,148779,1,0,0:0:0:0:
402,192,148779,1,0,0:0:0:0:
36,192,148956,1,0,0:0:0:0:
109,192,148956,1,0,0:0:0:0:
182,192,149132,1,0,0:0:0:0:
475,192,149132,1,0,0:0:0:0:
256,192,149132,1,0,0:0:0:0:
182,192,149309,1,0,0:0:0:0:
475,192,149309,1,0,0:0:0:0:
256,192,149309,1,0,0:0:0:0:
36,192,149397,1,0,0:0:0:0:
109,192,149397,1,0,0:0:0:0:
256,192,149485,1,0,0:0:0:0:
475,192,149485,1,0,0:0:0:0:
402,192,149485,1,0,0:0:0:0:
329,192,149485,1,0,0:0:0:0:
109,192,149662,1,0,0:0:0:0:
182,192,149662,1,0,0:0:0:0:
256,192,149838,1,0,0:0:0:0:
475,192,149838,1,0,0:0:0:0:
402,192,149838,1,0,0:0:0:0:
329,192,149838,1,0,0:0:0:0:
182,192,150015,1,0,0:0:0:0:
329,192,150191,1,0,0:0:0:0:
182,192,150279,1,0,0:0:0:0:
36,192,150368,1,0,0:0:0:0:
475,192,150368,1,0,0:0:0:0:
402,192,150368,1,0,0:0:0:0:
256,192,150544,1,0,0:0:0:0:
329,192,150544,1,0,0:0:0:0:
36,192,150720,1,0,0:0:0:0:
402,192,150720,1,0,0:0:0:0:
182,192,150720,1,0,0:0:0:0:
109,192,150720,1,0,0:0:0:0:
475,192,150897,1,0,0:0:0:0:
256,192,150897,1,0,0:0:0:0:
109,192,151073,1,0,0:0:0:0:
329,192,151073,1,0,0:0:0:0:
402,192,151073,1,0,0:0:0:0:
109,192,151250,1,0,0:0:0:0:
402,192,151250,1,0,0:0:0:0:
329,192,151250,1,0,0:0:0:0:
256,192,151426,1,0,0:0:0:0:
36,192,151426,1,0,0:0:0:0:
182,192,151426,1,0,0:0:0:0:
475,192,151426,1,0,0:0:0:0:
402,192,151603,1,0,0:0:0:0:
109,192,151603,1,0,0:0:0:0:
256,192,151779,1,0,0:0:0:0:
36,192,151779,1,0,0:0:0:0:
182,192,151779,1,0,0:0:0:0:
475,192,151779,1,0,0:0:0:0:
329,192,151956,1,0,0:0:0:0:
182,192,152132,1,0,0:0:0:0:
329,192,152220,1,0,0:0:0:0:
475,192,152309,1,0,0:0:0:0:
109,192,152309,1,0,0:0:0:0:
36,192,152309,1,0,0:0:0:0:
256,192,152485,1,0,0:0:0:0:
402,192,152485,1,0,0:0:0:0:
475,192,152661,1,0,0:0:0:0:
109,192,152661,1,0,0:0:0:0:
329,192,152661,1,0,0:0:0:0:
36,192,152661,1,0,0:0:0:0:
256,192,152838,1,0,0:0:0:0:
182,192,152838,1,0,0:0:0:0:
109,192,153014,1,0,0:0:0:0:
475,192,153014,1,0,0:0:0:0:
36,192,153014,1,0,0:0:0:0:
109,192,153191,1,0,0:0:0:0:
475,192,153191,1,0,0:0:0:0:
36,192,153191,1,0,0:0:0:0:
402,192,153279,1,0,0:0:0:0:
329,192,153279,1,0,0:0:0:0:
36,192,153367,1,0,0:0:0:0:
109,192,153367,1,0,0:0:0:0:
182,192,153367,1,0,0:0:0:0:
256,192,153367,1,0,0:0:0:0:
402,192,153544,1,0,0:0:0:0:
475,192,153544,1,0,0:0:0:0:
36,192,153720,1,0,0:0:0:0:
109,192,153720,1,0,0:0:0:0:
256,192,153720,1,0,0:0:0:0:
329,192,153720,1,0,0:0:0:0:
402,192,153897,1,0,0:0:0:0:
475,192,153897,1,0,0:0:0:0:
109,192,154073,1,0,0:0:0:0:
36,192,154073,1,0,0:0:0:0:
256,192,154073,1,0,0:0:0:0:
182,192,154073,1,0,0:0:0:0:
182,192,154250,1,0,0:0:0:0:
109,192,154250,1,0,0:0:0:0:
475,192,154250,1,0,0:0:0:0:
329,192,154426,1,0,0:0:0:0:
36,192,154426,1,0,0:0:0:0:
182,192,154602,1,0,0:0:0:0:
256,192,154602,1,0,0:0:0:0:
402,192,154602,1,0,0:0:0:0:
109,192,154602,1,0,0:0:0:0:
36,192,154779,1,0,0:0:0:0:
475,192,154779,1,0,0:0:0:0:
256,192,154955,1,0,0:0:0:0:
182,192,154955,1,0,0:0:0:0:
329,192,154955,1,0,0:0:0:0:
475,192,155132,1,0,0:0:0:0:
402,192,155132,1,0,0:0:0:0:
109,192,155132,1,0,0:0:0:0:
36,192,155308,1,0,0:0:0:0:
256,192,155308,1,0,0:0:0:0:
109,192,155485,1,0,0:0:0:0:
329,192,155485,1,0,0:0:0:0:
402,192,155485,1,0,0:0:0:0:
182,192,155485,1,0,0:0:0:0:
475,192,155661,1,0,0:0:0:0:
256,192,155661,1,0,0:0:0:0:
36,192,155838,1,0,0:0:0:0:
109,192,155838,1,0,0:0:0:0:
329,192,156014,1,0,0:0:0:0:
182,192,156014,1,0,0:0:0:0:
402,192,156014,1,0,0:0:0:0:
256,192,156191,1,0,0:0:0:0:
36,192,156191,1,0,0:0:0:0:
475,192,156367,1,0,0:0:0:0:
402,192,156367,1,0,0:0:0:0:
109,192,156367,1,0,0:0:0:0:
182,192,156367,1,0,0:0:0:0:
256,192,156544,1,0,0:0:0:0:
329,192,156544,1,0,0:0:0:0:
109,192,156720,1,0,0:0:0:0:
475,192,156720,1,0,0:0:0:0:
36,192,156720,1,0,0:0:0:0:
182,192,156897,1,0,0:0:0:0:
329,192,156897,1,0,0:0:0:0:
402,192,156897,1,0,0:0:0:0:
109,192,157073,1,0,0:0:0:0:
256,192,157073,1,0,0:0:0:0:
36,192,157250,1,0,0:0:0:0:
329,192,157250,1,0,0:0:0:0:
475,192,157250,1,0,0:0:0:0:
402,192,157250,1,0,0:0:0:0:
256,192,157426,1,0,0:0:0:0:
182,192,157426,1,0,0:0:0:0:
109,192,157602,1,0,0:0:0:0:
475,192,157602,1,0,0:0:0:0:
182,192,157779,1,0,0:0:0:0:
36,192,157779,1,0,0:0:0:0:
402,192,157779,1,0,0:0:0:0:
329,192,157955,1,0,0:0:0:0:
256,192,157955,1,0,0:0:0:0:
402,192,158132,1,0,0:0:0:0:
109,192,158132,1,0,0:0:0:0:
475,192,158132,1,0,0:0:0:0:
36,192,158132,1,0,0:0:0:0:
182,192,158308,1,0,0:0:0:0:
256,192,158308,1,0,0:0:0:0:
109,192,158485,1,0,0:0:0:0:
329,192,158485,1,0,0:0:0:0:
475,192,158485,1,0,0:0:0:0:
182,192,158661,1,0,0:0:0:0:
36,192,158661,1,0,0:0:0:0:
402,192,158661,1,0,0:0:0:0:
256,192,158838,1,0,0:0:0:0:
329,192,158838,1,0,0:0:0:0:
36,192,159014,1,0,0:0:0:0:
109,192,159014,1,0,0:0:0:0:
475,192,159014,1,0,0:0:0:0:
402,192,159014,1,0,0:0:0:0:
182,192,159191,1,0,0:0:0:0:
256,192,159191,1,0,0:0:0:0:
329,192,159367,1,0,0:0:0:0:
475,192,159367,1,0,0:0:0:0:
256,192,159544,1,0,0:0:0:0:
36,192,159544,1,0,0:0:0:0:
402,192,159544,1,0,0:0:0:0:
182,192,159720,1,0,0:0:0:0:
109,192,159720,1,0,0:0:0:0:
36,192,159897,1,0,0:0:0:0:
329,192,159897,1,0,0:0:0:0:
475,192,159897,1,0,0:0:0:0:
402,192,159897,1,0,0:0:0:0:
182,192,160073,1,0,0:0:0:0:
256,192,160073,1,0,0:0:0:0:
109,192,160250,5,0,0:0:0:0:
329,192,160250,1,0,0:0:0:0:
475,192,160250,1,0,0:0:0:0:
36,192,160426,1,0,0:0:0:0:
256,192,160426,1,0,0:0:0:0:
402,192,160426,1,0,0:0:0:0:
329,192,160602,1,0,0:0:0:0:
182,192,160602,1,0,0:0:0:0:
402,192,160779,1,0,0:0:0:0:
36,192,160779,1,0,0:0:0:0:
475,192,160779,1,0,0:0:0:0:
109,192,160779,1,0,0:0:0:0:
182,192,160955,1,0,0:0:0:0:
256,192,160955,1,0,0:0:0:0:
329,192,161132,1,0,0:0:0:0:
36,192,161132,1,0,0:0:0:0:
256,192,161308,5,0,0:0:0:0:
475,192,161308,1,0,0:0:0:0:
109,192,161308,1,0,0:0:0:0:
402,192,161485,1,0,0:0:0:0:
109,192,161485,1,0,0:0:0:0:
475,192,161661,1,0,0:0:0:0:
329,192,161661,1,0,0:0:0:0:
182,192,161661,1,0,0:0:0:0:
36,192,161661,1,0,0:0:0:0:
256,192,161838,1,0,0:0:0:0:
109,192,161838,1,0,0:0:0:0:
182,192,162014,1,0,0:0:0:0:
329,192,162014,1,0,0:0:0:0:
402,192,162014,1,0,0:0:0:0:
182,192,162191,1,0,0:0:0:0:
329,192,162191,1,0,0:0:0:0:
36,192,162191,1,0,0:0:0:0:
256,192,162367,1,0,0:0:0:0:
475,192,162367,1,0,0:0:0:0:
329,192,162544,1,0,0:0:0:0:
182,192,162544,1,0,0:0:0:0:
109,192,162544,1,0,0:0:0:0:
36,192,162544,1,0,0:0:0:0:
402,192,162720,1,0,0:0:0:0:
256,192,162720,1,0,0:0:0:0:
402,192,162897,1,0,0:0:0:0:
109,192,162897,1,0,0:0:0:0:
475,192,163073,1,0,0:0:0:0:
329,192,163073,1,0,0:0:0:0:
36,192,163073,1,0,0:0:0:0:
36,192,163250,1,0,0:0:0:0:
256,192,163250,1,0,0:0:0:0:
329,192,163426,1,0,0:0:0:0:
109,192,163426,1,0,0:0:0:0:
182,192,163426,1,0,0:0:0:0:
475,192,163426,1,0,0:0:0:0:
256,192,163602,1,0,0:0:0:0:
402,192,163602,1,0,0:0:0:0:
109,192,163779,1,0,0:0:0:0:
475,192,163779,1,0,0:0:0:0:
36,192,163779,1,0,0:0:0:0:
109,192,163955,1,0,0:0:0:0:
475,192,163955,1,0,0:0:0:0:
329,192,163955,1,0,0:0:0:0:
402,192,164132,1,0,0:0:0:0:
182,192,164132,1,0,0:0:0:0:
256,192,164308,1,0,0:0:0:0:
36,192,164308,1,0,0:0:0:0:
109,192,164308,1,0,0:0:0:0:
475,192,164308,1,0,0:0:0:0:
329,192,164485,1,0,0:0:0:0:
182,192,164485,1,0,0:0:0:0:
329,192,164661,1,0,0:0:0:0:
36,192,164661,1,0,0:0:0:0:
256,192,164838,1,0,0:0:0:0:
182,192,164838,1,0,0:0:0:0:
475,192,164838,1,0,0:0:0:0:
182,192,165014,1,0,0:0:0:0:
402,192,165014,1,0,0:0:0:0:
109,192,165191,1,0,0:0:0:0:
36,192,165191,1,0,0:0:0:0:
329,192,165191,1,0,0:0:0:0:
256,192,165191,1,0,0:0:0:0:
182,192,165367,1,0,0:0:0:0:
475,192,165367,1,0,0:0:0:0:
402,192,165544,1,0,0:0:0:0:
36,192,165544,1,0,0:0:0:0:
329,192,165544,1,0,0:0:0:0:
402,192,165720,1,0,0:0:0:0:
36,192,165720,1,0,0:0:0:0:
109,192,165720,1,0,0:0:0:0:
182,192,165897,1,0,0:0:0:0:
475,192,165897,1,0,0:0:0:0:
329,192,166073,1,0,0:0:0:0:
256,192,166073,1,0,0:0:0:0:
402,192,166073,1,0,0:0:0:0:
109,192,166073,1,0,0:0:0:0:
475,192,166250,1,0,0:0:0:0:
36,192,166250,1,0,0:0:0:0:
475,192,166426,1,0,0:0:0:0:
182,192,166426,1,0,0:0:0:0:
109,192,166602,1,0,0:0:0:0:
402,192,166602,1,0,0:0:0:0:
329,192,166602,1,0,0:0:0:0:
109,192,166779,1,0,0:0:0:0:
256,192,166779,1,0,0:0:0:0:
182,192,166955,1,0,0:0:0:0:
475,192,166955,1,0,0:0:0:0:
402,192,166955,1,0,0:0:0:0:
36,192,166955,1,0,0:0:0:0:
256,192,167132,1,0,0:0:0:0:
329,192,167132,1,0,0:0:0:0:
36,192,167308,1,0,0:0:0:0:
475,192,167308,1,0,0:0:0:0:
109,192,167308,1,0,0:0:0:0:
36,192,167485,1,0,0:0:0:0:
475,192,167485,1,0,0:0:0:0:
329,192,167485,1,0,0:0:0:0:
182,192,167661,1,0,0:0:0:0:
402,192,167661,1,0,0:0:0:0:
256,192,167838,1,0,0:0:0:0:
109,192,167838,1,0,0:0:0:0:
36,192,167838,1,0,0:0:0:0:
475,192,167838,1,0,0:0:0:0:
329,192,168014,1,0,0:0:0:0:
182,192,168014,1,0,0:0:0:0:
329,192,168191,1,0,0:0:0:0:
109,192,168191,1,0,0:0:0:0:
475,192,168367,1,0,0:0:0:0:
402,192,168367,1,0,0:0:0:0:
36,192,168367,1,0,0:0:0:0:
182,192,168544,1,0,0:0:0:0:
256,192,168544,1,0,0:0:0:0:
109,192,168720,1,0,0:0:0:0:
475,192,168720,1,0,0:0:0:0:
329,192,168720,1,0,0:0:0:0:
36,192,168720,1,0,0:0:0:0:
256,192,168897,1,0,0:0:0:0:
402,192,168897,1,0,0:0:0:0:
36,192,169073,1,0,0:0:0:0:
329,192,169073,1,0,0:0:0:0:
475,192,169073,1,0,0:0:0:0:
182,192,169250,1,0,0:0:0:0:
109,192,169250,1,0,0:0:0:0:
256,192,169250,1,0,0:0:0:0:
36,192,169426,1,0,0:0:0:0:
402,192,169426,1,0,0:0:0:0:
109,192,169602,1,0,0:0:0:0:
182,192,169602,1,0,0:0:0:0:
475,192,169602,1,0,0:0:0:0:
329,192,169602,1,0,0:0:0:0:
402,192,169779,1,0,0:0:0:0:
256,192,169779,1,0,0:0:0:0:
329,192,169955,1,0,0:0:0:0:
182,192,169955,1,0,0:0:0:0:
109,192,170132,1,0,0:0:0:0:
36,192,170132,1,0,0:0:0:0:
475,192,170132,1,0,0:0:0:0:
256,192,170308,1,0,0:0:0:0:
402,192,170308,1,0,0:0:0:0:
182,192,170485,1,0,0:0:0:0:
475,192,170485,1,0,0:0:0:0:
36,192,170485,1,0,0:0:0:0:
329,192,170485,1,0,0:0:0:0:
109,192,170661,1,0,0:0:0:0:
256,192,170661,1,0,0:0:0:0:
36,192,170838,1,0,0:0:0:0:
475,192,170838,1,0,0:0:0:0:
329,192,170838,1,0,0:0:0:0:
182,192,171014,1,0,0:0:0:0:
402,192,171014,1,0,0:0:0:0:
109,192,171014,1,0,0:0:0:0:
36,192,171191,1,0,0:0:0:0:
256,192,171191,1,0,0:0:0:0:
475,192,171367,1,0,0:0:0:0:
182,192,171367,1,0,0:0:0:0:
329,192,171367,1,0,0:0:0:0:
109,192,171367,1,0,0:0:0:0:
402,192,171544,1,0,0:0:0:0:
256,192,171544,1,0,0:0:0:0:
36,192,171720,1,0,0:0:0:0:
475,192,171720,1,0,0:0:0:0:
182,192,171897,1,0,0:0:0:0:
329,192,171897,1,0,0:0:0:0:
109,192,171897,1,0,0:0:0:0:
402,192,172073,1,0,0:0:0:0:
256,192,172073,1,0,0:0:0:0:
329,192,172250,1,0,0:0:0:0:
109,192,172250,1,0,0:0:0:0:
36,192,172250,1,0,0:0:0:0:
475,192,172250,1,0,0:0:0:0:
182,192,172426,1,0,0:0:0:0:
256,192,172426,1,0,0:0:0:0:
36,192,172602,1,0,0:0:0:0:
475,192,172602,1,0,0:0:0:0:
402,192,172602,1,0,0:0:0:0:
182,192,172779,1,0,0:0:0:0:
329,192,172779,1,0,0:0:0:0:
109,192,172779,1,0,0:0:0:0:
402,192,172955,1,0,0:0:0:0:
256,192,172955,1,0,0:0:0:0:
329,192,173132,1,0,0:0:0:0:
109,192,173132,1,0,0:0:0:0:
36,192,173132,1,0,0:0:0:0:
475,192,173132,1,0,0:0:0:0:
182,192,173308,1,0,0:0:0:0:
402,192,173308,1,0,0:0:0:0:
475,192,173485,1,0,0:0:0:0:
256,192,173485,1,0,0:0:0:0:
329,192,173661,1,0,0:0:0:0:
109,192,173661,1,0,0:0:0:0:
36,192,173661,1,0,0:0:0:0:
402,192,173838,1,0,0:0:0:0:
182,192,173838,1,0,0:0:0:0:
256,192,174014,1,0,0:0:0:0:
329,192,174014,1,0,0:0:0:0:
475,192,174014,1,0,0:0:0:0:
36,192,174014,1,0,0:0:0:0:
402,192,174191,1,0,0:0:0:0:
109,192,174191,1,0,0:0:0:0:
475,192,174367,1,0,0:0:0:0:
256,192,174367,1,0,0:0:0:0:
182,192,174367,1,0,0:0:0:0:
329,192,174544,1,0,0:0:0:0:
36,192,174544,1,0,0:0:0:0:
109,192,174544,1,0,0:0:0:0:
402,192,174720,1,0,0:0:0:0:
182,192,174720,1,0,0:0:0:0:
329,192,174897,1,0,0:0:0:0:
475,192,174897,1,0,0:0:0:0:
256,192,174897,1,0,0:0:0:0:
36,192,174897,1,0,0:0:0:0:
402,192,175073,1,0,0:0:0:0:
109,192,175073,1,0,0:0:0:0:
329,192,175250,1,0,0:0:0:0:
36,192,175250,1,0,0:0:0:0:
475,192,175426,1,0,0:0:0:0:
182,192,175426,1,0,0:0:0:0:
256,192,175426,1,0,0:0:0:0:
475,192,175602,1,0,0:0:0:0:
109,192,175602,1,0,0:0:0:0:
36,192,175779,1,0,0:0:0:0:
182,192,175779,1,0,0:0:0:0:
329,192,175779,1,0,0:0:0:0:
256,192,175779,1,0,0:0:0:0:
109,192,175955,1,0,0:0:0:0:
475,192,175955,1,0,0:0:0:0:
329,192,176132,1,0,0:0:0:0:
182,192,176132,1,0,0:0:0:0:
402,192,176132,1,0,0:0:0:0:
329,192,176308,1,0,0:0:0:0:
36,192,176308,1,0,0:0:0:0:
182,192,176308,1,0,0:0:0:0:
256,192,176485,1,0,0:0:0:0:
475,192,176485,1,0,0:0:0:0:
402,192,176661,1,0,0:0:0:0:
109,192,176661,1,0,0:0:0:0:
475,192,176661,1,0,0:0:0:0:
182,192,176661,1,0,0:0:0:0:
329,192,176838,1,0,0:0:0:0:
36,192,176838,1,0,0:0:0:0:
256,192,177014,1,0,0:0:0:0:
36,192,177014,1,0,0:0:0:0:
109,192,177191,1,0,0:0:0:0:
402,192,177191,1,0,0:0:0:0:
475,192,177191,1,0,0:0:0:0:
182,192,177367,1,0,0:0:0:0:
475,192,177367,1,0,0:0:0:0:
109,192,177544,1,0,0:0:0:0:
36,192,177544,1,0,0:0:0:0:
329,192,177544,1,0,0:0:0:0:
256,192,177544,1,0,0:0:0:0:
402,192,177720,1,0,0:0:0:0:
182,192,177720,1,0,0:0:0:0:
475,192,177897,1,0,0:0:0:0:
329,192,177897,1,0,0:0:0:0:
36,192,177897,1,0,0:0:0:0:
109,192,178073,1,0,0:0:0:0:
329,192,178073,1,0,0:0:0:0:
36,192,178073,1,0,0:0:0:0:
256,192,178250,1,0,0:0:0:0:
402,192,178250,1,0,0:0:0:0:
329,192,178426,1,0,0:0:0:0:
36,192,178426,1,0,0:0:0:0:
182,192,178426,1,0,0:0:0:0:
475,192,178426,1,0,0:0:0:0:
402,192,178602,1,0,0:0:0:0:
109,192,178602,1,0,0:0:0:0:
256,192,178779,1,0,0:0:0:0:
109,192,178779,1,0,0:0:0:0:
182,192,178955,1,0,0:0:0:0:
475,192,178955,1,0,0:0:0:0:
329,192,178955,1,0,0:0:0:0:
36,192,179132,1,0,0:0:0:0:
329,192,179132,1,0,0:0:0:0:
402,192,179308,1,0,0:0:0:0:
475,192,179308,1,0,0:0:0:0:
109,192,179308,1,0,0:0:0:0:
256,192,179308,1,0,0:0:0:0:
36,192,179485,1,0,0:0:0:0:
182,192,179485,1,0,0:0:0:0:
109,192,179661,1,0,0:0:0:0:
329,192,179661,1,0,0:0:0:0:
475,192,179661,1,0,0:0:0:0:
182,192,179838,1,0,0:0:0:0:
109,192,179838,1,0,0:0:0:0:
475,192,179838,1,0,0:0:0:0:
256,192,180014,1,0,0:0:0:0:
402,192,180014,1,0,0:0:0:0:
109,192,180191,1,0,0:0:0:0:
475,192,180191,1,0,0:0:0:0:
36,192,180191,1,0,0:0:0:0:
329,192,180191,1,0,0:0:0:0:
402,192,180367,1,0,0:0:0:0:
182,192,180367,1,0,0:0:0:0:
475,192,180544,1,0,0:0:0:0:
182,192,180544,1,0,0:0:0:0:
109,192,180720,1,0,0:0:0:0:
256,192,180720,1,0,0:0:0:0:
329,192,180720,1,0,0:0:0:0:
36,192,180897,1,0,0:0:0:0:
329,192,180897,1,0,0:0:0:0:
182,192,181073,1,0,0:0:0:0:
109,192,181073,1,0,0:0:0:0:
475,192,181073,1,0,0:0:0:0:
402,192,181073,1,0,0:0:0:0:
36,192,181249,1,0,0:0:0:0:
329,192,181249,1,0,0:0:0:0:
256,192,181426,1,0,0:0:0:0:
402,192,181426,1,0,0:0:0:0:
182,192,181426,1,0,0:0:0:0:
109,192,181602,1,0,0:0:0:0:
402,192,181602,1,0,0:0:0:0:
182,192,181602,1,0,0:0:0:0:
329,192,181779,1,0,0:0:0:0:
475,192,181779,1,0,0:0:0:0:
256,192,181955,1,0,0:0:0:0:
36,192,181955,1,0,0:0:0:0:
182,192,181955,1,0,0:0:0:0:
402,192,181955,1,0,0:0:0:0:
109,192,182132,1,0,0:0:0:0:
329,192,182132,1,0,0:0:0:0:
109,192,182308,1,0,0:0:0:0:
475,192,182308,1,0,0:0:0:0:
402,192,182485,1,0,0:0:0:0:
256,192,182485,1,0,0:0:0:0:
329,192,186014,1,0,0:0:0:0:
109,192,186014,1,0,0:0:0:0:
402,192,189544,1,0,0:0:0:0:
256,192,189544,1,0,0:0:0:0:
329,192,191308,1,0,0:0:0:0:
475,192,193073,1,0,0:0:0:0:
182,192,193073,1,0,0:0:0:0:
36,192,194838,1,0,0:0:0:0:
475,192,196602,1,0,0:0:0:0:
36,192,196602,1,0,0:0:0:0:
256,192,196602,1,0,0:0:0:0:
329,192,196778,1,0,0:0:0:0:
109,192,196778,1,0,0:0:0:0:
109,192,196954,1,0,0:0:0:0:
475,192,196954,1,0,0:0:0:0:
256,192,197131,1,0,0:0:0:0:
329,192,197131,1,0,0:0:0:0:
402,192,197131,1,0,0:0:0:0:
36,192,197131,1,0,0:0:0:0:
182,192,197307,1,0,0:0:0:0:
109,192,197307,1,0,0:0:0:0:
329,192,197484,1,0,0:0:0:0:
402,192,197484,1,0,0:0:0:0:
475,192,197484,1,0,0:0:0:0:
36,192,197572,1,0,0:0:0:0:
109,192,197572,1,0,0:0:0:0:
402,192,197660,1,0,0:0:0:0:
475,192,197660,1,0,0:0:0:0:
329,192,197660,1,0,0:0:0:0:
36,192,197837,1,0,0:0:0:0:
256,192,197837,1,0,0:0:0:0:
402,192,198013,1,0,0:0:0:0:
36,192,198013,1,0,0:0:0:0:
329,192,198190,1,0,0:0:0:0:
475,192,198190,1,0,0:0:0:0:
109,192,198190,1,0,0:0:0:0:
182,192,198190,1,0,0:0:0:0:
256,192,198366,1,0,0:0:0:0:
402,192,198366,1,0,0:0:0:0:
402,192,198543,1,0,0:0:0:0:
182,192,198543,1,0,0:0:0:0:
109,192,198631,1,0,0:0:0:0:
475,192,198719,1,0,0:0:0:0:
256,192,198719,1,0,0:0:0:0:
36,192,198719,1,0,0:0:0:0:
182,192,198895,1,0,0:0:0:0:
402,192,198895,1,0,0:0:0:0:
109,192,199071,1,0,0:0:0:0:
36,192,199071,1,0,0:0:0:0:
329,192,199071,1,0,0:0:0:0:
256,192,199071,1,0,0:0:0:0:
182,192,199248,1,0,0:0:0:0:
475,192,199248,1,0,0:0:0:0:
256,192,199424,1,0,0:0:0:0:
329,192,199424,1,0,0:0:0:0:
402,192,199424,1,0,0:0:0:0:
36,192,199513,1,0,0:0:0:0:
109,192,199513,1,0,0:0:0:0:
402,192,199601,1,0,0:0:0:0:
329,192,199601,1,0,0:0:0:0:
256,192,199601,1,0,0:0:0:0:
475,192,199777,1,0,0:0:0:0:
182,192,199777,1,0,0:0:0:0:
36,192,199954,1,0,0:0:0:0:
475,192,199954,1,0,0:0:0:0:
402,192,200130,1,0,0:0:0:0:
182,192,200130,1,0,0:0:0:0:
109,192,200130,1,0,0:0:0:0:
329,192,200130,1,0,0:0:0:0:
36,192,200307,1,0,0:0:0:0:
256,192,200307,1,0,0:0:0:0:
475,192,200483,1,0,0:0:0:0:
256,192,200483,1,0,0:0:0:0:
402,192,200571,1,0,0:0:0:0:
109,192,200660,1,0,0:0:0:0:
182,192,200660,1,0,0:0:0:0:
329,192,200660,1,0,0:0:0:0:
36,192,200836,1,0,0:0:0:0:
402,192,200836,1,0,0:0:0:0:
256,192,201012,1,0,0:0:0:0:
36,192,201012,1,0,0:0:0:0:
475,192,201189,1,0,0:0:0:0:
109,192,201189,1,0,0:0:0:0:
182,192,201189,1,0,0:0:0:0:
329,192,201189,1,0,0:0:0:0:
256,192,201365,1,0,0:0:0:0:
402,192,201365,1,0,0:0:0:0:
36,192,201542,1,0,0:0:0:0:
182,192,201542,1,0,0:0:0:0:
109,192,201542,1,0,0:0:0:0:
402,192,201630,1,0,0:0:0:0:
329,192,201630,1,0,0:0:0:0:
36,192,201718,1,0,0:0:0:0:
109,192,201718,1,0,0:0:0:0:
182,192,201718,1,0,0:0:0:0:
256,192,201895,1,0,0:0:0:0:
475,192,201895,1,0,0:0:0:0:
109,192,202071,1,0,0:0:0:0:
475,192,202071,1,0,0:0:0:0:
182,192,202248,1,0,0:0:0:0:
36,192,202248,1,0,0:0:0:0:
402,192,202248,1,0,0:0:0:0:
329,192,202248,1,0,0:0:0:0:
109,192,202424,1,0,0:0:0:0:
256,192,202424,1,0,0:0:0:0:
329,192,202601,1,0,0:0:0:0:
109,192,202601,1,0,0:0:0:0:
402,192,202689,1,0,0:0:0:0:
36,192,202777,1,0,0:0:0:0:
182,192,202777,1,0,0:0:0:0:
475,192,202777,1,0,0:0:0:0:
329,192,202953,1,0,0:0:0:0:
256,192,202953,1,0,0:0:0:0:
402,192,203129,1,0,0:0:0:0:
475,192,203129,1,0,0:0:0:0:
109,192,203129,1,0,0:0:0:0:
182,192,203129,1,0,0:0:0:0:
36,192,203306,1,0,0:0:0:0:
329,192,203306,1,0,0:0:0:0:
109,192,203482,1,0,0:0:0:0:
182,192,203482,1,0,0:0:0:0:
256,192,203482,1,0,0:0:0:0:
475,192,203571,1,0,0:0:0:0:
402,192,203571,1,0,0:0:0:0:
182,192,203659,1,0,0:0:0:0:
109,192,203659,1,0,0:0:0:0:
256,192,203659,1,0,0:0:0:0:
36,192,203835,1,0,0:0:0:0:
475,192,203835,1,0,0:0:0:0:
109,192,204012,1,0,0:0:0:0:
475,192,204012,1,0,0:0:0:0:
402,192,204188,1,0,0:0:0:0:
36,192,204188,1,0,0:0:0:0:
329,192,204188,1,0,0:0:0:0:
256,192,204188,1,0,0:0:0:0:
475,192,204365,1,0,0:0:0:0:
182,192,204365,1,0,0:0:0:0:
256,192,204541,1,0,0:0:0:0:
329,192,204541,1,0,0:0:0:0:
36,192,204541,1,0,0:0:0:0:
402,192,204541,1,0,0:0:0:0:
109,192,204629,1,0,0:0:0:0:
475,192,204718,1,0,0:0:0:0:
329,192,204718,1,0,0:0:0:0:
182,192,204718,1,0,0:0:0:0:
36,192,204894,1,0,0:0:0:0:
402,192,204894,1,0,0:0:0:0:
109,192,205070,1,0,0:0:0:0:
402,192,205070,1,0,0:0:0:0:
329,192,205247,1,0,0:0:0:0:
475,192,205247,1,0,0:0:0:0:
182,192,205247,1,0,0:0:0:0:
256,192,205247,1,0,0:0:0:0:
402,192,205423,1,0,0:0:0:0:
36,192,205423,1,0,0:0:0:0:
256,192,205600,1,0,0:0:0:0:
182,192,205600,1,0,0:0:0:0:
109,192,205600,1,0,0:0:0:0:
329,192,205688,1,0,0:0:0:0:
402,192,205688,1,0,0:0:0:0:
109,192,205776,1,0,0:0:0:0:
182,192,205776,1,0,0:0:0:0:
256,192,205776,1,0,0:0:0:0:
36,192,205953,1,0,0:0:0:0:
475,192,205953,1,0,0:0:0:0:
256,192,206129,1,0,0:0:0:0:
475,192,206129,1,0,0:0:0:0:
109,192,206306,1,0,0:0:0:0:
182,192,206306,1,0,0:0:0:0:
402,192,206306,1,0,0:0:0:0:
329,192,206306,1,0,0:0:0:0:
256,192,206482,1,0,0:0:0:0:
36,192,206482,1,0,0:0:0:0:
36,192,206659,1,0,0:0:0:0:
475,192,206659,1,0,0:0:0:0:
402,192,206747,1,0,0:0:0:0:
109,192,206835,1,0,0:0:0:0:
182,192,206835,1,0,0:0:0:0:
329,192,206835,1,0,0:0:0:0:
475,192,207011,1,0,0:0:0:0:
256,192,207011,1,0,0:0:0:0:
182,192,207187,1,0,0:0:0:0:
36,192,207187,1,0,0:0:0:0:
402,192,207187,1,0,0:0:0:0:
329,192,207187,1,0,0:0:0:0:
256,192,207364,1,0,0:0:0:0:
109,192,207364,1,0,0:0:0:0:
475,192,207540,1,0,0:0:0:0:
329,192,207540,1,0,0:0:0:0:
402,192,207540,1,0,0:0:0:0:
36,192,207629,1,0,0:0:0:0:
182,192,207629,1,0,0:0:0:0:
475,192,207717,1,0,0:0:0:0:
402,192,207717,1,0,0:0:0:0:
329,192,207717,1,0,0:0:0:0:
256,192,207893,1,0,0:0:0:0:
109,192,207893,1,0,0:0:0:0:
402,192,208070,1,0,0:0:0:0:
109,192,208070,1,0,0:0:0:0:
182,192,208246,1,0,0:0:0:0:
36,192,208246,1,0,0:0:0:0:
475,192,208246,1,0,0:0:0:0:
329,192,208246,1,0,0:0:0:0:
402,192,208423,1,0,0:0:0:0:
256,192,208423,1,0,0:0:0:0:
36,192,208599,1,0,0:0:0:0:
256,192,208599,1,0,0:0:0:0:
109,192,208687,1,0,0:0:0:0:
329,192,208776,1,0,0:0:0:0:
402,192,208776,1,0,0:0:0:0:
182,192,208776,1,0,0:0:0:0:
475,192,208952,1,0,0:0:0:0:
36,192,208952,1,0,0:0:0:0:
329,192,209128,1,0,0:0:0:0:
475,192,209128,1,0,0:0:0:0:
402,192,209305,1,0,0:0:0:0:
109,192,209305,1,0,0:0:0:0:
182,192,209305,1,0,0:0:0:0:
256,192,209305,1,0,0:0:0:0:
475,192,209481,1,0,0:0:0:0:
36,192,209481,1,0,0:0:0:0:
256,192,209658,1,0,0:0:0:0:
329,192,209658,1,0,0:0:0:0:
402,192,209658,1,0,0:0:0:0:
109,192,209746,1,0,0:0:0:0:
182,192,209746,1,0,0:0:0:0:
402,192,209834,1,0,0:0:0:0:
329,192,209834,1,0,0:0:0:0:
256,192,209834,1,0,0:0:0:0:
475,192,210011,1,0,0:0:0:0:
36,192,210011,1,0,0:0:0:0:
329,192,210187,1,0,0:0:0:0:
36,192,210187,1,0,0:0:0:0:
475,192,210364,1,0,0:0:0:0:
256,192,210364,1,0,0:0:0:0:
109,192,210364,1,0,0:0:0:0:
402,192,210364,1,0,0:0:0:0:
329,192,210540,1,0,0:0:0:0:
182,192,210540,1,0,0:0:0:0:
109,192,210717,1,0,0:0:0:0:
329,192,210717,1,0,0:0:0:0:
402,192,210805,1,0,0:0:0:0:
182,192,210893,1,0,0:0:0:0:
36,192,210893,1,0,0:0:0:0:
475,192,210893,1,0,0:0:0:0:
329,192,211069,1,0,0:0:0:0:
109,192,211069,1,0,0:0:0:0:
256,192,211245,1,0,0:0:0:0:
475,192,211245,1,0,0:0:0:0:
36,192,211245,1,0,0:0:0:0:
182,192,211245,1,0,0:0:0:0:
402,192,211422,1,0,0:0:0:0:
329,192,211422,1,0,0:0:0:0:
182,192,211598,1,0,0:0:0:0:
36,192,211598,1,0,0:0:0:0:
109,192,211598,1,0,0:0:0:0:
329,192,211687,1,0,0:0:0:0:
475,192,211687,1,0,0:0:0:0:
109,192,211775,1,0,0:0:0:0:
36,192,211775,1,0,0:0:0:0:
182,192,211775,1,0,0:0:0:0:
256,192,211951,1,0,0:0:0:0:
402,192,211951,1,0,0:0:0:0:
182,192,212128,1,0,0:0:0:0:
402,192,212128,1,0,0:0:0:0:
109,192,212304,1,0,0:0:0:0:
475,192,212304,1,0,0:0:0:0:
256,192,212304,1,0,0:0:0:0:
36,192,212304,1,0,0:0:0:0:
182,192,212481,1,0,0:0:0:0:
329,192,212481,1,0,0:0:0:0:
256,192,212657,1,0,0:0:0:0:
475,192,212657,1,0,0:0:0:0:
36,192,212657,1,0,0:0:0:0:
109,192,212657,1,0,0:0:0:0:
402,192,212745,1,0,0:0:0:0:
36,192,212834,1,0,0:0:0:0:
182,192,212834,1,0,0:0:0:0:
329,192,212834,1,0,0:0:0:0:
475,192,213010,1,0,0:0:0:0:
109,192,213010,1,0,0:0:0:0:
329,192,213186,1,0,0:0:0:0:
475,192,213186,1,0,0:0:0:0:
182,192,213363,1,0,0:0:0:0:
36,192,213363,1,0,0:0:0:0:
402,192,213363,1,0,0:0:0:0:
256,192,213363,1,0,0:0:0:0:
329,192,213539,1,0,0:0:0:0:
109,192,213539,1,0,0:0:0:0:
36,192,213716,1,0,0:0:0:0:
182,192,213716,1,0,0:0:0:0:
256,192,213716,1,0,0:0:0:0:
402,192,213804,1,0,0:0:0:0:
475,192,213804,1,0,0:0:0:0:
36,192,213892,1,0,0:0:0:0:
182,192,213892,1,0,0:0:0:0:
256,192,213892,1,0,0:0:0:0:
109,192,214069,1,0,0:0:0:0:
329,192,214069,1,0,0:0:0:0:
109,192,214245,1,0,0:0:0:0:
475,192,214245,1,0,0:0:0:0:
329,192,214422,1,0,0:0:0:0:
256,192,214422,1,0,0:0:0:0:
402,192,214422,1,0,0:0:0:0:
182,192,214422,1,0,0:0:0:0:
36,192,214598,1,0,0:0:0:0:
475,192,214598,1,0,0:0:0:0:
475,192,214775,1,0,0:0:0:0:
182,192,214775,1,0,0:0:0:0:
109,192,214863,1,0,0:0:0:0:
402,192,214951,1,0,0:0:0:0:
329,192,214951,1,0,0:0:0:0:
36,192,214951,1,0,0:0:0:0:
475,192,215127,1,0,0:0:0:0:
256,192,215127,1,0,0:0:0:0:
329,192,215303,1,0,0:0:0:0:
402,192,215303,1,0,0:0:0:0:
109,192,215303,1,0,0:0:0:0:
182,192,215303,1,0,0:0:0:0:
36,192,215480,1,0,0:0:0:0:
475,192,215480,1,0,0:0:0:0:
256,192,215656,1,0,0:0:0:0:
329,192,215656,1,0,0:0:0:0:
402,192,215656,1,0,0:0:0:0:
109,192,215745,1,0,0:0:0:0:
36,192,215745,1,0,0:0:0:0:
402,192,215833,1,0,0:0:0:0:
329,192,215833,1,0,0:0:0:0:
256,192,215833,1,0,0:0:0:0:
475,192,216009,1,0,0:0:0:0:
182,192,216009,1,0,0:0:0:0:
329,192,216186,1,0,0:0:0:0:
182,192,216186,1,0,0:0:0:0:
256,192,216362,1,0,0:0:0:0:
402,192,216362,1,0,0:0:0:0:
36,192,216362,1,0,0:0:0:0:
109,192,216362,1,0,0:0:0:0:
475,192,216539,1,0,0:0:0:0:
182,192,216539,1,0,0:0:0:0:
475,192,216715,1,0,0:0:0:0:
36,192,216715,1,0,0:0:0:0:
109,192,216803,1,0,0:0:0:0:
402,192,216892,1,0,0:0:0:0:
329,192,216892,1,0,0:0:0:0:
182,192,216892,1,0,0:0:0:0:
36,192,217068,1,0,0:0:0:0:
256,192,217068,1,0,0:0:0:0:
475,192,217244,1,0,0:0:0:0:
36,192,217244,1,0,0:0:0:0:
182,192,217421,1,0,0:0:0:0:
256,192,217421,1,0,0:0:0:0:
329,192,217421,1,0,0:0:0:0:
109,192,217421,1,0,0:0:0:0:
402,192,217597,1,0,0:0:0:0:
36,192,217597,1,0,0:0:0:0:
329,192,217774,1,0,0:0:0:0:
475,192,217774,1,0,0:0:0:0:
256,192,217774,1,0,0:0:0:0:
36,192,217862,1,0,0:0:0:0:
109,192,217862,1,0,0:0:0:0:
329,192,217950,1,0,0:0:0:0:
475,192,217950,1,0,0:0:0:0:
256,192,217950,1,0,0:0:0:0:
402,192,218127,1,0,0:0:0:0:
182,192,218127,1,0,0:0:0:0:
475,192,218303,1,0,0:0:0:0:
182,192,218303,1,0,0:0:0:0:
329,192,218480,1,0,0:0:0:0:
256,192,218480,1,0,0:0:0:0:
36,192,218480,1,0,0:0:0:0:
109,192,218480,1,0,0:0:0:0:
475,192,218656,1,0,0:0:0:0:
182,192,218656,1,0,0:0:0:0:
36,192,218833,1,0,0:0:0:0:
475,192,218833,1,0,0:0:0:0:
402,192,218921,1,0,0:0:0:0:
182,192,219009,1,0,0:0:0:0:
256,192,219009,1,0,0:0:0:0:
329,192,219009,1,0,0:0:0:0:
109,192,219185,1,0,0:0:0:0:
36,192,219185,1,0,0:0:0:0:
256,192,219361,1,0,0:0:0:0:
182,192,219361,1,0,0:0:0:0:
475,192,219361,1,0,0:0:0:0:
402,192,219361,1,0,0:0:0:0:
36,192,219538,1,0,0:0:0:0:
329,192,219538,1,0,0:0:0:0:
109,192,219714,1,0,0:0:0:0:
182,192,219714,1,0,0:0:0:0:
256,192,219714,1,0,0:0:0:0:
475,192,219803,1,0,0:0:0:0:
402,192,219803,1,0,0:0:0:0:
256,192,219891,1,0,0:0:0:0:
182,192,219891,1,0,0:0:0:0:
109,192,219891,1,0,0:0:0:0:
402,192,220067,1,0,0:0:0:0:
36,192,220067,1,0,0:0:0:0:
402,192,220244,1,0,0:0:0:0:
182,192,220244,1,0,0:0:0:0:
36,192,220420,1,0,0:0:0:0:
256,192,220420,1,0,0:0:0:0:
109,192,220420,1,0,0:0:0:0:
329,192,220420,1,0,0:0:0:0:
182,192,220597,1,0,0:0:0:0:
475,192,220597,1,0,0:0:0:0:
36,192,220773,1,0,0:0:0:0:
256,192,220773,1,0,0:0:0:0:
329,192,220773,1,0,0:0:0:0:
109,192,220773,1,0,0:0:0:0:
402,192,220861,1,0,0:0:0:0:
182,192,220950,1,0,0:0:0:0:
109,192,220950,1,0,0:0:0:0:
475,192,220950,1,0,0:0:0:0:
329,192,221126,1,0,0:0:0:0:
36,192,221126,1,0,0:0:0:0:
182,192,221302,1,0,0:0:0:0:
329,192,221302,1,0,0:0:0:0:
36,192,221479,1,0,0:0:0:0:
402,192,221479,1,0,0:0:0:0:
256,192,221479,1,0,0:0:0:0:
109,192,221479,1,0,0:0:0:0:
475,192,221655,1,0,0:0:0:0:
182,192,221655,1,0,0:0:0:0:
329,192,221832,1,0,0:0:0:0:
402,192,221832,1,0,0:0:0:0:
36,192,221832,1,0,0:0:0:0:
182,192,221920,1,0,0:0:0:0:
256,192,221920,1,0,0:0:0:0:
329,192,222008,1,0,0:0:0:0:
402,192,222008,1,0,0:0:0:0:
36,192,222008,1,0,0:0:0:0:
475,192,222185,1,0,0:0:0:0:
109,192,222185,1,0,0:0:0:0:
256,192,222361,1,0,0:0:0:0:
109,192,222361,1,0,0:0:0:0:
329,192,222538,1,0,0:0:0:0:
402,192,222538,1,0,0:0:0:0:
36,192,222538,1,0,0:0:0:0:
182,192,222538,1,0,0:0:0:0:
256,192,222714,1,0,0:0:0:0:
475,192,222714,1,0,0:0:0:0:
475,192,222891,1,0,0:0:0:0:
36,192,222891,1,0,0:0:0:0:
109,192,222979,1,0,0:0:0:0:
329,192,223067,1,0,0:0:0:0:
402,192,223067,1,0,0:0:0:0:
182,192,223067,1,0,0:0:0:0:
256,192,223243,1,0,0:0:0:0:
36,192,223243,1,0,0:0:0:0:
475,192,223419,1,0,0:0:0:0:
182,192,223419,1,0,0:0:0:0:
109,192,223419,1,0,0:0:0:0:
402,192,223419,1,0,0:0:0:0:
329,192,223596,1,0,0:0:0:0:
256,192,223596,1,0,0:0:0:0:
182,192,223772,1,0,0:0:0:0:
109,192,223772,1,0,0:0:0:0:
36,192,223772,1,0,0:0:0:0:
329,192,223861,1,0,0:0:0:0:
475,192,223861,1,0,0:0:0:0:
182,192,223949,1,0,0:0:0:0:
36,192,223949,1,0,0:0:0:0:
109,192,223949,1,0,0:0:0:0:
402,192,224125,1,0,0:0:0:0:
256,192,224125,1,0,0:0:0:0:
109,192,224302,1,0,0:0:0:0:
402,192,224302,1,0,0:0:0:0:
36,192,224478,1,0,0:0:0:0:
256,192,224478,1,0,0:0:0:0:
329,192,224478,1,0,0:0:0:0:
182,192,224478,1,0,0:0:0:0:
109,192,224655,1,0,0:0:0:0:
475,192,224655,1,0,0:0:0:0:
329,192,224831,1,0,0:0:0:0:
109,192,224831,1,0,0:0:0:0:
402,192,224919,1,0,0:0:0:0:
36,192,225008,1,0,0:0:0:0:
182,192,225008,1,0,0:0:0:0:
475,192,225008,1,0,0:0:0:0:
329,192,225184,1,0,0:0:0:0:
256,192,225184,1,0,0:0:0:0:
36,192,225360,1,0,0:0:0:0:
256,192,225360,1,0,0:0:0:0:
109,192,225537,1,0,0:0:0:0:
329,192,225537,1,0,0:0:0:0:
475,192,225537,1,0,0:0:0:0:
182,192,225537,1,0,0:0:0:0:
36,192,225713,1,0,0:0:0:0:
402,192,225713,1,0,0:0:0:0:
109,192,225890,1,0,0:0:0:0:
182,192,225890,1,0,0:0:0:0:
475,192,225890,1,0,0:0:0:0:
256,192,225978,1,0,0:0:0:0:
329,192,225978,1,0,0:0:0:0:
109,192,226066,1,0,0:0:0:0:
182,192,226066,1,0,0:0:0:0:
475,192,226066,1,0,0:0:0:0:
36,192,226243,1,0,0:0:0:0:
402,192,226243,1,0,0:0:0:0:
182,192,226419,1,0,0:0:0:0:
402,192,226419,1,0,0:0:0:0:
329,192,226596,1,0,0:0:0:0:
475,192,226596,1,0,0:0:0:0:
109,192,226596,1,0,0:0:0:0:
256,192,226596,1,0,0:0:0:0:
402,192,226772,1,0,0:0:0:0:
36,192,226772,1,0,0:0:0:0:
475,192,226949,1,0,0:0:0:0:
36,192,226949,1,0,0:0:0:0:
402,192,227037,1,0,0:0:0:0:
109,192,227125,1,0,0:0:0:0:
182,192,227125,1,0,0:0:0:0:
329,192,227125,1,0,0:0:0:0:
475,192,227301,1,0,0:0:0:0:
256,192,227301,1,0,0:0:0:0:
329,192,227477,1,0,0:0:0:0:
182,192,227477,1,0,0:0:0:0:
402,192,227477,1,0,0:0:0:0:
36,192,227477,1,0,0:0:0:0:
256,192,227654,1,0,0:0:0:0:
109,192,227654,1,0,0:0:0:0:
402,192,227830,1,0,0:0:0:0:
329,192,227830,1,0,0:0:0:0:
475,192,227830,1,0,0:0:0:0:
182,192,227919,1,0,0:0:0:0:
36,192,227919,1,0,0:0:0:0:
475,192,228007,1,0,0:0:0:0:
329,192,228007,1,0,0:0:0:0:
402,192,228007,1,0,0:0:0:0:
109,192,228183,1,0,0:0:0:0:
182,192,228183,1,0,0:0:0:0:
329,192,228360,1,0,0:0:0:0:
182,192,228360,1,0,0:0:0:0:
402,192,228536,1,0,0:0:0:0:
36,192,228536,1,0,0:0:0:0:
256,192,228536,1,0,0:0:0:0:
475,192,228536,1,0,0:0:0:0:
109,192,228713,1,0,0:0:0:0:
329,192,228713,1,0,0:0:0:0:
475,192,228889,1,0,0:0:0:0:
36,192,228889,1,0,0:0:0:0:
256,192,228889,1,0,0:0:0:0:
402,192,228889,1,0,0:0:0:0:
109,192,228977,1,0,0:0:0:0:
402,192,229066,1,0,0:0:0:0:
329,192,229066,1,0,0:0:0:0:
182,192,229066,1,0,0:0:0:0:
256,192,229242,1,0,0:0:0:0:
36,192,229242,1,0,0:0:0:0:
475,192,229418,1,0,0:0:0:0:
36,192,229418,1,0,0:0:0:0:
256,192,229595,1,0,0:0:0:0:
402,192,229595,1,0,0:0:0:0:
109,192,229595,1,0,0:0:0:0:
182,192,229595,1,0,0:0:0:0:
329,192,229771,1,0,0:0:0:0:
36,192,229771,1,0,0:0:0:0:
182,192,229948,1,0,0:0:0:0:
475,192,229948,1,0,0:0:0:0:
256,192,229948,1,0,0:0:0:0:
109,192,230036,1,0,0:0:0:0:
329,192,230036,1,0,0:0:0:0:
182,192,230124,1,0,0:0:0:0:
475,192,230124,1,0,0:0:0:0:
256,192,230124,1,0,0:0:0:0:
36,192,230301,1,0,0:0:0:0:
402,192,230301,1,0,0:0:0:0:
329,192,230477,1,0,0:0:0:0:
36,192,230477,1,0,0:0:0:0:
475,192,230654,1,0,0:0:0:0:
402,192,230654,1,0,0:0:0:0:
109,192,230654,1,0,0:0:0:0:
182,192,230654,1,0,0:0:0:0:
329,192,230830,1,0,0:0:0:0:
256,192,230830,1,0,0:0:0:0:
36,192,231007,1,0,0:0:0:0:
256,192,231007,1,0,0:0:0:0:
109,192,231095,1,0,0:0:0:0:
182,192,231183,1,0,0:0:0:0:
329,192,231183,1,0,0:0:0:0:
475,192,231183,1,0,0:0:0:0:
36,192,231359,1,0,0:0:0:0:
402,192,231359,1,0,0:0:0:0:
329,192,231535,1,0,0:0:0:0:
182,192,231535,1,0,0:0:0:0:
109,192,231535,1,0,0:0:0:0:
256,192,231535,1,0,0:0:0:0:
36,192,231712,1,0,0:0:0:0:
475,192,231712,1,0,0:0:0:0:
109,192,231888,1,0,0:0:0:0:
329,192,231888,1,0,0:0:0:0:
402,192,231888,1,0,0:0:0:0:
182,192,231977,1,0,0:0:0:0:
256,192,231977,1,0,0:0:0:0:
109,192,232065,1,0,0:0:0:0:
329,192,232065,1,0,0:0:0:0:
402,192,232065,1,0,0:0:0:0:
36,192,232241,1,0,0:0:0:0:
475,192,232241,1,0,0:0:0:0:
36,192,232418,1,0,0:0:0:0:
329,192,232418,1,0,0:0:0:0:
402,192,232594,1,0,0:0:0:0:
109,192,232594,1,0,0:0:0:0:
256,192,232594,1,0,0:0:0:0:
182,192,232594,1,0,0:0:0:0:
36,192,232771,1,0,0:0:0:0:
475,192,232771,1,0,0:0:0:0:
182,192,232947,1,0,0:0:0:0:
475,192,232947,1,0,0:0:0:0:
402,192,233035,1,0,0:0:0:0:
109,192,233124,1,0,0:0:0:0:
256,192,233124,1,0,0:0:0:0:
329,192,233124,1,0,0:0:0:0:
182,192,233300,1,0,0:0:0:0:
475,192,233300,1,0,0:0:0:0:
402,192,233476,1,0,0:0:0:0:
182,192,233476,1,0,0:0:0:0:
256,192,233653,1,0,0:0:0:0:
329,192,233653,1,0,0:0:0:0:
109,192,233653,1,0,0:0:0:0:
36,192,233653,1,0,0:0:0:0:
182,192,233829,1,0,0:0:0:0:
475,192,233829,1,0,0:0:0:0:
329,192,234006,1,0,0:0:0:0:
109,192,234006,1,0,0:0:0:0:
402,192,234006,1,0,0:0:0:0:
256,192,234094,1,0,0:0:0:0:
36,192,234094,1,0,0:0:0:0:
329,192,234182,1,0,0:0:0:0:
109,192,234182,1,0,0:0:0:0:
402,192,234182,1,0,0:0:0:0:
182,192,234359,1,0,0:0:0:0:
475,192,234359,1,0,0:0:0:0:
36,192,234535,1,0,0:0:0:0:
475,192,234535,1,0,0:0:0:0:
109,192,234712,1,0,0:0:0:0:
402,192,234712,1,0,0:0:0:0:
329,192,234712,1,0,0:0:0:0:
256,192,234712,1,0,0:0:0:0:
475,192,234888,1,0,0:0:0:0:
182,192,234888,1,0,0:0:0:0:
36,192,235065,1,0,0:0:0:0:
475,192,235065,1,0,0:0:0:0:
109,192,235153,1,0,0:0:0:0:
329,192,235241,1,0,0:0:0:0:
256,192,235241,1,0,0:0:0:0:
182,192,235241,1,0,0:0:0:0:
402,192,235417,1,0,0:0:0:0:
36,192,235417,1,0,0:0:0:0:
256,192,235593,1,0,0:0:0:0:
475,192,235593,1,0,0:0:0:0:
109,192,235593,1,0,0:0:0:0:
182,192,235593,1,0,0:0:0:0:
329,192,235770,1,0,0:0:0:0:
36,192,235770,1,0,0:0:0:0:
402,192,235946,1,0,0:0:0:0:
256,192,235946,1,0,0:0:0:0:
109,192,235946,1,0,0:0:0:0:
182,192,236035,1,0,0:0:0:0:
329,192,236035,1,0,0:0:0:0:
256,192,236123,1,0,0:0:0:0:
402,192,236123,1,0,0:0:0:0:
109,192,236123,1,0,0:0:0:0:
36,192,236299,1,0,0:0:0:0:
475,192,236299,1,0,0:0:0:0:
182,192,236476,1,0,0:0:0:0:
475,192,236476,1,0,0:0:0:0:
256,192,236652,1,0,0:0:0:0:
329,192,236652,1,0,0:0:0:0:
36,192,236652,1,0,0:0:0:0:
402,192,236652,1,0,0:0:0:0:
109,192,236829,1,0,0:0:0:0:
475,192,236829,1,0,0:0:0:0:
329,192,237005,1,0,0:0:0:0:
182,192,237005,1,0,0:0:0:0:
256,192,237005,1,0,0:0:0:0:
402,192,237005,1,0,0:0:0:0:
109,192,237093,1,0,0:0:0:0:
36,192,237182,1,0,0:0:0:0:
475,192,237182,1,0,0:0:0:0:
329,192,237182,1,0,0:0:0:0:
182,192,237358,1,0,0:0:0:0:
256,192,237358,1,0,0:0:0:0:
182,192,237534,1,0,0:0:0:0:
402,192,237534,1,0,0:0:0:0:
36,192,237711,1,0,0:0:0:0:
475,192,237711,1,0,0:0:0:0:
329,192,237711,1,0,0:0:0:0:
109,192,237887,1,0,0:0:0:0:
256,192,237887,1,0,0:0:0:0:
402,192,238064,1,0,0:0:0:0:
36,192,238064,1,0,0:0:0:0:
475,192,238064,1,0,0:0:0:0:
329,192,238152,1,0,0:0:0:0:
182,192,238152,1,0,0:0:0:0:
109,192,238240,1,0,0:0:0:0:
36,192,238240,1,0,0:0:0:0:
475,192,238240,1,0,0:0:0:0:
402,192,238417,1,0,0:0:0:0:
256,192,238417,1,0,0:0:0:0:
256,192,238593,1,0,0:0:0:0:
329,192,238770,1,0,0:0:0:0:
475,192,238770,1,0,0:0:0:0:
182,192,238770,1,0,0:0:0:0:
109,192,238946,1,0,0:0:0:0:
36,192,238946,1,0,0:0:0:0:
329,192,239123,1,0,0:0:0:0:
36,192,239123,1,0,0:0:0:0:
109,192,239211,1,0,0:0:0:0:
475,192,239299,1,0,0:0:0:0:
402,192,239299,1,0,0:0:0:0:
182,192,239299,1,0,0:0:0:0:
329,192,239475,1,0,0:0:0:0:
256,192,239475,1,0,0:0:0:0:
475,192,239651,1,0,0:0:0:0:
109,192,239651,1,0,0:0:0:0:
36,192,239651,1,0,0:0:0:0:
402,192,239828,1,0,0:0:0:0:
182,192,239828,1,0,0:0:0:0:
109,192,240004,1,0,0:0:0:0:
475,192,240004,1,0,0:0:0:0:
36,192,240004,1,0,0:0:0:0:
329,192,240093,1,0,0:0:0:0:
182,192,240093,1,0,0:0:0:0:
402,192,240181,1,0,0:0:0:0:
475,192,240181,1,0,0:0:0:0:
36,192,240181,1,0,0:0:0:0:
109,192,240357,1,0,0:0:0:0:
256,192,240357,1,0,0:0:0:0:
256,192,240534,1,0,0:0:0:0:
329,192,240710,1,0,0:0:0:0:
36,192,240710,1,0,0:0:0:0:
109,192,240710,1,0,0:0:0:0:
475,192,240887,1,0,0:0:0:0:
256,192,240887,1,0,0:0:0:0:
36,192,241063,1,0,0:0:0:0:
475,192,241063,1,0,0:0:0:0:
402,192,241151,1,0,0:0:0:0:
109,192,241240,1,0,0:0:0:0:
329,192,241240,1,0,0:0:0:0:
182,192,241240,1,0,0:0:0:0:
256,192,241416,1,0,0:0:0:0:
256,192,241592,1,0,0:0:0:0:
329,192,241769,1,0,0:0:0:0:
36,192,241769,1,0,0:0:0:0:
182,192,241945,1,0,0:0:0:0:
109,192,242122,1,0,0:0:0:0:
402,192,242122,1,0,0:0:0:0:
256,192,242210,1,0,0:0:0:0:
109,192,242298,1,0,0:0:0:0:
402,192,242298,1,0,0:0:0:0:
329,192,242475,1,0,0:0:0:0:
36,192,242651,1,0,0:0:0:0:
182,192,242828,1,0,0:0:0:0:
475,192,242828,1,0,0:0:0:0:
109,192,243004,1,0,0:0:0:0:
402,192,243181,1,0,0:0:0:0:
256,192,243357,5,0,0:0:0:0:
182,192,243533,1,0,0:0:0:0:
36,192,243709,1,0,0:0:0:0:
329,192,243886,1,0,0:0:0:0:
256,192,244062,1,0,0:0:0:0:
256,192,244239,1,0,0:0:0:0:
402,192,244415,1,0,0:0:0:0:
109,192,244592,1,0,0:0:0:0:
475,192,244768,1,0,0:0:0:0:
