osu file format v14

[General]
AudioFilename: audio.mp3
AudioLeadIn: 0
PreviewTime: 19590
Countdown: 0
SampleSet: Soft
StackLeniency: 0.3
Mode: 0
LetterboxInBreaks: 0
WidescreenStoryboard: 1

[Editor]
DistanceSpacing: 1
BeatDivisor: 2
GridSize: 8
TimelineZoom: 1.9

[Metadata]
Title:THE WORLD REVOLVING
TitleUnicode:THE WORLD REVOLVING
Artist:Toby Fox
ArtistUnicode:Toby Fox
Creator:ZinedineZidane
Version:Normal
Source:DELTARUNE
Tags:
BeatmapID:1942071
BeatmapSetID:929608

[Difficulty]
HPDrainRate:3
CircleSize:3
OverallDifficulty:5
ApproachRate:6
SliderMultiplier:1
SliderTickRate:1

[Events]
//Background and Video events
0,0,"deltarune.jpg",0,0
//Break Periods
//Storyboard Layer 0 (Background)
//Storyboard Layer 1 (Fail)
//Storyboard Layer 2 (Pass)
//Storyboard Layer 3 (Foreground)
//Storyboard Sound Samples

[TimingPoints]
12,315.789473684211,4,2,1,50,1,0
7590,-100,4,2,1,35,0,0
10117,-100,4,2,1,50,0,0
17696,-100,4,2,1,30,0,0
20143,-100,4,2,1,5,0,0
20222,-100,4,2,1,60,0,0
25275,-100,4,2,2,60,0,0
27801,-100,4,2,1,60,0,0
30327,-100,4,2,3,60,0,0
32854,-100,4,2,1,60,0,0
35380,-100,4,2,2,60,0,0
37906,-100,4,2,3,60,0,0
40433,-100,4,2,1,70,0,1
41064,-100,4,2,1,75,0,1
41696,-100,4,2,1,80,0,1
42327,-100,4,2,1,85,0,1
42959,-100,4,2,4,90,0,1
43117,-100,4,2,1,90,0,1
43275,-100,4,2,1,85,0,1
43590,-100,4,2,1,80,0,1
43906,-100,4,2,1,75,0,1
44222,-100,4,2,1,70,0,1
45485,-100,4,2,5,70,0,1
45643,-100,4,2,1,70,0,1
48012,-100,4,2,6,70,0,1
48169,-100,4,2,1,70,0,1
51169,-100,4,2,1,75,0,1
51801,-100,4,2,1,80,0,1
52433,-100,4,2,1,85,0,1
53064,-100,4,2,4,90,0,1
53222,-100,4,2,1,90,0,1
53380,-100,4,2,1,85,0,1
53696,-100,4,2,1,80,0,1
54012,-100,4,2,1,75,0,1
54327,-100,4,2,1,70,0,1
55590,-100,4,2,5,70,0,1
55748,-100,4,2,1,70,0,1
58117,-100,4,2,6,70,0,1
58275,-100,4,2,1,70,0,1
59380,-100,4,2,1,40,0,0
60564,-100,4,2,1,5,0,0
60643,-100,4,2,1,60,0,0
63169,-100,4,2,3,60,0,0
65696,-100,4,2,1,60,0,0
68222,-100,4,2,2,60,0,0
70748,-100,4,2,1,60,0,0
73275,-100,4,2,3,60,0,0
75801,-100,4,2,1,60,0,0
78327,-100,4,2,2,60,0,0
79590,-100,4,2,1,40,0,0
79827,-100,4,2,1,5,0,0
79906,-100,4,2,1,60,0,0
80143,-100,4,2,1,5,0,0
80222,-100,4,2,1,80,0,0
80459,-100,4,2,1,5,0,0
80538,-100,4,2,1,40,0,0
80775,-100,4,2,1,5,0,0
80854,-100,4,2,1,70,0,1
83380,-100,4,2,5,70,0,1
83538,-100,4,2,1,70,0,1
85906,-100,4,2,6,70,0,1
86064,-100,4,2,1,70,0,1
88433,-100,4,2,4,70,0,1
88590,-100,4,2,1,70,0,1
93485,-100,4,2,5,70,0,1
93643,-100,4,2,1,70,0,1
96012,-100,4,2,6,70,0,1
96169,-100,4,2,1,70,0,1
98538,-100,4,2,4,70,0,1
98696,-100,4,2,1,70,0,1
99801,-100,4,2,1,40,0,0

[HitObjects]
35,194,12,6,0,L|149:199,1,100,6|10,3:2|0:0,0:0:0:0:
219,250,643,2,0,L|318:244,1,100,2|8,3:0|0:0,0:0:0:0:
414,214,1275,2,0,P|386:172|338:146,1,100,0|10,3:0|0:0,0:0:0:0:
251,108,1906,2,0,L|151:113,1,100,2|8,3:0|0:0,0:0:0:0:
54,83,2538,6,0,P|101:26|174:15,2,150,2|2|10,3:0|0:0|0:0,0:0:0:0:
79,179,3801,2,0,L|69:296,1,100,2|10,3:0|0:0,0:0:0:0:
54,377,4433,2,0,L|153:368,1,100,2|10,3:0|0:0,0:0:0:0:
251,355,5064,6,0,P|262:306|263:256,1,100,2|10,3:0|0:0,0:0:0:0:
222,164,5696,2,0,P|223:114|233:65,1,100,2|8,3:0|0:0,0:0:0:0:
321,16,6327,2,0,B|361:19|361:19|413:82,1,100,0|10,3:0|0:0,0:0:0:0:
406,165,6959,2,0,B|367:211|367:211|327:214,1,100,2|8,3:0|0:0,0:0:0:0:
233,179,7590,6,0,P|234:254|296:309,2,150,2|2|10,3:0|0:0|0:0,0:0:0:0:
314,120,8854,2,0,B|270:141|242:122|242:122|213:103|170:120,1,150,2|2,3:0|0:0,0:0:0:0:
136,156,9485,2,0,L|126:313,1,150,2|8,3:0|0:0,0:0:0:0:
102,349,10117,6,0,B|150:337|150:337|200:340,1,100,6|10,3:2|0:0,0:0:0:0:
300,347,10748,2,0,B|349:349|349:349|398:337,1,100,2|8,3:0|0:0,0:0:0:0:
456,255,11380,2,0,B|407:242|407:242|357:245,1,100,0|10,3:0|0:0,0:0:0:0:
258,252,12011,2,0,B|208:254|208:254|159:242,1,100,2|8,3:0|0:0,0:0:0:0:
78,182,12643,6,0,B|62:109|62:109|97:41,2,150,2|2|10,3:0|0:0|0:0,0:0:0:0:
113,275,13906,2,0,P|168:232|175:189,1,100,2|10,3:0|0:0,0:0:0:0:
196,107,14538,2,0,P|215:61|258:37,1,100,2|10,3:0|0:0,0:0:0:0:
355,12,15169,6,0,L|351:132,1,100,2|10,3:0|0:0,0:0:0:0:
304,200,15801,2,0,L|308:320,1,100,2|8,3:0|0:0,0:0:0:0:
206,297,16433,2,0,L|202:177,1,100,0|10,3:0|0:0,0:0:0:0:
155,109,17065,2,0,L|159:-11,1,100,2|8,3:0|0:0,0:0:0:0:
256,192,17696,12,0,19590,0:0:0:0:
75,76,20222,6,0,P|64:124|65:174,1,100,6|2,3:1|3:0,0:0:0:0:
117,260,20854,2,0,P|165:249|222:251,2,100,0|2|0,3:0|3:0|3:0,0:0:0:0:
76,289,21643,1,10,0:0:0:0:
165,340,21959,1,10,0:0:0:0:
165,340,22117,2,0,P|214:340|263:329,1,100,2|2,3:0|3:0,0:0:0:0:
311,316,22590,6,0,B|338:312|364:325|364:325|345:280|361:229,1,150,10|2,0:0|3:0,0:0:0:0:
420,151,23380,2,0,P|440:82|438:41,2,100,0|2|0,3:0|3:0|3:0,0:0:0:0:
395,194,24169,1,10,0:0:0:0:
329,118,24485,1,10,0:0:0:0:
329,118,24643,2,0,P|281:105|231:103,1,100,2|2,3:0|3:0,0:0:0:0:
130,107,25275,6,0,P|85:113|32:147,1,100,6|2,3:2|3:0,0:0:0:0:
34,190,25748,2,0,B|44:339,1,150,10|2,0:0|3:0,0:0:0:0:
142,363,26538,2,0,P|191:349|252:347,1,100,2|2,3:0|3:0,0:0:0:0:
289,358,27012,2,0,P|338:354|386:341,1,100,10|8,0:0|0:0,0:0:0:0:
431,319,27485,1,2,3:0:0:0:
465,225,27801,6,0,P|415:219|369:236,1,100,6|0,3:2|3:0,0:0:0:0:
331,270,28275,2,0,P|284:252|235:258,1,100,10|8,0:0|0:0,0:0:0:0:
190,280,28748,1,2,3:0:0:0:
123,354,29064,2,0,P|91:288|118:212,1,150,2|10,3:0|0:0,0:0:0:0:
149,183,29696,1,2,3:0:0:0:
91,101,30012,1,2,3:0:0:0:
157,26,30327,6,0,L|261:37,1,100,6|2,3:2|3:0,0:0:0:0:
331,105,30959,2,0,P|354:61|352:11,2,100,0|2|0,3:0|3:0|3:0,0:0:0:0:
298,143,31748,1,10,0:2:0:0:
197,146,32064,1,10,0:0:0:0:
197,145,32222,2,0,P|206:193|244:231,1,100,2|2,3:0|3:0,0:0:0:0:
289,245,32696,6,0,B|328:247|348:233|348:233|364:275|422:291,1,150,10|2,0:0|3:0,0:0:0:0:
507,319,33485,2,0,P|510:269|489:225,2,100,0|2|0,3:0|3:0|3:0,0:0:0:0:
488,365,34275,1,10,0:0:0:0:
388,375,34590,1,10,0:0:0:0:
388,375,34748,2,0,L|261:368,1,100,2|2,3:0|3:0,0:0:0:0:
187,381,35380,6,0,P|192:332|221:293,1,100,6|2,3:2|3:0,0:0:0:0:
260,261,35854,2,0,P|267:187|239:118,1,150,10|2,0:0|3:0,0:0:0:0:
159,56,36643,2,0,P|196:24|244:16,1,100,2|2,3:0|3:0,0:0:0:0:
295,16,37117,2,0,P|343:23|380:56,1,100,10|8,0:0|0:0,0:0:0:0:
398,103,37590,1,2,3:0:0:0:
335,181,37906,6,0,P|317:229|326:280,1,100,6|0,3:2|3:0,0:0:0:0:
363,307,38380,2,0,P|413:298|453:264,1,100,10|8,0:0|0:0,0:0:0:0:
459,220,38854,1,2,3:0:0:0:
404,136,39169,2,0,B|360:115|332:134|332:134|303:153|260:136,1,150,2|10,3:0|0:0,0:0:0:0:
218,108,39801,1,2,3:0:0:0:
168,21,40117,1,2,3:0:0:0:
68,15,40433,6,0,P|59:61|78:120,1,100,6|2,3:1|3:0,0:0:0:0:
132,191,41064,1,2,3:1:0:0:
71,271,41380,1,2,3:0:0:0:
154,327,41696,2,0,L|272:322,1,100,2|2,3:1|3:0,0:0:0:0:
333,261,42327,1,2,3:1:0:0:
267,186,42643,1,2,3:0:0:0:
321,102,42959,6,0,P|331:54|319:6,1,100,6|2,3:2|3:0,0:0:0:0:
218,3,43590,2,0,P|205:51|215:99,1,100,2|2,3:0|3:0,0:0:0:0:
267,186,44222,1,2,3:0:0:0:
321,102,44538,1,2,3:0:0:0:
417,127,44854,2,0,P|433:173|428:223,1,100,2|2,3:0|3:0,0:0:0:0:
365,300,45485,6,0,P|316:296|266:298,1,100,6|2,3:2|3:0,0:0:0:0:
169,323,46117,2,0,P|119:325|69:320,1,100,2|2,3:0|3:0,0:0:0:0:
21,232,46748,1,2,3:0:0:0:
89,159,47064,1,2,3:0:0:0:
41,70,47380,2,0,P|88:58|139:70,1,100,2|2,3:0|3:0,0:0:0:0:
221,126,48012,6,0,L|352:116,1,100,6|2,3:2|3:0,0:0:0:0:
370,123,48485,1,10,0:0:0:0:
370,123,48643,2,0,L|384:268,1,100,2|2,3:0|3:0,0:0:0:0:
428,310,49275,2,0,B|472:272|472:272|462:180,1,150,2|10,3:0|0:0,0:0:0:0:
458,129,49906,2,0,B|451:81|451:81|415:45,1,100,2|0,3:0|3:0,0:0:0:0:
316,28,50538,6,0,L|216:34,1,100,6|2,3:1|3:0,0:0:0:0:
116,43,51169,1,2,3:1:0:0:
78,135,51485,1,2,3:0:0:0:
177,130,51801,2,0,L|276:123,1,100,2|2,3:1|3:0,0:0:0:0:
376,116,52433,1,2,3:1:0:0:
437,203,52749,1,2,3:0:0:0:
336,211,53065,6,0,L|237:218,1,100,6|2,3:2|3:0,0:0:0:0:
141,186,53696,2,0,P|136:235|158:281,1,100,2|2,3:0|3:0,0:0:0:0:
232,347,54327,1,2,3:0:0:0:
321,303,54643,1,2,3:0:0:0:
406,354,54959,2,0,P|420:307|411:259,1,100,2|2,3:0|3:0,0:0:0:0:
372,166,55590,6,0,P|357:118|366:70,1,100,6|2,3:2|3:0,0:0:0:0:
453,18,56222,2,0,P|467:65|458:113,1,100,2|2,3:0|3:0,0:0:0:0:
372,166,56854,1,2,3:0:0:0:
285,116,57169,1,2,3:0:0:0:
285,14,57485,2,0,P|236:10|187:19,1,100,2|2,3:0|3:0,0:0:0:0:
90,49,58117,6,0,L|97:148,1,100,6|2,3:2|3:0,0:0:0:0:
106,197,58590,1,10,0:0:0:0:
106,197,58748,2,0,L|220:191,1,100,2|2,3:0|3:0,0:0:0:0:
306,189,59380,1,2,0:0:0:0:
316,199,60012,1,2,0:0:0:0:
326,208,60643,6,0,P|367:121|301:31,2,200,6|0|0,3:1|3:0|3:0,0:0:0:0:
237,255,62222,1,2,3:0:0:0:
161,188,62538,2,0,P|154:113|179:43,1,150,2|10,3:0|0:0,0:0:0:0:
223,21,63169,2,0,L|353:35,1,100,4|2,3:2|3:0,0:0:0:0:
396,98,63801,2,0,P|419:54|415:4,2,100,0|2|0,3:0|3:0|3:0,0:0:0:0:
321,164,64748,1,2,3:0:0:0:
332,263,65064,1,2,3:0:0:0:
426,295,65380,1,2,3:0:0:0:
495,226,65696,6,0,P|403:199|332:263,2,200,6|0|0,3:2|3:0|3:0,0:0:0:0:
426,295,67275,1,2,3:0:0:0:
347,355,67590,2,0,P|275:341|240:277,1,150,2|10,3:0|0:0,0:0:0:0:
241,227,68222,2,0,P|254:179|244:130,1,100,4|2,3:2|3:0,0:0:0:0:
158,78,68854,2,0,P|144:125|154:174,1,100,0|2,3:0|3:0,0:0:0:0:
241,227,69485,1,2,3:0:0:0:
321,168,69801,1,2,3:0:0:0:
402,226,70117,1,2,3:0:0:0:
371,320,70433,1,2,3:0:0:0:
270,320,70748,6,0,B|216:303|180:347|180:347|157:299|100:295,2,200,6|0|0,3:2|3:0|3:0,0:0:0:0:
363,354,72327,1,2,3:0:0:0:
381,256,72643,2,0,P|315:219|241:210,1,150,2|10,3:0|0:0,0:0:0:0:
190,212,73275,2,0,P|141:204|100:178,1,100,4|2,3:2|3:0,0:0:0:0:
104,77,73906,2,0,P|52:87|13:127,2,100,0|2|0,3:0|3:0|3:0,0:0:0:0:
203,92,74854,1,2,3:0:0:0:
286,37,75169,1,2,3:0:0:0:
382,62,75485,1,2,3:0:0:0:
467,10,75801,6,0,P|473:107|387:164,2,200,6|0|0,3:2|3:0|3:0,0:0:0:0:
382,62,77380,1,2,3:0:0:0:
305,0,77696,2,0,P|283:73|316:137,1,150,2|10,3:0|0:0,0:0:0:0:
348,172,78327,2,0,P|380:209|385:258,1,100,4|2,3:2|3:0,0:0:0:0:
331,342,78959,2,0,P|298:304|293:255,1,100,0|2,3:0|3:0,0:0:0:0:
256,192,79590,12,6,80854,0:1:0:0:
256,192,81801,5,2,3:0:0:0:
305,278,82117,1,2,3:0:0:0:
353,195,82433,1,2,3:0:0:0:
302,111,82748,2,0,P|231:103|171:156,1,150,2|10,3:0|0:0,0:0:0:0:
147,193,83380,2,0,P|157:241|156:291,2,100,6|0|0,3:2|3:0|3:0,0:0:0:0:
87,112,84327,1,2,3:0:0:0:
126,20,84643,6,0,P|176:16|226:22,1,100,2|2,3:0|3:0,0:0:0:0:
317,64,85275,1,2,3:0:0:0:
399,8,85590,1,2,3:0:0:0:
484,71,85906,2,0,P|472:119|451:164,2,100,6|0|0,3:2|3:0|3:0,0:0:0:0:
399,8,86854,1,2,3:0:0:0:
317,64,87169,5,2,3:0:0:0:
352,162,87485,1,2,3:0:0:0:
451,164,87801,2,0,B|491:207|491:207|462:293,1,150,2|10,3:0|0:0,0:0:0:0:
435,335,88433,2,0,P|382:346|331:325,2,100,6|0|0,3:2|3:0|3:0,0:0:0:0:
391,244,89380,1,2,3:0:0:0:
310,184,89696,6,0,P|262:169|214:180,1,100,2|2,3:0|3:0,0:0:0:0:
138,245,90327,1,2,3:0:0:0:
49,198,90643,1,2,3:0:0:0:
54,97,90959,2,0,P|41:49|14:8,2,100,6|0|0,3:1|3:0|3:0,0:0:0:0:
139,152,91906,1,2,3:0:0:0:
190,66,92222,5,2,3:0:0:0:
275,118,92538,1,2,3:0:0:0:
352,55,92854,2,0,P|376:125|340:195,1,150,2|10,3:0|0:0,0:0:0:0:
300,216,93485,2,0,P|254:198|204:195,2,100,6|0|0,3:2|3:0|3:0,0:0:0:0:
369,288,94433,1,2,3:0:0:0:
293,349,94748,6,0,P|246:367|196:369,1,100,2|2,3:0|3:0,0:0:0:0:
98,349,95380,1,2,3:0:0:0:
163,273,95696,1,2,3:0:0:0:
100,195,96012,2,0,P|72:146|71:92,2,100,6|0|0,3:2|3:0|3:0,0:0:0:0:
198,176,96959,1,2,3:0:0:0:
246,88,97275,5,2,3:0:0:0:
305,167,97590,1,2,3:0:0:0:
363,86,97906,2,0,B|395:47|395:47|428:87|426:139,1,150,2|10,3:0|0:0,0:0:0:0:
427,189,98538,2,0,P|472:222|490:264,2,100,6|0|0,3:2|3:0|3:0,0:0:0:0:
327,180,99485,1,2,3:0:0:0:
237,223,99801,6,0,P|187:226|137:219,1,100,2|2,0:0|0:0,0:0:0:0:
53,165,100433,1,2,0:0:0:0:
142,118,100748,1,2,0:0:0:0:
57,64,101064,1,4,0:0:0:0:
