osu file format v14

[General]
AudioFilename: THE WORLD REVOLVING (Raytoly Arrange).ogg
AudioLeadIn: 0
PreviewTime: 17784
Countdown: 0
SampleSet: Normal
StackLeniency: 0.7
Mode: 1
LetterboxInBreaks: 0
WidescreenStoryboard: 1

[Editor]
DistanceSpacing: 0.75
BeatDivisor: 6
GridSize: 8
TimelineZoom: 1.200002

[Metadata]
Title:THE WORLD REVOLVING (Raytoly Arrange)
TitleUnicode:THE WORLD REVOLVING (Raytoly Arrange)
Artist:Toby Fox
ArtistUnicode:Toby Fox
Creator:Raytoly
Version:MUZUKASHII
Source:DELTARUNE
Tags:A_rise remix UNDERTALE Susie Ralsei Kris Jevil Chapter 1 ost soundtrack electronic instrumental video game
BeatmapID:3828043
BeatmapSetID:1861527

[Difficulty]
HPDrainRate:6
CircleSize:5
OverallDifficulty:5
ApproachRate:10
SliderMultiplier:1.4
SliderTickRate:1

[Events]
//Background and Video events
0,0,"deltarune.jpg",0,50
//Break Periods
//Storyboard Layer 0 (Background)
//Storyboard Layer 1 (Fail)
//Storyboard Layer 2 (Pass)
//Storyboard Layer 3 (Foreground)
//Storyboard Layer 4 (Overlay)
//Storyboard Sound Samples

[TimingPoints]
100,315.789473684211,4,1,0,80,1,0
100,-100,4,1,0,80,0,0
17784,-100,4,1,0,40,0,0
20310,-100,4,1,0,80,0,0
40521,-100,4,1,0,80,0,1
60731,-100,4,1,0,80,0,0
80942,-100,4,1,0,80,0,1
101152,-100,4,1,0,80,0,0

[HitObjects]
199,178,100,5,0,0:0:0:0:
285,167,415,1,0,0:0:0:0:
200,128,573,1,0,0:0:0:0:
197,178,731,1,8,0:0:0:0:
264,160,889,1,8,0:0:0:0:
208,80,1047,1,0,0:0:0:0:
197,178,1363,1,0,0:0:0:0:
286,166,1678,1,0,0:0:0:0:
208,80,1836,1,0,0:0:0:0:
197,178,1994,1,8,0:0:0:0:
248,96,2152,1,0,0:0:0:0:
286,166,2310,1,8,0:0:0:0:
240,128,2468,1,8,0:0:0:0:
197,178,2626,1,0,0:0:0:0:
200,56,3100,1,8,0:0:0:0:
208,152,3257,1,0,0:0:0:0:
200,56,3573,1,8,0:0:0:0:
199,178,3889,1,0,0:0:0:0:
176,128,4047,1,8,0:0:0:0:
168,160,4205,1,0,0:0:0:0:
226,138,4521,1,8,0:0:0:0:
176,128,4678,1,0,0:0:0:0:
168,160,4836,1,8,0:0:0:0:
199,178,5152,1,0,0:0:0:0:
226,138,5468,1,0,0:0:0:0:
168,160,5626,1,0,0:0:0:0:
199,178,5784,1,8,0:0:0:0:
208,120,5942,1,8,0:0:0:0:
168,160,6100,1,0,0:0:0:0:
199,178,6415,1,0,0:0:0:0:
251,127,6731,1,0,0:0:0:0:
168,160,6889,1,0,0:0:0:0:
199,178,7047,1,8,0:0:0:0:
208,120,7205,1,0,0:0:0:0:
251,127,7363,1,8,0:0:0:0:
208,120,7521,1,8,0:0:0:0:
199,178,7678,1,0,0:0:0:0:
352,144,8152,1,8,0:0:0:0:
352,144,8310,1,0,0:0:0:0:
352,144,8626,1,0,0:0:0:0:
249,125,8942,1,8,0:0:0:0:
176,120,9257,1,8,0:0:0:0:
168,160,9415,1,0,0:0:0:0:
251,130,9573,1,8,0:0:0:0:
168,160,9889,1,8,0:0:0:0:
249,125,10205,1,0,0:0:0:0:
223,169,10521,1,0,0:0:0:0:
264,136,10678,1,0,0:0:0:0:
258,126,10836,1,8,0:0:0:0:
208,136,10994,1,8,0:0:0:0:
264,136,11152,1,0,0:0:0:0:
258,126,11468,1,0,0:0:0:0:
223,169,11784,1,0,0:0:0:0:
264,136,11942,1,0,0:0:0:0:
215,78,12100,1,8,0:0:0:0:
208,136,12257,1,0,0:0:0:0:
223,169,12415,1,8,0:0:0:0:
208,136,12573,1,8,0:0:0:0:
215,78,12731,1,0,0:0:0:0:
272,144,13205,1,8,0:0:0:0:
272,144,13363,1,0,0:0:0:0:
272,144,13678,1,8,0:0:0:0:
226,93,13994,1,0,0:0:0:0:
256,136,14152,1,8,0:0:0:0:
265,136,14310,1,0,0:0:0:0:
265,136,14626,1,8,0:0:0:0:
256,136,14784,1,0,0:0:0:0:
265,136,14942,1,8,0:0:0:0:
226,93,15257,1,0,0:0:0:0:
230,149,15573,1,0,0:0:0:0:
240,104,15731,1,0,0:0:0:0:
226,93,15889,1,8,0:0:0:0:
224,144,16047,1,8,0:0:0:0:
240,104,16205,1,0,0:0:0:0:
226,93,16521,1,0,0:0:0:0:
232,149,16836,1,0,0:0:0:0:
240,104,16994,1,0,0:0:0:0:
226,93,17152,1,8,0:0:0:0:
224,144,17310,1,0,0:0:0:0:
232,149,17468,1,8,0:0:0:0:
224,144,17626,1,8,0:0:0:0:
226,93,17784,1,0,0:0:0:0:
224,171,19047,1,8,0:0:0:0:
232,110,20310,1,0,0:0:0:0:
204,143,20468,1,8,0:0:0:0:
185,144,20626,1,0,0:0:0:0:
235,126,20784,1,0,0:0:0:0:
192,136,20942,1,8,0:0:0:0:
200,128,21100,1,8,0:0:0:0:
232,110,21257,1,0,0:0:0:0:
235,131,21573,1,8,0:0:0:0:
235,131,21731,1,8,0:0:0:0:
232,110,21889,1,0,0:0:0:0:
204,143,22047,1,0,0:0:0:0:
195,37,22205,1,8,0:0:0:0:
248,152,22284,1,8,0:0:0:0:
248,152,22363,1,8,0:0:0:0:
226,123,22521,1,0,0:0:0:0:
226,123,22678,1,8,0:0:0:0:
238,111,22836,1,0,0:0:0:0:
320,144,23310,1,8,0:0:0:0:
320,144,23468,1,0,0:0:0:0:
205,132,23784,1,0,0:0:0:0:
280,272,23942,1,0,0:0:0:0:
222,105,24100,1,8,0:0:0:0:
304,128,24257,1,0,0:0:0:0:
205,132,24415,1,0,0:0:0:0:
205,132,24573,1,8,0:0:0:0:
302,92,24731,1,0,0:0:0:0:
184,168,24810,1,0,0:0:0:0:
216,168,24889,1,0,0:0:0:0:
302,92,25047,1,8,0:0:0:0:
302,92,25363,1,0,0:0:0:0:
223,134,25521,1,0,0:0:0:0:
223,134,25678,1,0,0:0:0:0:
253,125,25836,1,8,0:0:0:0:
272,160,26152,1,0,0:0:0:0:
184,112,26310,1,0,0:0:0:0:
253,125,26468,1,8,0:0:0:0:
216,147,26626,1,8,0:0:0:0:
200,96,26705,1,8,0:0:0:0:
200,96,26784,1,8,0:0:0:0:
231,101,26942,1,0,0:0:0:0:
216,136,27100,1,8,0:0:0:0:
221,153,27573,1,0,0:0:0:0:
272,264,27731,1,0,0:0:0:0:
221,153,27889,1,8,0:0:0:0:
276,127,28205,1,8,0:0:0:0:
276,127,28363,1,0,0:0:0:0:
312,144,28442,1,0,0:0:0:0:
312,144,28521,1,0,0:0:0:0:
161,114,28678,1,0,0:0:0:0:
176,119,28836,1,8,0:0:0:0:
312,144,28994,1,8,0:0:0:0:
201,122,29152,1,0,0:0:0:0:
246,159,29468,1,0,0:0:0:0:
246,159,29626,1,8,0:0:0:0:
224,152,29705,1,8,0:0:0:0:
201,122,29784,1,0,0:0:0:0:
232,110,30415,1,0,0:0:0:0:
204,143,30573,1,0,0:0:0:0:
185,144,30731,1,8,0:0:0:0:
183,120,30889,1,0,0:0:0:0:
192,136,31047,1,8,0:0:0:0:
200,128,31205,1,8,0:0:0:0:
232,110,31363,1,0,0:0:0:0:
235,131,31678,1,8,0:0:0:0:
235,131,31836,1,8,0:0:0:0:
232,110,31994,1,0,0:0:0:0:
204,143,32152,1,0,0:0:0:0:
195,37,32310,1,8,0:0:0:0:
248,152,32389,1,8,0:0:0:0:
248,152,32468,1,8,0:0:0:0:
226,123,32626,1,0,0:0:0:0:
226,123,32784,1,8,0:0:0:0:
238,111,32942,1,0,0:0:0:0:
320,144,33415,1,0,0:0:0:0:
320,144,33573,1,8,0:0:0:0:
205,132,33889,1,0,0:0:0:0:
272,264,34047,1,0,0:0:0:0:
222,105,34205,1,8,0:0:0:0:
304,128,34363,1,8,0:0:0:0:
205,132,34521,1,0,0:0:0:0:
205,132,34678,1,8,0:0:0:0:
302,92,34836,1,0,0:0:0:0:
184,168,34915,1,0,0:0:0:0:
216,168,34994,1,0,0:0:0:0:
302,92,35152,1,8,0:0:0:0:
302,92,35468,1,0,0:0:0:0:
223,134,35626,1,0,0:0:0:0:
223,134,35784,1,0,0:0:0:0:
253,125,35942,1,8,0:0:0:0:
272,160,36257,1,0,0:0:0:0:
184,112,36415,1,0,0:0:0:0:
253,125,36573,1,8,0:0:0:0:
216,147,36731,1,8,0:0:0:0:
200,96,36810,1,8,0:0:0:0:
200,96,36889,1,8,0:0:0:0:
231,101,37047,1,0,0:0:0:0:
216,136,37205,1,8,0:0:0:0:
221,153,37678,1,0,0:0:0:0:
272,264,37836,1,0,0:0:0:0:
221,153,37994,1,8,0:0:0:0:
276,127,38310,1,8,0:0:0:0:
276,127,38468,1,0,0:0:0:0:
312,144,38547,1,0,0:0:0:0:
312,144,38626,1,0,0:0:0:0:
161,114,38784,1,0,0:0:0:0:
176,119,38942,1,8,0:0:0:0:
312,144,39100,1,0,0:0:0:0:
201,122,39257,1,8,0:0:0:0:
246,159,39573,1,0,0:0:0:0:
246,159,39731,1,8,0:0:0:0:
224,152,39810,1,8,0:0:0:0:
201,122,39889,1,0,0:0:0:0:
236,120,40521,5,0,0:0:0:0:
256,112,40678,1,8,0:0:0:0:
256,72,40836,1,0,0:0:0:0:
256,72,40994,1,0,0:0:0:0:
264,72,41152,1,8,0:0:0:0:
264,72,41468,1,8,0:0:0:0:
256,112,41626,1,0,0:0:0:0:
278,168,41784,1,8,0:0:0:0:
176,120,41863,1,8,0:0:0:0:
264,72,41942,1,8,0:0:0:0:
278,168,42100,1,0,0:0:0:0:
264,72,42257,1,0,0:0:0:0:
278,168,42415,1,8,0:0:0:0:
288,120,42731,1,0,0:0:0:0:
288,120,42889,1,0,0:0:0:0:
243,96,43047,1,8,0:0:0:0:
264,72,43205,1,8,0:0:0:0:
296,120,43284,1,8,0:0:0:0:
296,120,43363,1,8,0:0:0:0:
264,72,43521,1,8,0:0:0:0:
243,96,43678,1,0,0:0:0:0:
243,96,43994,1,0,0:0:0:0:
208,88,44152,1,0,0:0:0:0:
243,96,44310,1,8,0:0:0:0:
208,120,44784,1,0,0:0:0:0:
243,96,44942,1,8,0:0:0:0:
216,56,45257,1,0,0:0:0:0:
216,56,45415,1,0,0:0:0:0:
243,96,45573,1,8,0:0:0:0:
264,160,45731,1,0,0:0:0:0:
184,96,45810,1,0,0:0:0:0:
136,120,45889,1,0,0:0:0:0:
248,152,46047,1,8,0:0:0:0:
243,96,46205,1,0,0:0:0:0:
243,96,46521,1,0,0:0:0:0:
208,64,46678,1,0,0:0:0:0:
243,96,46836,1,8,0:0:0:0:
192,64,46994,1,8,0:0:0:0:
264,160,47152,1,0,0:0:0:0:
208,64,47310,1,0,0:0:0:0:
243,96,47468,1,8,0:0:0:0:
256,120,47942,1,0,0:0:0:0:
243,96,48100,1,8,0:0:0:0:
200,64,48257,1,0,0:0:0:0:
243,96,48415,1,8,0:0:0:0:
256,120,48573,1,8,0:0:0:0:
243,96,48731,1,0,0:0:0:0:
243,96,49047,1,8,0:0:0:0:
200,64,49205,1,0,0:0:0:0:
243,96,49363,1,8,0:0:0:0:
224,136,49521,1,8,0:0:0:0:
243,96,49678,1,0,0:0:0:0:
256,120,49836,1,8,0:0:0:0:
224,136,49915,1,8,0:0:0:0:
243,96,49994,1,0,0:0:0:0:
236,120,50626,5,0,0:0:0:0:
256,112,50784,1,8,0:0:0:0:
256,72,50942,1,8,0:0:0:0:
256,72,51100,1,0,0:0:0:0:
264,72,51257,1,8,0:0:0:0:
264,72,51573,1,8,0:0:0:0:
256,112,51731,1,0,0:0:0:0:
278,168,51889,1,8,0:0:0:0:
256,96,51968,1,8,0:0:0:0:
264,72,52047,1,8,0:0:0:0:
278,168,52205,1,0,0:0:0:0:
264,72,52363,1,0,0:0:0:0:
278,168,52521,1,8,0:0:0:0:
288,120,52836,1,0,0:0:0:0:
288,120,52994,1,0,0:0:0:0:
243,96,53152,1,8,0:0:0:0:
264,72,53310,1,8,0:0:0:0:
296,120,53389,1,8,0:0:0:0:
296,120,53468,1,8,0:0:0:0:
264,72,53626,1,8,0:0:0:0:
243,96,53784,1,0,0:0:0:0:
243,96,54100,1,0,0:0:0:0:
208,88,54257,1,0,0:0:0:0:
243,96,54415,1,8,0:0:0:0:
176,120,54889,1,0,0:0:0:0:
243,96,55047,1,8,0:0:0:0:
216,56,55363,1,0,0:0:0:0:
216,56,55521,1,0,0:0:0:0:
243,96,55678,1,8,0:0:0:0:
264,160,55836,1,0,0:0:0:0:
184,96,55915,1,0,0:0:0:0:
136,120,55994,1,0,0:0:0:0:
248,152,56152,1,8,0:0:0:0:
243,96,56310,1,0,0:0:0:0:
243,96,56626,1,8,0:0:0:0:
208,64,56784,1,0,0:0:0:0:
272,136,56942,1,8,0:0:0:0:
200,144,57100,1,8,0:0:0:0:
264,160,57257,1,0,0:0:0:0:
208,64,57415,1,0,0:0:0:0:
243,96,57573,1,8,0:0:0:0:
256,120,58047,1,0,0:0:0:0:
243,96,58205,1,8,0:0:0:0:
200,64,58363,1,8,0:0:0:0:
243,96,58521,1,0,0:0:0:0:
256,120,58678,1,0,0:0:0:0:
243,96,58836,1,8,0:0:0:0:
243,96,59152,1,8,0:0:0:0:
200,64,59310,1,0,0:0:0:0:
243,96,59468,1,8,0:0:0:0:
224,136,59626,1,0,0:0:0:0:
243,96,59784,1,0,0:0:0:0:
256,120,59942,1,8,0:0:0:0:
224,136,60021,1,8,0:0:0:0:
243,96,60100,5,0,0:0:0:0:
161,148,60731,5,0,0:0:0:0:
272,96,61205,1,8,0:0:0:0:
216,120,61363,1,0,0:0:0:0:
240,184,61521,1,0,0:0:0:0:
216,120,61678,1,8,0:0:0:0:
216,120,61994,1,0,0:0:0:0:
216,120,62152,1,8,0:0:0:0:
216,120,62310,1,0,0:0:0:0:
216,120,62468,1,0,0:0:0:0:
253,140,62626,1,8,0:0:0:0:
208,168,62784,1,0,0:0:0:0:
253,140,62942,1,8,0:0:0:0:
216,120,63100,1,8,0:0:0:0:
253,140,63257,1,0,0:0:0:0:
336,144,63573,1,8,0:0:0:0:
352,168,63731,1,0,0:0:0:0:
216,120,63889,1,8,0:0:0:0:
216,120,64205,1,0,0:0:0:0:
240,184,64363,1,8,0:0:0:0:
216,120,64521,1,0,0:0:0:0:
216,120,64678,1,8,0:0:0:0:
216,120,64836,1,8,0:0:0:0:
216,120,64994,1,0,0:0:0:0:
253,140,65152,1,8,0:0:0:0:
320,208,65310,1,8,0:0:0:0:
256,160,65468,1,0,0:0:0:0:
248,160,65547,1,0,0:0:0:0:
216,120,65626,1,0,0:0:0:0:
253,140,65784,1,8,0:0:0:0:
272,96,66257,1,8,0:0:0:0:
216,120,66415,1,0,0:0:0:0:
272,200,66573,1,0,0:0:0:0:
216,120,66731,1,8,0:0:0:0:
216,120,67047,1,0,0:0:0:0:
216,120,67205,1,8,0:0:0:0:
216,120,67363,1,8,0:0:0:0:
216,120,67521,1,0,0:0:0:0:
253,140,67678,1,8,0:0:0:0:
208,168,67836,1,0,0:0:0:0:
253,140,67994,1,8,0:0:0:0:
216,120,68152,1,8,0:0:0:0:
253,140,68310,1,0,0:0:0:0:
336,144,68626,1,8,0:0:0:0:
352,168,68784,1,0,0:0:0:0:
216,120,68942,1,8,0:0:0:0:
216,120,69257,1,0,0:0:0:0:
144,160,69415,1,8,0:0:0:0:
160,144,69494,1,8,0:0:0:0:
216,120,69573,1,8,0:0:0:0:
216,120,69731,1,0,0:0:0:0:
216,120,69889,1,8,0:0:0:0:
216,120,70047,1,0,0:0:0:0:
253,140,70205,1,8,0:0:0:0:
320,208,70363,1,8,0:0:0:0:
253,140,70521,1,0,0:0:0:0:
216,120,70678,1,0,0:0:0:0:
253,140,70836,1,8,0:0:0:0:
272,96,71310,1,8,0:0:0:0:
216,120,71468,1,0,0:0:0:0:
248,160,71626,1,0,0:0:0:0:
216,120,71784,1,8,0:0:0:0:
216,120,72100,1,0,0:0:0:0:
216,120,72257,1,8,0:0:0:0:
216,120,72415,1,0,0:0:0:0:
216,120,72573,1,0,0:0:0:0:
253,140,72731,1,8,0:0:0:0:
208,168,72889,1,0,0:0:0:0:
253,140,73047,1,8,0:0:0:0:
216,120,73205,1,8,0:0:0:0:
253,140,73363,1,0,0:0:0:0:
336,144,73678,1,8,0:0:0:0:
352,168,73836,1,0,0:0:0:0:
216,120,73994,1,8,0:0:0:0:
216,120,74310,1,0,0:0:0:0:
270,202,74468,1,0,0:0:0:0:
216,120,74626,1,8,0:0:0:0:
216,120,74784,1,0,0:0:0:0:
216,120,74942,1,8,0:0:0:0:
216,120,75100,1,8,0:0:0:0:
253,140,75257,1,0,0:0:0:0:
320,208,75415,1,8,0:0:0:0:
253,140,75573,1,0,0:0:0:0:
224,144,75652,1,0,0:0:0:0:
216,120,75731,1,0,0:0:0:0:
253,140,75889,1,8,0:0:0:0:
272,96,76363,1,8,0:0:0:0:
216,120,76521,1,0,0:0:0:0:
270,202,76678,1,0,0:0:0:0:
216,120,76836,1,8,0:0:0:0:
216,120,77152,1,0,0:0:0:0:
216,120,77310,1,8,0:0:0:0:
216,120,77468,1,8,0:0:0:0:
216,120,77626,1,0,0:0:0:0:
253,140,77784,1,8,0:0:0:0:
208,168,77942,1,0,0:0:0:0:
253,140,78100,1,8,0:0:0:0:
216,120,78257,1,8,0:0:0:0:
253,140,78415,1,0,0:0:0:0:
336,144,78731,1,8,0:0:0:0:
352,168,78889,1,0,0:0:0:0:
216,120,79047,1,8,0:0:0:0:
216,120,79363,1,0,0:0:0:0:
144,160,79521,1,8,0:0:0:0:
160,144,79600,1,8,0:0:0:0:
216,120,79678,1,8,0:0:0:0:
216,120,79836,1,0,0:0:0:0:
216,120,79994,1,8,0:0:0:0:
216,120,80152,1,0,0:0:0:0:
253,140,80310,1,8,0:0:0:0:
320,208,80468,1,0,0:0:0:0:
253,140,80626,1,8,0:0:0:0:
216,120,80784,1,8,0:0:0:0:
253,140,80942,1,0,0:0:0:0:
296,184,81415,1,8,0:0:0:0:
232,128,81573,5,0,0:0:0:0:
159,109,81889,1,8,0:0:0:0:
232,128,82047,1,8,0:0:0:0:
300,149,82205,1,0,0:0:0:0:
288,112,82363,1,0,0:0:0:0:
300,149,82521,1,8,0:0:0:0:
288,112,82678,1,0,0:0:0:0:
232,128,82836,1,8,0:0:0:0:
128,152,82915,1,8,0:0:0:0:
232,128,82994,1,8,0:0:0:0:
232,128,83152,1,0,0:0:0:0:
232,128,83310,1,8,0:0:0:0:
300,142,83468,1,0,0:0:0:0:
144,144,83784,1,8,0:0:0:0:
312,184,83942,1,8,0:0:0:0:
408,134,84100,1,0,0:0:0:0:
408,134,84415,1,8,0:0:0:0:
280,128,84573,1,8,0:0:0:0:
408,134,84731,1,0,0:0:0:0:
240,152,84889,1,0,0:0:0:0:
280,128,85047,1,8,0:0:0:0:
136,80,85205,1,0,0:0:0:0:
136,80,85363,1,8,0:0:0:0:
304,144,85442,1,8,0:0:0:0:
136,80,85521,1,8,0:0:0:0:
136,80,85678,1,0,0:0:0:0:
136,80,85836,1,0,0:0:0:0:
136,80,85994,1,8,0:0:0:0:
296,184,86468,1,8,0:0:0:0:
232,128,86626,5,0,0:0:0:0:
159,109,86942,1,8,0:0:0:0:
232,128,87100,1,0,0:0:0:0:
300,149,87257,1,8,0:0:0:0:
288,112,87415,1,8,0:0:0:0:
300,149,87573,1,0,0:0:0:0:
288,112,87731,1,0,0:0:0:0:
232,128,87889,1,8,0:0:0:0:
128,152,87968,1,8,0:0:0:0:
232,128,88047,1,8,0:0:0:0:
232,128,88205,1,0,0:0:0:0:
232,128,88363,1,8,0:0:0:0:
300,142,88521,1,0,0:0:0:0:
144,144,88836,1,8,0:0:0:0:
312,184,88994,1,8,0:0:0:0:
408,134,89152,1,0,0:0:0:0:
408,134,89468,1,8,0:0:0:0:
280,128,89626,1,0,0:0:0:0:
408,134,89784,1,8,0:0:0:0:
240,152,89942,1,8,0:0:0:0:
280,128,90100,1,0,0:0:0:0:
136,80,90257,1,0,0:0:0:0:
136,80,90415,1,8,0:0:0:0:
304,144,90494,1,8,0:0:0:0:
136,80,90573,1,8,0:0:0:0:
136,80,90731,1,0,0:0:0:0:
136,80,90889,1,0,0:0:0:0:
136,80,91047,1,8,0:0:0:0:
296,184,91521,1,8,0:0:0:0:
232,128,91678,5,0,0:0:0:0:
159,109,91994,1,8,0:0:0:0:
232,128,92152,1,8,0:0:0:0:
300,149,92310,1,0,0:0:0:0:
288,112,92468,1,8,0:0:0:0:
300,149,92626,1,0,0:0:0:0:
288,112,92784,1,0,0:0:0:0:
232,128,92942,1,8,0:0:0:0:
128,152,93021,1,8,0:0:0:0:
232,128,93100,1,8,0:0:0:0:
232,128,93257,1,0,0:0:0:0:
232,128,93415,1,8,0:0:0:0:
300,142,93573,1,0,0:0:0:0:
144,144,93889,1,8,0:0:0:0:
312,184,94047,1,8,0:0:0:0:
408,134,94205,1,0,0:0:0:0:
408,134,94521,1,8,0:0:0:0:
280,128,94678,1,8,0:0:0:0:
408,134,94836,1,0,0:0:0:0:
240,152,94994,1,8,0:0:0:0:
280,128,95152,1,0,0:0:0:0:
136,80,95310,1,0,0:0:0:0:
136,80,95468,1,8,0:0:0:0:
304,144,95547,1,8,0:0:0:0:
136,80,95626,1,8,0:0:0:0:
136,80,95784,1,0,0:0:0:0:
136,80,95942,1,0,0:0:0:0:
136,80,96100,1,8,0:0:0:0:
296,184,96573,1,8,0:0:0:0:
232,128,96731,5,0,0:0:0:0:
159,109,97047,1,8,0:0:0:0:
232,128,97205,1,0,0:0:0:0:
300,149,97363,1,8,0:0:0:0:
288,112,97521,1,8,0:0:0:0:
300,149,97678,1,8,0:0:0:0:
288,112,97836,1,0,0:0:0:0:
232,128,97994,1,8,0:0:0:0:
128,152,98073,1,8,0:0:0:0:
232,128,98152,1,8,0:0:0:0:
232,128,98310,1,0,0:0:0:0:
232,128,98468,1,8,0:0:0:0:
300,142,98626,1,0,0:0:0:0:
144,144,98942,1,8,0:0:0:0:
312,184,99100,1,8,0:0:0:0:
408,134,99257,1,0,0:0:0:0:
408,134,99573,1,8,0:0:0:0:
280,128,99731,1,0,0:0:0:0:
408,134,99889,1,8,0:0:0:0:
240,152,100047,1,8,0:0:0:0:
280,128,100205,1,8,0:0:0:0:
136,80,100363,1,0,0:0:0:0:
136,80,100521,1,8,0:0:0:0:
304,144,100600,1,8,0:0:0:0:
136,80,100678,1,8,0:0:0:0:
136,80,100836,1,0,0:0:0:0:
136,80,100994,1,8,0:0:0:0:
136,80,101152,1,0,0:0:0:0:
