osu file format v14

[General]
AudioFilename: THE WORLD REVOLVING (Raytoly Arrange).ogg
AudioLeadIn: 0
PreviewTime: 17784
Countdown: 0
SampleSet: Normal
StackLeniency: 0.7
Mode: 1
LetterboxInBreaks: 0
WidescreenStoryboard: 1

[Editor]
DistanceSpacing: 0.75
BeatDivisor: 1
GridSize: 8
TimelineZoom: 0.7000018

[Metadata]
Title:THE WORLD REVOLVING (Raytoly Arrange)
TitleUnicode:THE WORLD REVOLVING (Raytoly Arrange)
Artist:Toby Fox
ArtistUnicode:Toby Fox
Creator:Raytoly
Version:KANTAN
Source:DELTARUNE
Tags:A_rise remix UNDERTALE Susie Ralsei Kris Jevil Chapter 1 ost soundtrack electronic instrumental video game
BeatmapID:3828007
BeatmapSetID:1861527

[Difficulty]
HPDrainRate:7
CircleSize:5
OverallDifficulty:3
ApproachRate:10
SliderMultiplier:1
SliderTickRate:1

[Events]
//Background and Video events
0,0,"deltarune.jpg",0,50
//Break Periods
//Storyboard Layer 0 (Background)
//Storyboard Layer 1 (Fail)
//Storyboard Layer 2 (Pass)
//Storyboard Layer 3 (Foreground)
//Storyboard Layer 4 (Overlay)
//Storyboard Sound Samples

[TimingPoints]
100,315.789473684211,4,1,0,80,1,0
100,-100,4,1,0,80,0,0
17784,-100,4,1,0,40,0,0
20310,-100,4,1,0,80,0,0
40521,-100,4,1,0,80,0,1
60731,-100,4,1,0,80,0,0
80942,-100,4,1,0,80,0,1
101152,-100,4,1,0,80,0,0

[HitObjects]
199,178,100,5,0,0:0:0:0:
197,178,731,1,8,0:0:0:0:
197,178,1363,1,0,0:0:0:0:
197,178,1994,1,8,0:0:0:0:
197,178,2626,1,0,0:0:0:0:
199,178,3889,1,0,0:0:0:0:
199,178,5152,1,0,0:0:0:0:
199,178,5784,1,8,0:0:0:0:
199,178,6415,1,0,0:0:0:0:
199,178,7047,1,8,0:0:0:0:
199,178,7678,1,0,0:0:0:0:
249,125,8942,1,8,0:0:0:0:
249,125,10205,1,0,0:0:0:0:
258,126,10836,1,8,0:0:0:0:
258,126,11468,1,0,0:0:0:0:
215,78,12100,1,8,0:0:0:0:
215,78,12731,1,0,0:0:0:0:
226,93,13994,1,0,0:0:0:0:
226,93,15257,1,0,0:0:0:0:
226,93,15889,1,8,0:0:0:0:
226,93,16521,1,0,0:0:0:0:
226,93,17152,1,8,0:0:0:0:
226,93,17784,1,0,0:0:0:0:
232,110,20310,1,0,0:0:0:0:
151,91,20942,1,8,0:0:0:0:
232,110,21257,1,0,0:0:0:0:
232,110,21889,1,0,0:0:0:0:
195,37,22205,1,8,0:0:0:0:
238,111,22836,1,0,0:0:0:0:
222,105,24100,1,8,0:0:0:0:
302,92,24731,1,0,0:0:0:0:
302,92,25047,1,8,0:0:0:0:
302,92,25363,1,0,0:0:0:0:
302,92,25994,1,8,0:0:0:0:
216,147,26626,1,0,0:0:0:0:
231,101,26942,1,8,0:0:0:0:
221,153,27573,1,8,0:0:0:0:
221,153,27889,1,0,0:0:0:0:
161,114,28521,1,0,0:0:0:0:
176,119,28836,1,0,0:0:0:0:
201,122,29152,1,8,0:0:0:0:
201,122,29784,1,8,0:0:0:0:
236,120,30415,1,0,0:0:0:0:
151,91,31047,1,8,0:0:0:0:
232,110,31363,1,0,0:0:0:0:
232,110,31994,1,0,0:0:0:0:
195,37,32310,1,8,0:0:0:0:
238,111,32942,1,0,0:0:0:0:
222,105,34205,1,8,0:0:0:0:
302,92,34836,1,0,0:0:0:0:
302,92,35152,1,0,0:0:0:0:
302,92,35468,1,8,0:0:0:0:
302,92,36100,1,8,0:0:0:0:
216,147,36731,1,0,0:0:0:0:
231,101,37047,1,8,0:0:0:0:
221,153,37678,1,8,0:0:0:0:
221,153,37994,1,0,0:0:0:0:
161,114,38626,1,8,0:0:0:0:
176,119,38942,1,0,0:0:0:0:
201,122,39257,1,8,0:0:0:0:
201,122,39889,1,8,0:0:0:0:
236,120,40521,1,0,0:0:0:0:
278,168,41784,1,0,0:0:0:0:
278,168,42100,1,0,0:0:0:0:
278,168,42415,1,8,0:0:0:0:
243,96,43047,1,8,0:0:0:0:
243,96,43678,1,8,0:0:0:0:
243,96,43994,1,8,0:0:0:0:
243,96,44310,1,0,0:0:0:0:
243,96,44942,1,0,0:0:0:0:
243,96,45573,1,8,0:0:0:0:
243,96,46205,1,0,0:0:0:0:
243,96,46521,1,0,0:0:0:0:
243,96,46836,1,8,0:0:0:0:
243,96,47468,1,8,0:0:0:0:
243,96,48100,1,8,0:0:0:0:
243,96,48415,1,8,0:0:0:0:
243,96,48731,1,0,0:0:0:0:
243,96,49047,1,8,0:0:0:0:
243,96,49363,1,0,0:0:0:0:
243,96,49994,1,8,0:0:0:0:
162,172,50626,1,0,0:0:0:0:
278,168,51889,1,0,0:0:0:0:
278,168,52205,1,0,0:0:0:0:
278,168,52521,1,8,0:0:0:0:
243,96,53152,1,8,0:0:0:0:
243,96,53784,1,8,0:0:0:0:
243,96,54100,1,0,0:0:0:0:
243,96,54415,1,8,0:0:0:0:
243,96,55047,1,0,0:0:0:0:
243,96,55678,1,8,0:0:0:0:
243,96,56310,1,0,0:0:0:0:
243,96,56626,1,0,0:0:0:0:
243,96,56942,1,8,0:0:0:0:
243,96,57573,1,8,0:0:0:0:
243,96,58205,1,8,0:0:0:0:
243,96,58521,1,8,0:0:0:0:
243,96,58836,1,0,0:0:0:0:
243,96,59152,1,0,0:0:0:0:
243,96,59468,1,0,0:0:0:0:
243,96,60100,1,8,0:0:0:0:
161,148,60731,1,0,0:0:0:0:
253,140,61994,1,0,0:0:0:0:
253,140,62626,1,8,0:0:0:0:
253,140,62942,1,8,0:0:0:0:
253,140,63257,1,0,0:0:0:0:
253,140,63889,1,8,0:0:0:0:
253,140,64521,1,0,0:0:0:0:
221,109,64836,1,8,0:0:0:0:
253,140,65152,1,0,0:0:0:0:
253,140,65784,1,8,0:0:0:0:
255,84,67047,1,8,0:0:0:0:
255,84,67678,1,8,0:0:0:0:
255,84,67994,1,0,0:0:0:0:
255,84,68310,1,8,0:0:0:0:
255,84,68942,1,0,0:0:0:0:
255,84,69573,1,0,0:0:0:0:
255,84,69889,1,8,0:0:0:0:
255,84,70205,1,8,0:0:0:0:
255,84,70521,1,0,0:0:0:0:
255,84,70836,1,8,0:0:0:0:
253,140,72100,1,0,0:0:0:0:
253,140,72731,1,8,0:0:0:0:
253,140,73047,1,8,0:0:0:0:
253,140,73363,1,0,0:0:0:0:
253,140,73994,1,8,0:0:0:0:
253,140,74626,1,0,0:0:0:0:
221,109,74942,1,0,0:0:0:0:
253,140,75257,1,8,0:0:0:0:
253,140,75889,1,0,0:0:0:0:
255,84,77152,1,8,0:0:0:0:
255,84,77784,1,8,0:0:0:0:
255,84,78100,1,0,0:0:0:0:
255,84,78415,1,8,0:0:0:0:
255,84,79047,1,0,0:0:0:0:
255,84,79678,1,8,0:0:0:0:
255,84,79994,1,0,0:0:0:0:
255,84,80310,1,8,0:0:0:0:
255,84,80626,1,8,0:0:0:0:
255,84,80942,1,0,0:0:0:0:
159,109,81889,1,0,0:0:0:0:
300,149,82205,1,8,0:0:0:0:
300,149,82521,1,8,0:0:0:0:
300,142,82836,1,0,0:0:0:0:
300,142,83468,1,8,0:0:0:0:
408,134,84100,1,0,0:0:0:0:
408,134,84415,1,0,0:0:0:0:
408,134,84731,1,8,0:0:0:0:
408,134,85047,1,0,0:0:0:0:
408,134,85363,1,8,0:0:0:0:
408,134,85678,1,8,0:0:0:0:
408,134,85994,1,0,0:0:0:0:
417,137,86942,1,0,0:0:0:0:
417,137,87257,1,8,0:0:0:0:
417,137,87573,1,0,0:0:0:0:
417,137,87889,1,8,0:0:0:0:
417,137,88521,1,8,0:0:0:0:
263,168,89152,1,0,0:0:0:0:
263,168,89468,1,8,0:0:0:0:
263,168,89784,1,0,0:0:0:0:
263,168,90100,1,0,0:0:0:0:
263,168,90415,1,8,0:0:0:0:
263,168,90731,1,8,0:0:0:0:
263,168,91047,1,0,0:0:0:0:
279,163,91994,1,8,0:0:0:0:
279,163,92310,1,0,0:0:0:0:
279,163,92626,1,0,0:0:0:0:
279,163,92942,1,8,0:0:0:0:
279,163,93573,1,8,0:0:0:0:
279,163,94205,1,0,0:0:0:0:
293,152,94521,1,8,0:0:0:0:
293,152,94836,1,8,0:0:0:0:
293,152,95152,1,0,0:0:0:0:
293,152,95468,1,8,0:0:0:0:
293,152,95784,1,8,0:0:0:0:
293,152,96100,1,0,0:0:0:0:
300,147,97047,1,8,0:0:0:0:
300,147,97363,1,8,0:0:0:0:
300,147,97678,1,0,0:0:0:0:
300,147,97994,1,8,0:0:0:0:
300,147,98626,1,8,0:0:0:0:
208,129,99257,1,0,0:0:0:0:
213,129,99573,1,0,0:0:0:0:
214,129,99889,1,8,0:0:0:0:
214,129,100205,1,8,0:0:0:0:
213,129,100521,1,8,0:0:0:0:
214,129,100836,1,8,0:0:0:0:
214,129,101152,1,0,0:0:0:0:
