osu file format v14

[General]
AudioFilename: THE WORLD REVOLVING (Raytoly Arrange).ogg
AudioLeadIn: 0
PreviewTime: 17784
Countdown: 0
SampleSet: Normal
StackLeniency: 0.7
Mode: 1
LetterboxInBreaks: 0
WidescreenStoryboard: 1

[Editor]
DistanceSpacing: 0.75
BeatDivisor: 3
GridSize: 8
TimelineZoom: 1.800002

[Metadata]
Title:THE WORLD REVOLVING (Raytoly Arrange)
TitleUnicode:THE WORLD REVOLVING (Raytoly Arrange)
Artist:Toby Fox
ArtistUnicode:Toby Fox
Creator:Raytoly
Version:INNER ONI
Source:DELTARUNE
Tags:A_rise remix UNDERTALE Susie Ralsei Kris Jevil Chapter 1 ost soundtrack electronic instrumental video game
BeatmapID:3828480
BeatmapSetID:1861527

[Difficulty]
HPDrainRate:5
CircleSize:5
OverallDifficulty:6
ApproachRate:10
SliderMultiplier:1.4
SliderTickRate:1

[Events]
//Background and Video events
0,0,"deltarune.jpg",0,50
//Break Periods
//Storyboard Layer 0 (Background)
//Storyboard Layer 1 (Fail)
//Storyboard Layer 2 (Pass)
//Storyboard Layer 3 (Foreground)
//Storyboard Layer 4 (Overlay)
//Storyboard Sound Samples

[TimingPoints]
100,315.789473684211,4,1,0,80,1,0
100,-95.2380952380952,4,1,0,80,0,0
17784,-95.2380952380952,4,1,0,40,0,0
20310,-95.2380952380952,4,1,0,80,0,0
40521,-95.2380952380952,4,1,0,80,0,1
60731,-95.2380952380952,4,1,0,80,0,0
80942,-95.2380952380952,4,1,0,80,0,1
101152,-95.2380952380952,4,1,0,80,0,0

[HitObjects]
199,178,100,5,0,0:0:0:0:
352,150,257,1,8,0:0:0:0:
207,152,336,1,8,0:0:0:0:
285,167,415,1,0,0:0:0:0:
200,128,573,1,8,0:0:0:0:
197,166,731,1,0,0:0:0:0:
228,137,810,1,0,0:0:0:0:
264,160,889,1,8,0:0:0:0:
208,80,1047,1,0,0:0:0:0:
197,178,1205,1,8,0:0:0:0:
241,183,1521,1,8,0:0:0:0:
286,166,1678,1,0,0:0:0:0:
208,80,1836,1,8,0:0:0:0:
330,189,1915,1,8,0:0:0:0:
197,178,1994,1,0,0:0:0:0:
248,96,2152,1,8,0:0:0:0:
286,166,2310,1,0,0:0:0:0:
240,128,2468,1,0,0:0:0:0:
176,123,2547,1,0,0:0:0:0:
197,178,2626,1,8,0:0:0:0:
131,136,2942,1,0,0:0:0:0:
200,56,3100,1,8,0:0:0:0:
208,152,3257,1,0,0:0:0:0:
354,249,3336,1,0,0:0:0:0:
288,150,3415,1,0,0:0:0:0:
200,56,3573,1,8,0:0:0:0:
199,178,3889,1,8,0:0:0:0:
176,128,4047,1,0,0:0:0:0:
168,160,4205,1,8,0:0:0:0:
326,216,4284,1,8,0:0:0:0:
284,168,4363,1,0,0:0:0:0:
226,138,4521,1,8,0:0:0:0:
176,128,4678,1,0,0:0:0:0:
168,160,4836,1,8,0:0:0:0:
326,216,4915,1,8,0:0:0:0:
237,144,4994,1,8,0:0:0:0:
212,73,5073,1,8,0:0:0:0:
199,178,5152,1,0,0:0:0:0:
167,140,5310,1,8,0:0:0:0:
244,161,5389,1,8,0:0:0:0:
226,138,5468,1,0,0:0:0:0:
168,160,5626,1,8,0:0:0:0:
258,160,5784,1,0,0:0:0:0:
184,140,5863,1,0,0:0:0:0:
208,120,5942,1,8,0:0:0:0:
168,160,6100,1,0,0:0:0:0:
199,178,6257,1,8,0:0:0:0:
185,152,6573,1,8,0:0:0:0:
251,127,6731,1,0,0:0:0:0:
168,160,6889,1,8,0:0:0:0:
156,133,6968,1,8,0:0:0:0:
199,178,7047,1,0,0:0:0:0:
208,120,7205,1,8,0:0:0:0:
251,127,7363,1,0,0:0:0:0:
208,120,7521,1,0,0:0:0:0:
216,142,7600,1,0,0:0:0:0:
199,178,7678,1,8,0:0:0:0:
261,206,7994,1,0,0:0:0:0:
352,144,8152,1,8,0:0:0:0:
352,144,8310,1,0,0:0:0:0:
367,220,8468,1,0,0:0:0:0:
367,220,8547,1,0,0:0:0:0:
352,144,8626,1,8,0:0:0:0:
212,156,8784,1,0,0:0:0:0:
249,125,8942,1,8,0:0:0:0:
176,120,9257,1,8,0:0:0:0:
168,160,9415,1,0,0:0:0:0:
359,203,9494,1,0,0:0:0:0:
251,130,9573,1,8,0:0:0:0:
331,167,9731,1,0,0:0:0:0:
168,160,9889,1,8,0:0:0:0:
302,163,10047,1,0,0:0:0:0:
66,149,10126,1,0,0:0:0:0:
249,125,10205,1,0,0:0:0:0:
352,150,10363,1,8,0:0:0:0:
207,152,10442,1,8,0:0:0:0:
285,167,10521,1,0,0:0:0:0:
200,128,10678,1,8,0:0:0:0:
197,166,10836,1,0,0:0:0:0:
261,156,10915,1,0,0:0:0:0:
264,160,10994,1,8,0:0:0:0:
208,80,11152,1,0,0:0:0:0:
197,178,11310,1,8,0:0:0:0:
241,183,11626,1,8,0:0:0:0:
286,166,11784,1,0,0:0:0:0:
208,80,11942,1,8,0:0:0:0:
176,123,12021,1,8,0:0:0:0:
197,178,12100,1,0,0:0:0:0:
248,96,12257,1,8,0:0:0:0:
286,166,12415,1,0,0:0:0:0:
240,128,12573,1,0,0:0:0:0:
359,232,12652,1,0,0:0:0:0:
197,178,12731,1,8,0:0:0:0:
131,136,13047,1,0,0:0:0:0:
200,56,13205,1,8,0:0:0:0:
208,152,13363,1,0,0:0:0:0:
358,200,13442,1,0,0:0:0:0:
358,200,13521,1,0,0:0:0:0:
200,56,13678,1,8,0:0:0:0:
199,178,13994,1,8,0:0:0:0:
176,128,14152,1,0,0:0:0:0:
227,156,14310,1,8,0:0:0:0:
227,156,14389,1,8,0:0:0:0:
284,168,14468,1,0,0:0:0:0:
226,138,14626,1,8,0:0:0:0:
176,128,14784,1,0,0:0:0:0:
168,160,14942,1,8,0:0:0:0:
296,164,15021,1,8,0:0:0:0:
237,144,15100,1,8,0:0:0:0:
322,166,15178,1,8,0:0:0:0:
199,178,15257,1,0,0:0:0:0:
167,140,15415,1,8,0:0:0:0:
244,161,15494,1,8,0:0:0:0:
226,138,15573,1,0,0:0:0:0:
168,160,15731,1,8,0:0:0:0:
258,160,15889,1,0,0:0:0:0:
179,142,15968,1,0,0:0:0:0:
208,120,16047,1,8,0:0:0:0:
168,160,16205,1,0,0:0:0:0:
199,178,16363,1,8,0:0:0:0:
185,152,16678,1,8,0:0:0:0:
251,127,16836,1,0,0:0:0:0:
168,160,16994,1,8,0:0:0:0:
156,133,17073,1,8,0:0:0:0:
199,178,17152,1,0,0:0:0:0:
208,120,17310,1,8,0:0:0:0:
251,127,17468,1,0,0:0:0:0:
208,120,17626,1,0,0:0:0:0:
287,146,17705,1,0,0:0:0:0:
199,178,17784,1,8,0:0:0:0:
352,144,18257,1,8,0:0:0:0:
212,156,18731,1,8,0:0:0:0:
249,125,19047,1,8,0:0:0:0:
234,129,19521,1,8,0:0:0:0:
234,129,19600,1,8,0:0:0:0:
251,130,19678,1,8,0:0:0:0:
232,110,20310,1,0,0:0:0:0:
384,198,20389,1,0,0:0:0:0:
204,143,20468,1,0,0:0:0:0:
185,144,20626,1,8,0:0:0:0:
235,126,20784,1,0,0:0:0:0:
192,136,20942,1,8,0:0:0:0:
270,168,21021,1,0,0:0:0:0:
200,128,21100,1,8,0:0:0:0:
232,110,21257,1,8,0:0:0:0:
203,148,21415,1,0,0:0:0:0:
235,131,21573,1,8,0:0:0:0:
328,150,21652,1,0,0:0:0:0:
319,138,21731,1,8,0:0:0:0:
298,90,21810,1,8,0:0:0:0:
232,110,21889,1,0,0:0:0:0:
204,143,22047,1,8,0:0:0:0:
195,37,22205,1,8,0:0:0:0:
248,152,22284,1,8,0:0:0:0:
248,152,22363,1,8,0:0:0:0:
288,157,22442,1,8,0:0:0:0:
226,123,22521,1,0,0:0:0:0:
226,123,22678,1,8,0:0:0:0:
238,111,22836,1,0,0:0:0:0:
303,197,22915,1,0,0:0:0:0:
303,197,22994,1,0,0:0:0:0:
303,197,23152,1,8,0:0:0:0:
320,144,23310,1,8,0:0:0:0:
320,144,23468,1,0,0:0:0:0:
239,147,23547,1,8,0:0:0:0:
316,207,23626,1,0,0:0:0:0:
205,132,23784,1,8,0:0:0:0:
235,142,23942,1,0,0:0:0:0:
222,105,24100,1,8,0:0:0:0:
235,142,24178,1,8,0:0:0:0:
304,128,24257,1,0,0:0:0:0:
206,100,24336,1,8,0:0:0:0:
205,132,24415,1,0,0:0:0:0:
205,132,24573,1,8,0:0:0:0:
302,92,24731,1,0,0:0:0:0:
184,168,24810,1,0,0:0:0:0:
216,168,24889,1,0,0:0:0:0:
178,161,24968,1,0,0:0:0:0:
302,92,25047,1,8,0:0:0:0:
274,163,25205,1,0,0:0:0:0:
302,92,25363,1,8,0:0:0:0:
222,149,25442,1,8,0:0:0:0:
223,134,25521,1,8,0:0:0:0:
223,134,25678,1,0,0:0:0:0:
253,125,25836,1,8,0:0:0:0:
246,170,25994,1,8,0:0:0:0:
268,170,26073,1,0,0:0:0:0:
272,160,26152,1,8,0:0:0:0:
184,112,26310,1,0,0:0:0:0:
253,125,26468,1,8,0:0:0:0:
216,147,26626,1,8,0:0:0:0:
200,96,26705,1,8,0:0:0:0:
200,96,26784,1,0,0:0:0:0:
202,144,26863,1,0,0:0:0:0:
231,101,26942,1,8,0:0:0:0:
216,136,27100,1,8,0:0:0:0:
204,146,27257,1,0,0:0:0:0:
178,146,27336,1,8,0:0:0:0:
170,99,27415,1,0,0:0:0:0:
224,67,27494,1,0,0:0:0:0:
208,124,27573,1,8,0:0:0:0:
272,264,27731,1,8,0:0:0:0:
221,153,27889,1,8,0:0:0:0:
240,129,27968,1,8,0:0:0:0:
240,129,28047,1,0,0:0:0:0:
276,127,28205,1,8,0:0:0:0:
276,127,28363,1,8,0:0:0:0:
312,144,28521,1,0,0:0:0:0:
312,144,28600,1,8,0:0:0:0:
161,114,28678,1,0,0:0:0:0:
176,119,28836,1,8,0:0:0:0:
312,144,28994,1,0,0:0:0:0:
201,122,29152,1,8,0:0:0:0:
277,93,29231,1,0,0:0:0:0:
326,169,29310,1,8,0:0:0:0:
246,159,29468,1,0,0:0:0:0:
246,159,29626,1,8,0:0:0:0:
224,152,29705,1,8,0:0:0:0:
201,122,29784,1,0,0:0:0:0:
226,112,29942,1,8,0:0:0:0:
239,147,30021,1,8,0:0:0:0:
226,112,30100,1,8,0:0:0:0:
239,147,30178,1,0,0:0:0:0:
239,147,30257,1,8,0:0:0:0:
232,110,30415,1,0,0:0:0:0:
176,151,30494,1,0,0:0:0:0:
204,143,30573,1,0,0:0:0:0:
185,144,30731,1,8,0:0:0:0:
235,126,30889,1,0,0:0:0:0:
192,136,31047,1,8,0:0:0:0:
271,197,31126,1,8,0:0:0:0:
200,128,31205,1,8,0:0:0:0:
232,110,31363,1,8,0:0:0:0:
162,136,31521,1,0,0:0:0:0:
235,131,31678,1,8,0:0:0:0:
345,143,31757,1,8,0:0:0:0:
319,138,31836,1,0,0:0:0:0:
241,115,31915,1,8,0:0:0:0:
232,110,31994,1,0,0:0:0:0:
204,143,32152,1,8,0:0:0:0:
195,37,32310,1,8,0:0:0:0:
248,152,32389,1,8,0:0:0:0:
248,152,32468,1,8,0:0:0:0:
288,157,32547,1,8,0:0:0:0:
226,123,32626,1,0,0:0:0:0:
226,123,32784,1,8,0:0:0:0:
238,111,32942,1,0,0:0:0:0:
303,197,33021,1,8,0:0:0:0:
303,197,33100,1,0,0:0:0:0:
303,197,33257,1,8,0:0:0:0:
320,144,33415,1,8,0:0:0:0:
320,144,33573,1,0,0:0:0:0:
246,142,33652,1,0,0:0:0:0:
316,207,33731,1,0,0:0:0:0:
205,132,33889,1,8,0:0:0:0:
304,168,34047,1,0,0:0:0:0:
222,105,34205,1,8,0:0:0:0:
148,108,34284,1,8,0:0:0:0:
304,128,34363,1,0,0:0:0:0:
207,143,34442,1,0,0:0:0:0:
205,132,34521,1,8,0:0:0:0:
205,132,34678,1,8,0:0:0:0:
302,92,34836,1,0,0:0:0:0:
184,168,34915,1,0,0:0:0:0:
216,168,34994,1,0,0:0:0:0:
178,161,35073,1,0,0:0:0:0:
302,92,35152,1,8,0:0:0:0:
274,163,35310,1,0,0:0:0:0:
302,92,35468,1,8,0:0:0:0:
222,149,35547,1,8,0:0:0:0:
223,134,35626,1,8,0:0:0:0:
223,134,35784,1,0,0:0:0:0:
253,125,35942,1,8,0:0:0:0:
189,143,36100,1,8,0:0:0:0:
189,143,36178,1,0,0:0:0:0:
272,160,36257,1,8,0:0:0:0:
184,112,36415,1,0,0:0:0:0:
253,125,36573,1,8,0:0:0:0:
216,147,36731,1,8,0:0:0:0:
200,96,36810,1,8,0:0:0:0:
200,96,36889,1,8,0:0:0:0:
254,139,36968,1,8,0:0:0:0:
231,101,37047,1,0,0:0:0:0:
216,136,37205,1,8,0:0:0:0:
204,146,37363,1,0,0:0:0:0:
178,146,37442,1,8,0:0:0:0:
170,99,37521,1,0,0:0:0:0:
225,142,37600,1,0,0:0:0:0:
221,153,37678,1,8,0:0:0:0:
272,264,37836,1,0,0:0:0:0:
221,153,37994,1,8,0:0:0:0:
164,112,38073,1,8,0:0:0:0:
171,154,38152,1,0,0:0:0:0:
276,127,38310,1,8,0:0:0:0:
276,127,38468,1,8,0:0:0:0:
312,144,38626,1,8,0:0:0:0:
312,144,38705,1,8,0:0:0:0:
161,114,38784,1,0,0:0:0:0:
176,119,38942,1,8,0:0:0:0:
312,144,39100,1,0,0:0:0:0:
201,122,39257,1,8,0:0:0:0:
161,114,39336,1,8,0:0:0:0:
326,169,39415,1,8,0:0:0:0:
246,159,39573,1,0,0:0:0:0:
246,159,39731,1,8,0:0:0:0:
224,152,39810,1,8,0:0:0:0:
201,122,39889,1,0,0:0:0:0:
226,112,40047,1,8,0:0:0:0:
172,168,40126,1,8,0:0:0:0:
226,112,40205,5,0,0:0:0:0:
172,168,40284,1,0,0:0:0:0:
176,168,40363,1,8,0:0:0:0:
240,184,40442,1,8,0:0:0:0:
293,156,40521,1,0,0:0:0:0:
256,112,40678,1,8,0:0:0:0:
293,156,40757,1,8,0:0:0:0:
256,72,40836,1,0,0:0:0:0:
256,72,40994,1,8,0:0:0:0:
307,111,41152,1,8,0:0:0:0:
307,111,41231,1,8,0:0:0:0:
251,144,41310,1,8,0:0:0:0:
264,72,41468,1,0,0:0:0:0:
256,112,41626,1,8,0:0:0:0:
278,168,41784,1,8,0:0:0:0:
176,120,41863,1,0,0:0:0:0:
264,72,41942,1,8,0:0:0:0:
283,131,42021,1,8,0:0:0:0:
278,168,42100,1,0,0:0:0:0:
264,72,42257,1,8,0:0:0:0:
278,168,42415,1,8,0:0:0:0:
256,112,42494,1,8,0:0:0:0:
220,176,42573,1,8,0:0:0:0:
266,147,42652,1,8,0:0:0:0:
288,120,42731,1,0,0:0:0:0:
204,91,42889,1,0,0:0:0:0:
243,96,43047,1,8,0:0:0:0:
264,72,43205,1,8,0:0:0:0:
296,120,43284,1,8,0:0:0:0:
296,120,43363,1,8,0:0:0:0:
264,72,43521,1,8,0:0:0:0:
243,96,43678,1,0,0:0:0:0:
221,128,43757,1,8,0:0:0:0:
315,140,43836,1,0,0:0:0:0:
243,96,43994,1,8,0:0:0:0:
208,88,44152,1,0,0:0:0:0:
243,96,44310,1,8,0:0:0:0:
271,126,44389,1,8,0:0:0:0:
271,126,44468,1,0,0:0:0:0:
255,159,44547,1,0,0:0:0:0:
271,126,44626,1,8,0:0:0:0:
208,120,44784,1,0,0:0:0:0:
243,96,44942,1,8,0:0:0:0:
277,83,45021,1,8,0:0:0:0:
271,126,45100,1,8,0:0:0:0:
271,126,45178,1,8,0:0:0:0:
216,56,45257,1,0,0:0:0:0:
329,195,45415,1,0,0:0:0:0:
243,96,45573,1,8,0:0:0:0:
264,160,45731,1,0,0:0:0:0:
184,96,45810,1,0,0:0:0:0:
136,120,45889,1,0,0:0:0:0:
248,152,46047,1,8,0:0:0:0:
243,96,46205,1,0,0:0:0:0:
264,160,46284,1,0,0:0:0:0:
238,157,46363,1,8,0:0:0:0:
243,96,46521,1,0,0:0:0:0:
208,64,46678,1,8,0:0:0:0:
243,96,46836,1,8,0:0:0:0:
74,75,46915,1,8,0:0:0:0:
186,143,46994,1,0,0:0:0:0:
182,152,47073,1,0,0:0:0:0:
264,160,47152,1,8,0:0:0:0:
186,143,47310,1,8,0:0:0:0:
243,96,47468,1,8,0:0:0:0:
362,224,47547,1,0,0:0:0:0:
235,142,47626,1,8,0:0:0:0:
235,142,47705,1,8,0:0:0:0:
305,190,47784,1,0,0:0:0:0:
261,109,47863,1,0,0:0:0:0:
256,120,47942,1,8,0:0:0:0:
243,96,48100,1,8,0:0:0:0:
313,202,48178,1,0,0:0:0:0:
200,64,48257,1,8,0:0:0:0:
243,96,48415,1,0,0:0:0:0:
256,120,48573,1,8,0:0:0:0:
243,96,48731,1,0,0:0:0:0:
242,149,48810,1,0,0:0:0:0:
242,149,48889,1,0,0:0:0:0:
261,109,48968,1,0,0:0:0:0:
243,96,49047,1,8,0:0:0:0:
200,64,49205,1,0,0:0:0:0:
243,96,49363,1,8,0:0:0:0:
355,157,49442,1,8,0:0:0:0:
224,136,49521,1,8,0:0:0:0:
288,90,49600,1,8,0:0:0:0:
243,96,49678,1,0,0:0:0:0:
256,120,49836,1,8,0:0:0:0:
224,136,49915,1,8,0:0:0:0:
243,96,49994,1,0,0:0:0:0:
334,136,50152,1,8,0:0:0:0:
141,87,50231,1,8,0:0:0:0:
303,137,50310,1,0,0:0:0:0:
112,123,50389,1,0,0:0:0:0:
75,136,50468,1,8,0:0:0:0:
293,156,50626,1,0,0:0:0:0:
256,112,50784,1,8,0:0:0:0:
293,156,50863,1,8,0:0:0:0:
256,72,50942,1,0,0:0:0:0:
256,72,51100,1,8,0:0:0:0:
307,111,51257,1,8,0:0:0:0:
307,111,51336,1,0,0:0:0:0:
251,144,51415,1,8,0:0:0:0:
264,72,51573,1,0,0:0:0:0:
256,112,51731,1,8,0:0:0:0:
278,168,51889,1,8,0:0:0:0:
176,120,51968,1,8,0:0:0:0:
264,72,52047,1,0,0:0:0:0:
283,131,52126,1,8,0:0:0:0:
278,168,52205,1,0,0:0:0:0:
264,72,52363,1,8,0:0:0:0:
278,168,52521,1,8,0:0:0:0:
256,112,52600,1,8,0:0:0:0:
220,176,52678,1,8,0:0:0:0:
266,147,52757,1,8,0:0:0:0:
288,120,52836,1,0,0:0:0:0:
204,91,52994,1,0,0:0:0:0:
243,96,53152,1,8,0:0:0:0:
264,72,53310,1,8,0:0:0:0:
296,120,53389,1,8,0:0:0:0:
296,120,53468,1,8,0:0:0:0:
264,72,53626,1,8,0:0:0:0:
243,96,53784,1,0,0:0:0:0:
221,128,53863,1,8,0:0:0:0:
315,140,53942,1,0,0:0:0:0:
243,96,54100,1,8,0:0:0:0:
208,88,54257,1,0,0:0:0:0:
243,96,54415,1,8,0:0:0:0:
271,126,54494,1,8,0:0:0:0:
271,126,54573,1,8,0:0:0:0:
255,159,54652,1,0,0:0:0:0:
271,126,54731,1,8,0:0:0:0:
208,120,54889,1,0,0:0:0:0:
243,96,55047,1,8,0:0:0:0:
277,83,55126,1,0,0:0:0:0:
271,126,55205,1,8,0:0:0:0:
271,126,55284,1,8,0:0:0:0:
216,56,55363,1,0,0:0:0:0:
329,195,55521,1,0,0:0:0:0:
243,96,55678,1,8,0:0:0:0:
264,160,55836,1,0,0:0:0:0:
184,96,55915,1,0,0:0:0:0:
136,120,55994,1,0,0:0:0:0:
248,152,56152,1,8,0:0:0:0:
243,96,56310,1,0,0:0:0:0:
264,160,56389,1,0,0:0:0:0:
238,157,56468,1,8,0:0:0:0:
243,96,56626,1,0,0:0:0:0:
208,64,56784,1,8,0:0:0:0:
243,96,56942,1,8,0:0:0:0:
74,75,57021,1,8,0:0:0:0:
186,143,57100,1,0,0:0:0:0:
182,152,57178,1,8,0:0:0:0:
264,160,57257,1,0,0:0:0:0:
186,143,57415,1,8,0:0:0:0:
243,96,57573,1,8,0:0:0:0:
362,224,57652,1,0,0:0:0:0:
235,142,57731,1,8,0:0:0:0:
235,142,57810,1,8,0:0:0:0:
305,190,57889,1,0,0:0:0:0:
261,109,57968,1,0,0:0:0:0:
256,120,58047,1,8,0:0:0:0:
243,96,58205,1,8,0:0:0:0:
313,202,58284,1,0,0:0:0:0:
200,64,58363,1,8,0:0:0:0:
243,96,58521,1,0,0:0:0:0:
256,120,58678,1,8,0:0:0:0:
243,96,58836,1,0,0:0:0:0:
242,149,58915,1,8,0:0:0:0:
242,149,58994,1,0,0:0:0:0:
261,109,59073,1,0,0:0:0:0:
243,96,59152,1,8,0:0:0:0:
200,64,59310,1,0,0:0:0:0:
243,96,59468,1,8,0:0:0:0:
355,157,59547,1,8,0:0:0:0:
224,136,59626,1,8,0:0:0:0:
288,90,59705,1,8,0:0:0:0:
243,96,59784,1,0,0:0:0:0:
256,120,59942,1,8,0:0:0:0:
224,136,60021,1,8,0:0:0:0:
243,96,60100,1,0,0:0:0:0:
334,136,60257,1,8,0:0:0:0:
141,87,60336,5,8,0:0:0:0:
303,137,60415,1,0,0:0:0:0:
112,123,60494,1,0,0:0:0:0:
75,136,60573,1,8,0:0:0:0:
177,113,60652,1,8,0:0:0:0:
161,148,60731,5,0,0:0:0:0:
115,163,60889,1,0,0:0:0:0:
222,48,60968,1,0,0:0:0:0:
338,173,61047,1,8,0:0:0:0:
272,96,61205,1,0,0:0:0:0:
216,120,61363,1,8,0:0:0:0:
242,108,61442,1,8,0:0:0:0:
240,184,61521,1,0,0:0:0:0:
216,120,61678,1,8,0:0:0:0:
165,170,61836,1,0,0:0:0:0:
216,120,61994,1,0,0:0:0:0:
230,131,62073,1,0,0:0:0:0:
216,120,62152,1,8,0:0:0:0:
230,131,62231,1,0,0:0:0:0:
216,120,62310,1,8,0:0:0:0:
216,120,62468,1,8,0:0:0:0:
253,140,62626,1,8,0:0:0:0:
168,162,62705,1,0,0:0:0:0:
208,168,62784,1,0,0:0:0:0:
168,162,62863,1,0,0:0:0:0:
253,140,62942,1,8,0:0:0:0:
216,120,63100,1,8,0:0:0:0:
253,140,63257,1,0,0:0:0:0:
245,136,63415,1,0,0:0:0:0:
281,180,63494,1,0,0:0:0:0:
336,144,63573,1,8,0:0:0:0:
352,168,63731,1,0,0:0:0:0:
216,120,63889,1,8,0:0:0:0:
296,167,63968,1,8,0:0:0:0:
295,165,64047,1,8,0:0:0:0:
216,120,64205,1,0,0:0:0:0:
240,184,64363,1,8,0:0:0:0:
216,120,64521,1,0,0:0:0:0:
346,128,64600,1,0,0:0:0:0:
216,120,64678,1,8,0:0:0:0:
216,157,64757,1,0,0:0:0:0:
216,120,64836,1,8,0:0:0:0:
216,120,64994,1,8,0:0:0:0:
161,137,65152,1,0,0:0:0:0:
161,137,65231,1,0,0:0:0:0:
161,137,65310,1,0,0:0:0:0:
161,125,65389,1,0,0:0:0:0:
256,160,65468,1,8,0:0:0:0:
216,120,65626,1,8,0:0:0:0:
253,140,65784,1,0,0:0:0:0:
115,163,65942,1,0,0:0:0:0:
222,48,66021,1,0,0:0:0:0:
338,173,66100,1,8,0:0:0:0:
272,96,66257,1,0,0:0:0:0:
216,120,66415,1,8,0:0:0:0:
242,108,66494,1,8,0:0:0:0:
240,184,66573,1,0,0:0:0:0:
216,120,66731,1,8,0:0:0:0:
165,170,66889,1,0,0:0:0:0:
216,120,67047,1,0,0:0:0:0:
230,131,67126,1,0,0:0:0:0:
216,120,67205,1,8,0:0:0:0:
230,131,67284,1,0,0:0:0:0:
216,120,67363,1,8,0:0:0:0:
216,120,67521,1,8,0:0:0:0:
253,140,67678,1,8,0:0:0:0:
168,162,67757,1,8,0:0:0:0:
208,168,67836,1,0,0:0:0:0:
168,162,67915,1,0,0:0:0:0:
253,140,67994,1,8,0:0:0:0:
216,120,68152,1,8,0:0:0:0:
253,140,68310,1,0,0:0:0:0:
245,136,68468,1,0,0:0:0:0:
281,180,68547,1,0,0:0:0:0:
336,144,68626,1,8,0:0:0:0:
352,168,68784,1,0,0:0:0:0:
216,120,68942,1,8,0:0:0:0:
296,167,69021,1,8,0:0:0:0:
295,165,69100,1,8,0:0:0:0:
216,120,69257,1,0,0:0:0:0:
240,184,69415,1,8,0:0:0:0:
346,128,69494,1,8,0:0:0:0:
216,120,69573,1,0,0:0:0:0:
216,120,69731,1,0,0:0:0:0:
216,120,69889,1,8,0:0:0:0:
216,157,69968,1,8,0:0:0:0:
216,120,70047,1,8,0:0:0:0:
161,137,70126,1,0,0:0:0:0:
161,137,70205,1,8,0:0:0:0:
161,137,70363,1,0,0:0:0:0:
161,125,70442,1,0,0:0:0:0:
256,160,70521,1,8,0:0:0:0:
279,141,70600,1,8,0:0:0:0:
216,120,70678,1,8,0:0:0:0:
170,111,70757,1,8,0:0:0:0:
253,140,70836,5,0,0:0:0:0:
115,163,70994,1,0,0:0:0:0:
222,48,71073,1,0,0:0:0:0:
338,173,71152,1,8,0:0:0:0:
272,96,71310,1,0,0:0:0:0:
216,120,71468,1,8,0:0:0:0:
242,108,71547,1,8,0:0:0:0:
240,184,71626,1,8,0:0:0:0:
216,120,71784,1,8,0:0:0:0:
165,170,71942,1,0,0:0:0:0:
216,120,72100,1,0,0:0:0:0:
230,131,72178,1,0,0:0:0:0:
216,120,72257,1,8,0:0:0:0:
230,131,72336,1,0,0:0:0:0:
216,120,72415,1,8,0:0:0:0:
216,120,72573,1,8,0:0:0:0:
253,140,72731,1,8,0:0:0:0:
168,162,72810,1,0,0:0:0:0:
208,168,72889,1,0,0:0:0:0:
168,162,72968,1,0,0:0:0:0:
253,140,73047,1,8,0:0:0:0:
216,120,73205,1,8,0:0:0:0:
253,140,73363,1,0,0:0:0:0:
245,136,73521,1,0,0:0:0:0:
281,180,73600,1,0,0:0:0:0:
336,144,73678,1,8,0:0:0:0:
352,168,73836,1,0,0:0:0:0:
216,120,73994,1,8,0:0:0:0:
296,167,74073,1,0,0:0:0:0:
295,165,74152,1,8,0:0:0:0:
216,120,74310,1,0,0:0:0:0:
240,184,74468,1,8,0:0:0:0:
216,120,74626,1,0,0:0:0:0:
346,128,74705,1,0,0:0:0:0:
216,120,74784,1,8,0:0:0:0:
216,157,74863,1,0,0:0:0:0:
216,120,74942,1,8,0:0:0:0:
216,120,75100,1,8,0:0:0:0:
161,137,75257,1,0,0:0:0:0:
161,137,75336,1,0,0:0:0:0:
161,137,75415,1,0,0:0:0:0:
161,125,75494,1,0,0:0:0:0:
256,160,75573,1,8,0:0:0:0:
216,120,75731,1,8,0:0:0:0:
253,140,75889,1,0,0:0:0:0:
115,163,76047,1,0,0:0:0:0:
222,48,76126,1,0,0:0:0:0:
338,173,76205,1,8,0:0:0:0:
272,96,76363,1,0,0:0:0:0:
216,120,76521,1,8,0:0:0:0:
242,108,76600,1,8,0:0:0:0:
240,184,76678,1,8,0:0:0:0:
216,120,76836,1,8,0:0:0:0:
165,170,76994,1,0,0:0:0:0:
216,120,77152,1,0,0:0:0:0:
230,131,77231,1,0,0:0:0:0:
216,120,77310,1,8,0:0:0:0:
230,131,77389,1,0,0:0:0:0:
216,120,77468,1,8,0:0:0:0:
216,120,77626,1,8,0:0:0:0:
253,140,77784,1,8,0:0:0:0:
168,162,77863,1,8,0:0:0:0:
208,168,77942,1,0,0:0:0:0:
168,162,78021,1,0,0:0:0:0:
253,140,78100,1,8,0:0:0:0:
216,120,78257,1,8,0:0:0:0:
253,140,78415,1,0,0:0:0:0:
245,136,78573,1,0,0:0:0:0:
281,180,78652,1,0,0:0:0:0:
336,144,78731,1,8,0:0:0:0:
352,168,78889,1,0,0:0:0:0:
216,120,79047,1,8,0:0:0:0:
296,167,79126,1,0,0:0:0:0:
295,165,79205,1,8,0:0:0:0:
216,120,79363,1,0,0:0:0:0:
240,184,79521,1,8,0:0:0:0:
346,128,79600,1,8,0:0:0:0:
216,120,79678,1,0,0:0:0:0:
216,120,79836,1,0,0:0:0:0:
216,120,79994,1,8,0:0:0:0:
216,157,80073,1,8,0:0:0:0:
216,120,80152,1,8,0:0:0:0:
161,137,80231,1,0,0:0:0:0:
161,137,80310,1,8,0:0:0:0:
161,137,80468,1,0,0:0:0:0:
161,125,80547,1,0,0:0:0:0:
256,160,80626,1,8,0:0:0:0:
279,141,80705,1,8,0:0:0:0:
216,120,80784,1,8,0:0:0:0:
170,111,80863,5,8,0:0:0:0:
253,140,80942,5,0,0:0:0:0:
126,175,81100,1,0,0:0:0:0:
160,177,81178,1,0,0:0:0:0:
221,81,81257,5,8,0:0:0:0:
296,184,81415,1,8,0:0:0:0:
232,128,81573,5,0,0:0:0:0:
165,151,81652,1,8,0:0:0:0:
240,136,81731,1,0,0:0:0:0:
326,131,81810,1,0,0:0:0:0:
159,109,81889,1,8,0:0:0:0:
232,128,82047,1,8,0:0:0:0:
300,149,82205,1,0,0:0:0:0:
367,221,82284,1,0,0:0:0:0:
288,112,82363,1,0,0:0:0:0:
367,221,82442,1,0,0:0:0:0:
300,149,82521,1,8,0:0:0:0:
288,112,82678,1,8,0:0:0:0:
232,128,82836,1,8,0:0:0:0:
128,152,82915,1,8,0:0:0:0:
232,128,82994,1,8,0:0:0:0:
169,152,83073,1,8,0:0:0:0:
232,128,83152,1,0,0:0:0:0:
169,152,83231,1,0,0:0:0:0:
232,128,83310,1,8,0:0:0:0:
314,170,83389,1,8,0:0:0:0:
300,142,83468,1,0,0:0:0:0:
126,175,83626,1,0,0:0:0:0:
160,177,83705,1,0,0:0:0:0:
221,81,83784,5,8,0:0:0:0:
296,184,83942,1,8,0:0:0:0:
232,128,84100,5,8,0:0:0:0:
165,151,84178,1,8,0:0:0:0:
240,136,84257,1,0,0:0:0:0:
326,131,84336,1,0,0:0:0:0:
159,109,84415,1,8,0:0:0:0:
232,128,84573,1,8,0:0:0:0:
300,149,84731,1,0,0:0:0:0:
367,221,84810,1,8,0:0:0:0:
288,112,84889,1,0,0:0:0:0:
367,221,84968,1,0,0:0:0:0:
300,149,85047,1,8,0:0:0:0:
288,112,85205,1,8,0:0:0:0:
232,128,85363,1,8,0:0:0:0:
128,152,85442,1,8,0:0:0:0:
232,128,85521,1,0,0:0:0:0:
169,152,85600,1,0,0:0:0:0:
232,128,85678,1,8,0:0:0:0:
169,152,85757,1,8,0:0:0:0:
232,128,85836,1,8,0:0:0:0:
314,170,85915,1,8,0:0:0:0:
300,142,85994,1,0,0:0:0:0:
126,175,86152,1,0,0:0:0:0:
160,177,86231,1,0,0:0:0:0:
221,81,86310,5,8,0:0:0:0:
296,184,86468,1,8,0:0:0:0:
232,128,86626,5,0,0:0:0:0:
165,151,86705,1,0,0:0:0:0:
240,136,86784,1,8,0:0:0:0:
326,131,86863,1,0,0:0:0:0:
159,109,86942,1,8,0:0:0:0:
232,128,87100,1,8,0:0:0:0:
300,149,87257,1,8,0:0:0:0:
367,221,87336,1,0,0:0:0:0:
288,112,87415,1,0,0:0:0:0:
367,221,87494,1,0,0:0:0:0:
300,149,87573,1,8,0:0:0:0:
288,112,87731,1,8,0:0:0:0:
232,128,87889,1,8,0:0:0:0:
128,152,87968,1,8,0:0:0:0:
232,128,88047,1,8,0:0:0:0:
169,152,88126,1,8,0:0:0:0:
232,128,88205,1,0,0:0:0:0:
169,152,88284,1,0,0:0:0:0:
232,128,88363,1,8,0:0:0:0:
314,170,88442,1,8,0:0:0:0:
300,142,88521,1,0,0:0:0:0:
126,175,88678,1,0,0:0:0:0:
160,177,88757,1,0,0:0:0:0:
221,81,88836,5,8,0:0:0:0:
296,184,88994,1,8,0:0:0:0:
232,128,89152,5,0,0:0:0:0:
165,151,89231,1,8,0:0:0:0:
240,136,89310,1,0,0:0:0:0:
326,131,89389,1,0,0:0:0:0:
159,109,89468,1,8,0:0:0:0:
232,128,89626,1,8,0:0:0:0:
300,149,89784,1,8,0:0:0:0:
367,221,89863,1,8,0:0:0:0:
288,112,89942,1,0,0:0:0:0:
367,221,90021,1,0,0:0:0:0:
300,149,90100,1,8,0:0:0:0:
288,112,90257,1,8,0:0:0:0:
232,128,90415,1,8,0:0:0:0:
128,152,90494,1,8,0:0:0:0:
232,128,90573,1,0,0:0:0:0:
169,152,90652,1,0,0:0:0:0:
232,128,90731,1,8,0:0:0:0:
169,152,90810,1,8,0:0:0:0:
232,128,90889,1,8,0:0:0:0:
314,170,90968,1,8,0:0:0:0:
300,142,91047,1,0,0:0:0:0:
126,175,91205,1,0,0:0:0:0:
160,177,91284,1,0,0:0:0:0:
221,81,91363,5,8,0:0:0:0:
296,184,91521,1,8,0:0:0:0:
232,128,91678,5,0,0:0:0:0:
165,151,91757,1,0,0:0:0:0:
240,136,91836,1,0,0:0:0:0:
326,131,91915,1,0,0:0:0:0:
159,109,91994,1,8,0:0:0:0:
232,128,92152,1,8,0:0:0:0:
300,149,92310,1,0,0:0:0:0:
367,221,92389,1,8,0:0:0:0:
288,112,92468,1,0,0:0:0:0:
367,221,92547,1,0,0:0:0:0:
300,149,92626,1,8,0:0:0:0:
288,112,92784,1,8,0:0:0:0:
232,128,92942,1,8,0:0:0:0:
128,152,93021,1,8,0:0:0:0:
232,128,93100,1,8,0:0:0:0:
169,152,93178,1,8,0:0:0:0:
232,128,93257,1,0,0:0:0:0:
169,152,93336,1,0,0:0:0:0:
232,128,93415,1,8,0:0:0:0:
314,170,93494,1,8,0:0:0:0:
300,142,93573,1,0,0:0:0:0:
126,175,93731,1,0,0:0:0:0:
160,177,93810,1,0,0:0:0:0:
221,81,93889,5,8,0:0:0:0:
296,184,94047,1,8,0:0:0:0:
232,128,94205,5,0,0:0:0:0:
165,151,94284,1,8,0:0:0:0:
240,136,94363,1,0,0:0:0:0:
326,131,94442,1,0,0:0:0:0:
159,109,94521,1,8,0:0:0:0:
232,128,94678,1,8,0:0:0:0:
300,149,94836,1,8,0:0:0:0:
367,221,94915,1,8,0:0:0:0:
288,112,94994,1,0,0:0:0:0:
367,221,95073,1,0,0:0:0:0:
300,149,95152,1,8,0:0:0:0:
288,112,95310,1,8,0:0:0:0:
232,128,95468,1,8,0:0:0:0:
128,152,95547,1,8,0:0:0:0:
232,128,95626,1,0,0:0:0:0:
169,152,95705,1,0,0:0:0:0:
232,128,95784,1,8,0:0:0:0:
169,152,95863,1,8,0:0:0:0:
232,128,95942,1,8,0:0:0:0:
314,170,96021,1,8,0:0:0:0:
300,142,96100,1,0,0:0:0:0:
126,175,96257,1,0,0:0:0:0:
160,177,96336,1,0,0:0:0:0:
221,81,96415,5,8,0:0:0:0:
296,184,96573,1,8,0:0:0:0:
232,128,96731,5,0,0:0:0:0:
165,151,96810,1,0,0:0:0:0:
240,136,96889,1,8,0:0:0:0:
326,131,96968,1,0,0:0:0:0:
159,109,97047,1,8,0:0:0:0:
232,128,97205,1,8,0:0:0:0:
300,149,97363,1,8,0:0:0:0:
367,221,97442,1,0,0:0:0:0:
288,112,97521,1,0,0:0:0:0:
367,221,97600,1,0,0:0:0:0:
300,149,97678,1,8,0:0:0:0:
288,112,97836,1,8,0:0:0:0:
232,128,97994,1,8,0:0:0:0:
128,152,98073,1,8,0:0:0:0:
232,128,98152,1,8,0:0:0:0:
169,152,98231,1,8,0:0:0:0:
232,128,98310,1,0,0:0:0:0:
169,152,98389,1,0,0:0:0:0:
232,128,98468,1,8,0:0:0:0:
314,170,98547,1,8,0:0:0:0:
300,142,98626,1,0,0:0:0:0:
126,175,98784,1,0,0:0:0:0:
160,177,98863,1,0,0:0:0:0:
221,81,98942,5,8,0:0:0:0:
296,184,99100,1,8,0:0:0:0:
232,128,99257,5,0,0:0:0:0:
165,151,99336,1,8,0:0:0:0:
240,136,99415,1,0,0:0:0:0:
326,131,99494,1,0,0:0:0:0:
159,109,99573,1,8,0:0:0:0:
232,128,99731,1,8,0:0:0:0:
300,149,99889,1,8,0:0:0:0:
367,221,99968,1,8,0:0:0:0:
288,112,100047,1,0,0:0:0:0:
367,221,100126,1,0,0:0:0:0:
300,149,100205,1,8,0:0:0:0:
288,112,100363,1,8,0:0:0:0:
232,128,100521,1,8,0:0:0:0:
128,152,100600,1,8,0:0:0:0:
232,128,100678,1,0,0:0:0:0:
169,152,100757,1,0,0:0:0:0:
232,128,100836,1,8,0:0:0:0:
169,152,100915,1,8,0:0:0:0:
232,128,100994,1,8,0:0:0:0:
314,170,101073,1,8,0:0:0:0:
300,142,101152,1,0,0:0:0:0:
