osu file format v14

[General]
AudioFilename: audio.mp3
AudioLeadIn: 0
PreviewTime: 31851
Countdown: 0
SampleSet: Normal
StackLeniency: 0.7
Mode: 1
LetterboxInBreaks: 0
WidescreenStoryboard: 1

[Editor]
DistanceSpacing: 1
BeatDivisor: 4
GridSize: 32
TimelineZoom: 2.799999

[Metadata]
Title:Spider Dance (MARETU Remix)
TitleUnicode:Spider Dance (MARETU Remix)
Artist:toby fox
ArtistUnicode:toby fox
Creator:Serial Dreemurr
Version:Dance
Source:UNDERTALE
Tags:Coryn videogame instrumental cut ver ost soundtrack boss fight muffet donut electronic
BeatmapID:2275352
BeatmapSetID:1088142

[Difficulty]
HPDrainRate:5
CircleSize:2
OverallDifficulty:6.5
ApproachRate:10
SliderMultiplier:1.4
SliderTickRate:1

[Events]
//Background and Video events
0,0,"SpiderDance.jpg",0,50
//Break Periods
//Storyboard Layer 0 (Background)
//Storyboard Layer 1 (Fail)
//Storyboard Layer 2 (Pass)
//Storyboard Layer 3 (Foreground)
//Storyboard Layer 4 (Overlay)
//Storyboard Sound Samples

[TimingPoints]
286,260.869565217391,4,1,0,80,1,8
286,-111.111111111111,4,1,0,80,0,0
547,260.869565217391,4,1,0,80,1,0
547,-111.111111111111,4,1,0,80,0,0
29764,-108.695652173913,4,1,0,80,0,0
30286,-106.382978723404,4,1,0,80,0,0
30807,-104.166666666667,4,1,0,80,0,0
31329,-102.040816326531,4,1,0,80,0,0
31851,-100,4,1,0,80,0,0
33546,-95.2380952380952,4,1,0,80,0,0
33938,-95.2380952380952,4,1,0,80,0,1
46068,-96.1538461538461,4,1,0,80,0,1
46199,-97.0873786407767,4,1,0,80,0,1
46329,-98.0392156862745,4,1,0,80,0,1
46460,-99.009900990099,4,1,0,80,0,1
46720,-100,4,1,0,80,0,1
50112,-100,4,1,0,80,0,0
67329,-111.111111111111,4,1,0,80,0,0
111155,-111.111111111111,4,1,0,70,0,0
112720,-111.111111111111,4,1,0,65,0,0
115460,-111.111111111111,4,1,0,55,0,0
117025,-111.111111111111,4,1,0,15,0,0

[HitObjects]
258,193,286,5,0,0:0:0:0:
258,193,351,1,0,0:0:0:0:
258,193,416,1,0,0:0:0:0:
258,193,481,1,0,0:0:0:0:
258,193,547,1,8,0:0:0:0:
258,193,807,1,0,0:0:0:0:
258,193,1068,1,8,0:0:0:0:
258,193,1329,1,0,0:0:0:0:
258,193,1720,1,0,0:0:0:0:
258,193,1851,1,8,0:0:0:0:
236,191,2112,1,0,0:0:0:0:
237,191,2242,1,8,0:0:0:0:
237,191,2373,1,0,0:0:0:0:
243,185,2503,1,0,0:0:0:0:
245,180,2764,1,0,0:0:0:0:
245,180,2894,1,0,0:0:0:0:
245,180,3025,1,8,0:0:0:0:
245,180,3155,1,0,0:0:0:0:
245,180,3286,1,8,0:0:0:0:
243,185,3416,1,8,0:0:0:0:
245,180,3546,1,0,0:0:0:0:
245,180,3677,1,8,0:0:0:0:
245,180,3807,1,0,0:0:0:0:
245,180,3938,1,0,0:0:0:0:
245,180,4068,1,8,0:0:0:0:
245,155,4329,1,0,0:0:0:0:
245,156,4460,1,8,0:0:0:0:
245,156,4525,1,8,0:0:0:0:
245,156,4590,1,0,0:0:0:0:
245,156,4720,1,0,0:0:0:0:
259,185,5242,1,0,0:0:0:0:
259,185,5764,1,0,0:0:0:0:
259,185,6286,1,8,0:0:0:0:
259,185,6807,1,0,0:0:0:0:
248,182,7068,1,0,0:0:0:0:
248,182,7329,1,8,0:0:0:0:
248,182,7590,1,0,0:0:0:0:
248,182,7851,1,8,0:0:0:0:
248,182,8112,1,0,0:0:0:0:
248,182,8155,1,8,0:0:0:0:
240,180,8199,1,0,0:0:0:0:
248,182,8373,1,0,0:0:0:0:
248,182,8503,1,0,0:0:0:0:
248,182,8633,1,8,0:0:0:0:
248,182,8764,1,8,0:0:0:0:
248,182,8894,1,0,0:0:0:0:
246,168,9155,1,8,0:0:0:0:
249,192,9286,1,0,0:0:0:0:
249,192,9416,1,8,0:0:0:0:
249,192,9546,1,8,0:0:0:0:
249,192,9677,1,0,0:0:0:0:
249,192,9938,1,0,0:0:0:0:
263,196,10068,1,8,0:0:0:0:
263,196,10199,1,0,0:0:0:0:
263,196,10460,1,0,0:0:0:0:
263,196,10590,1,0,0:0:0:0:
263,196,10720,1,0,0:0:0:0:
284,203,10851,1,8,0:0:0:0:
274,189,11112,1,0,0:0:0:0:
274,189,11242,1,0,0:0:0:0:
274,189,11373,1,8,0:0:0:0:
274,189,11503,1,0,0:0:0:0:
263,196,11633,1,8,0:0:0:0:
259,192,11764,1,8,0:0:0:0:
259,192,11894,1,0,0:0:0:0:
259,192,12025,1,0,0:0:0:0:
235,162,12155,1,8,0:0:0:0:
235,162,12286,1,0,0:0:0:0:
235,162,12416,1,8,0:0:0:0:
235,162,12677,1,0,0:0:0:0:
250,177,12807,1,8,0:0:0:0:
250,177,12873,1,8,0:0:0:0:
250,177,12938,1,8,0:0:0:0:
250,177,13068,1,0,0:0:0:0:
253,181,13590,1,0,0:0:0:0:
250,177,14112,1,0,0:0:0:0:
250,177,14633,1,0,0:0:0:0:
250,177,15025,1,0,0:0:0:0:
250,177,15090,1,0,0:0:0:0:
250,177,15155,1,8,0:0:0:0:
237,171,15416,1,0,0:0:0:0:
237,171,15677,1,8,0:0:0:0:
237,171,15938,1,0,0:0:0:0:
237,171,16199,1,8,0:0:0:0:
237,171,16460,1,8,0:0:0:0:
229,145,16720,1,0,0:0:0:0:
251,190,16981,1,0,0:0:0:0:
251,190,17046,1,0,0:0:0:0:
251,190,17112,1,0,0:0:0:0:
251,190,17177,1,0,0:0:0:0:
246,182,17242,1,8,0:0:0:0:
258,193,17503,1,0,0:0:0:0:
258,193,17764,1,8,0:0:0:0:
258,193,18025,1,0,0:0:0:0:
258,193,18416,1,0,0:0:0:0:
258,193,18547,1,8,0:0:0:0:
236,191,18808,1,0,0:0:0:0:
237,191,18938,1,8,0:0:0:0:
237,191,19069,1,0,0:0:0:0:
243,185,19199,1,0,0:0:0:0:
245,180,19460,1,8,0:0:0:0:
245,180,19590,1,8,0:0:0:0:
245,180,19721,1,0,0:0:0:0:
245,180,19851,1,0,0:0:0:0:
245,180,19981,1,8,0:0:0:0:
243,185,20112,1,0,0:0:0:0:
245,180,20242,1,8,0:0:0:0:
245,180,20373,1,8,0:0:0:0:
245,180,20503,1,0,0:0:0:0:
245,180,20634,1,0,0:0:0:0:
245,180,20764,1,8,0:0:0:0:
245,155,21025,1,0,0:0:0:0:
245,156,21156,1,8,0:0:0:0:
245,156,21221,1,0,0:0:0:0:
245,156,21286,1,8,0:0:0:0:
245,156,21351,1,8,0:0:0:0:
245,156,21416,1,0,0:0:0:0:
250,122,21938,1,0,0:0:0:0:
250,122,22460,1,0,0:0:0:0:
250,122,22981,1,0,0:0:0:0:
259,185,23503,1,0,0:0:0:0:
248,182,23764,1,0,0:0:0:0:
248,182,24025,1,8,0:0:0:0:
248,182,24286,1,0,0:0:0:0:
248,182,24547,1,8,0:0:0:0:
248,182,24808,1,0,0:0:0:0:
248,182,24851,1,8,0:0:0:0:
245,188,24894,1,0,0:0:0:0:
248,182,25069,1,0,0:0:0:0:
248,182,25199,1,0,0:0:0:0:
248,182,25329,1,8,0:0:0:0:
248,182,25460,1,8,0:0:0:0:
248,182,25590,1,0,0:0:0:0:
246,168,25851,1,8,0:0:0:0:
249,192,25982,1,0,0:0:0:0:
249,192,26112,1,8,0:0:0:0:
249,192,26242,1,8,0:0:0:0:
249,192,26373,1,0,0:0:0:0:
249,192,26634,1,0,0:0:0:0:
263,196,26764,1,8,0:0:0:0:
263,196,26895,1,0,0:0:0:0:
263,196,27156,1,0,0:0:0:0:
263,196,27286,1,0,0:0:0:0:
263,196,27416,1,0,0:0:0:0:
284,203,27547,1,8,0:0:0:0:
274,189,27808,1,0,0:0:0:0:
274,189,27938,1,0,0:0:0:0:
274,189,28069,1,8,0:0:0:0:
274,189,28199,1,0,0:0:0:0:
263,196,28329,1,8,0:0:0:0:
259,192,28460,1,8,0:0:0:0:
259,192,28590,1,0,0:0:0:0:
259,192,28721,1,0,0:0:0:0:
235,162,28851,1,8,0:0:0:0:
235,162,28982,1,0,0:0:0:0:
235,162,29112,1,8,0:0:0:0:
235,162,29373,1,0,0:0:0:0:
250,177,29503,1,0,0:0:0:0:
250,177,29569,1,0,0:0:0:0:
250,177,29634,1,0,0:0:0:0:
250,177,29764,1,8,0:0:0:0:
256,168,30286,1,8,0:0:0:0:
256,168,30807,1,8,0:0:0:0:
256,168,31329,1,8,0:0:0:0:
254,148,31851,1,4,0:0:0:0:
258,155,33546,1,12,0:0:0:0:
258,155,33677,1,4,0:0:0:0:
258,155,33807,1,12,0:0:0:0:
258,155,33938,1,12,0:0:0:0:
271,191,34068,1,0,0:0:0:0:
271,191,34133,1,0,0:0:0:0:
271,191,34199,1,8,0:0:0:0:
260,166,34329,1,0,0:0:0:0:
260,166,34460,1,8,0:0:0:0:
260,166,34525,1,0,0:0:0:0:
260,166,34590,1,8,0:0:0:0:
260,166,34720,1,8,0:0:0:0:
260,166,34786,1,0,0:0:0:0:
260,166,34851,1,0,0:0:0:0:
257,168,34981,1,8,0:0:0:0:
251,163,35112,1,0,0:0:0:0:
251,163,35242,1,0,0:0:0:0:
260,166,35307,1,0,0:0:0:0:
251,163,35373,1,8,0:0:0:0:
251,163,35503,1,0,0:0:0:0:
260,166,35633,1,8,0:0:0:0:
260,166,35764,1,0,0:0:0:0:
260,166,35829,1,0,0:0:0:0:
257,168,35894,1,8,0:0:0:0:
257,168,35960,1,0,0:0:0:0:
258,163,36025,1,8,0:0:0:0:
251,163,36155,1,0,0:0:0:0:
246,172,36286,1,0,0:0:0:0:
246,172,36351,1,0,0:0:0:0:
260,166,36416,1,8,0:0:0:0:
259,164,36546,1,0,0:0:0:0:
260,166,36677,1,0,0:0:0:0:
255,160,36742,1,0,0:0:0:0:
260,166,36807,1,8,0:0:0:0:
257,168,36873,1,8,0:0:0:0:
257,168,36938,1,0,0:0:0:0:
259,164,37068,1,8,0:0:0:0:
259,164,37199,1,0,0:0:0:0:
259,164,37264,1,0,0:0:0:0:
259,164,37329,1,0,0:0:0:0:
259,164,37460,1,8,0:0:0:0:
252,180,37590,1,0,0:0:0:0:
252,180,37720,1,8,0:0:0:0:
252,180,37786,1,8,0:0:0:0:
252,180,37851,1,0,0:0:0:0:
252,180,37916,1,0,0:0:0:0:
252,180,37981,1,8,0:0:0:0:
250,188,38046,1,0,0:0:0:0:
258,173,38112,1,8,0:0:0:0:
271,191,38242,1,0,0:0:0:0:
271,191,38307,1,0,0:0:0:0:
271,191,38373,1,8,0:0:0:0:
260,166,38503,1,0,0:0:0:0:
260,166,38634,1,8,0:0:0:0:
260,166,38699,1,0,0:0:0:0:
260,166,38764,1,8,0:0:0:0:
260,166,38894,1,8,0:0:0:0:
260,166,38960,1,0,0:0:0:0:
260,166,39025,1,0,0:0:0:0:
257,168,39155,1,8,0:0:0:0:
251,163,39286,1,0,0:0:0:0:
251,163,39351,1,0,0:0:0:0:
251,163,39416,1,8,0:0:0:0:
260,166,39481,1,0,0:0:0:0:
251,163,39547,1,8,0:0:0:0:
251,163,39677,1,0,0:0:0:0:
260,166,39807,1,8,0:0:0:0:
260,166,39938,1,8,0:0:0:0:
260,166,40003,1,8,0:0:0:0:
257,168,40068,1,0,0:0:0:0:
257,168,40134,1,0,0:0:0:0:
258,163,40199,1,8,0:0:0:0:
251,163,40329,1,0,0:0:0:0:
246,172,40460,1,8,0:0:0:0:
246,172,40525,1,8,0:0:0:0:
260,166,40590,1,0,0:0:0:0:
259,164,40720,1,0,0:0:0:0:
260,166,40851,1,0,0:0:0:0:
255,160,40916,1,0,0:0:0:0:
260,166,40981,1,8,0:0:0:0:
257,168,41047,1,8,0:0:0:0:
257,168,41112,1,0,0:0:0:0:
259,164,41242,1,8,0:0:0:0:
259,164,41373,1,0,0:0:0:0:
259,164,41438,1,0,0:0:0:0:
259,164,41503,1,8,0:0:0:0:
259,164,41634,1,8,0:0:0:0:
252,180,41764,1,8,0:0:0:0:
252,180,41894,1,8,0:0:0:0:
252,180,41960,1,8,0:0:0:0:
252,180,42025,1,0,0:0:0:0:
252,180,42090,1,0,0:0:0:0:
252,180,42155,1,8,0:0:0:0:
250,188,42220,1,0,0:0:0:0:
258,173,42286,1,8,0:0:0:0:
271,191,42416,1,0,0:0:0:0:
271,191,42547,1,8,0:0:0:0:
260,166,42677,1,0,0:0:0:0:
260,166,42808,1,8,0:0:0:0:
260,166,42873,1,0,0:0:0:0:
260,166,42938,1,8,0:0:0:0:
260,166,43068,1,8,0:0:0:0:
260,166,43134,1,0,0:0:0:0:
260,166,43199,1,0,0:0:0:0:
257,168,43329,1,8,0:0:0:0:
251,163,43460,1,0,0:0:0:0:
251,163,43590,1,8,0:0:0:0:
260,166,43655,1,0,0:0:0:0:
251,163,43721,1,8,0:0:0:0:
251,163,43851,1,0,0:0:0:0:
260,166,43981,1,8,0:0:0:0:
260,166,44112,1,0,0:0:0:0:
260,166,44177,1,0,0:0:0:0:
257,168,44242,1,8,0:0:0:0:
257,168,44308,1,0,0:0:0:0:
258,163,44373,1,8,0:0:0:0:
251,163,44503,1,0,0:0:0:0:
246,172,44634,1,8,0:0:0:0:
246,172,44699,1,0,0:0:0:0:
260,166,44764,1,8,0:0:0:0:
259,164,44894,1,0,0:0:0:0:
260,166,45025,1,0,0:0:0:0:
255,160,45090,1,0,0:0:0:0:
260,166,45155,1,8,0:0:0:0:
257,168,45221,1,8,0:0:0:0:
257,168,45286,1,0,0:0:0:0:
259,164,45416,1,8,0:0:0:0:
251,167,45546,1,0,0:0:0:0:
251,167,45677,1,8,0:0:0:0:
251,167,45742,1,8,0:0:0:0:
251,167,45807,1,0,0:0:0:0:
255,173,46068,1,0,0:0:0:0:
257,168,46199,1,8,0:0:0:0:
255,173,46329,1,0,0:0:0:0:
255,173,46460,1,0,0:0:0:0:
239,170,46720,1,0,0:0:0:0:
239,170,46981,1,8,0:0:0:0:
239,170,47112,1,0,0:0:0:0:
220,168,47242,1,8,0:0:0:0:
220,168,47373,1,0,0:0:0:0:
220,168,47503,1,8,0:0:0:0:
220,168,47633,1,8,0:0:0:0:
220,168,47764,1,0,0:0:0:0:
220,168,47894,1,8,0:0:0:0:
220,168,48025,1,0,0:0:0:0:
220,168,48155,1,0,0:0:0:0:
220,168,48286,1,8,0:0:0:0:
220,168,48416,1,0,0:0:0:0:
220,168,48546,1,8,0:0:0:0:
216,159,48612,1,0,0:0:0:0:
220,168,48677,1,8,0:0:0:0:
220,168,48742,1,8,0:0:0:0:
220,168,48807,1,0,0:0:0:0:
251,176,48938,1,0,0:0:0:0:
220,168,49068,1,8,0:0:0:0:
220,168,49133,1,0,0:0:0:0:
220,168,49199,1,0,0:0:0:0:
251,176,49329,1,8,0:0:0:0:
220,168,49460,1,0,0:0:0:0:
220,168,49590,1,0,0:0:0:0:
234,177,49655,1,0,0:0:0:0:
220,168,49720,1,8,0:0:0:0:
220,168,49786,1,0,0:0:0:0:
220,168,49851,1,8,0:0:0:0:
232,169,49916,1,8,0:0:0:0:
220,168,49981,1,0,0:0:0:0:
221,143,50046,1,0,0:0:0:0:
223,140,50112,1,8,0:0:0:0:
251,176,50633,1,8,0:0:0:0:
254,170,50894,1,0,0:0:0:0:
251,176,51155,1,8,0:0:0:0:
251,176,51286,1,0,0:0:0:0:
251,176,51416,1,8,0:0:0:0:
251,176,51546,1,0,0:0:0:0:
232,176,51612,1,0,0:0:0:0:
254,170,51677,1,8,0:0:0:0:
254,170,51807,1,0,0:0:0:0:
251,176,51938,1,8,0:0:0:0:
251,176,52068,1,8,0:0:0:0:
259,186,52133,1,8,0:0:0:0:
251,176,52199,1,0,0:0:0:0:
251,176,52329,1,0,0:0:0:0:
251,176,52460,1,8,0:0:0:0:
258,188,52525,1,0,0:0:0:0:
258,188,52590,1,8,0:0:0:0:
258,188,52655,1,8,0:0:0:0:
254,170,52720,1,0,0:0:0:0:
258,188,52786,1,0,0:0:0:0:
258,188,52851,1,8,0:0:0:0:
251,176,52981,1,8,0:0:0:0:
258,180,53046,1,0,0:0:0:0:
251,176,53112,1,8,0:0:0:0:
251,176,53242,1,0,0:0:0:0:
251,176,53373,1,8,0:0:0:0:
254,170,53503,1,8,0:0:0:0:
258,188,53568,1,0,0:0:0:0:
254,170,53633,1,8,0:0:0:0:
251,176,53764,1,8,0:0:0:0:
251,176,53894,1,0,0:0:0:0:
251,176,53960,1,0,0:0:0:0:
251,176,54025,1,8,0:0:0:0:
251,176,54155,1,8,0:0:0:0:
251,176,54220,1,8,0:0:0:0:
251,176,54286,1,0,0:0:0:0:
268,181,54351,1,0,0:0:0:0:
254,170,54416,1,8,0:0:0:0:
254,170,54546,1,8,0:0:0:0:
251,176,54677,1,0,0:0:0:0:
255,183,54807,5,8,0:0:0:0:
255,183,54873,1,8,0:0:0:0:
255,183,54938,1,0,0:0:0:0:
255,183,55003,1,0,0:0:0:0:
255,183,55068,1,8,0:0:0:0:
255,183,55133,1,8,0:0:0:0:
255,183,55199,1,0,0:0:0:0:
255,183,55264,1,8,0:0:0:0:
255,183,55329,1,0,0:0:0:0:
255,183,55394,1,8,0:0:0:0:
255,183,55460,1,8,0:0:0:0:
255,183,55525,1,0,0:0:0:0:
255,183,55590,1,8,0:0:0:0:
255,183,55655,1,8,0:0:0:0:
255,183,55720,1,0,0:0:0:0:
255,183,55786,1,0,0:0:0:0:
255,183,55851,1,8,0:0:0:0:
255,183,55916,1,0,0:0:0:0:
255,183,55981,1,8,0:0:0:0:
255,183,56046,1,0,0:0:0:0:
255,183,56112,1,8,0:0:0:0:
255,183,56177,1,0,0:0:0:0:
255,183,56242,1,8,0:0:0:0:
255,183,56307,1,0,0:0:0:0:
255,183,56373,1,8,0:0:0:0:
255,183,56438,1,8,0:0:0:0:
255,183,56503,1,0,0:0:0:0:
255,183,56568,1,0,0:0:0:0:
255,183,56633,1,8,0:0:0:0:
255,183,56699,1,0,0:0:0:0:
255,183,56764,1,8,0:0:0:0:
255,183,56829,1,8,0:0:0:0:
255,183,56894,1,0,0:0:0:0:
255,183,57025,1,0,0:0:0:0:
255,183,57090,1,0,0:0:0:0:
255,183,57155,1,8,0:0:0:0:
255,183,57286,1,0,0:0:0:0:
265,183,57416,1,8,0:0:0:0:
255,183,57546,1,8,0:0:0:0:
255,183,57612,1,0,0:0:0:0:
255,183,57677,1,8,0:0:0:0:
255,183,57742,1,8,0:0:0:0:
255,183,57807,1,0,0:0:0:0:
255,183,57873,1,0,0:0:0:0:
255,183,57938,1,8,0:0:0:0:
255,183,58068,1,0,0:0:0:0:
255,183,58133,1,0,0:0:0:0:
255,183,58199,1,8,0:0:0:0:
252,180,58329,1,0,0:0:0:0:
255,183,58460,1,8,0:0:0:0:
264,177,58720,1,8,0:0:0:0:
264,177,58851,1,8,0:0:0:0:
264,177,58981,1,0,0:0:0:0:
267,176,59242,1,8,0:0:0:0:
264,177,59503,1,0,0:0:0:0:
264,177,59633,1,8,0:0:0:0:
264,177,59764,1,0,0:0:0:0:
266,164,59894,1,0,0:0:0:0:
266,164,59960,1,0,0:0:0:0:
266,164,60025,1,8,0:0:0:0:
266,164,60155,1,0,0:0:0:0:
266,164,60286,1,8,0:0:0:0:
266,164,60351,1,8,0:0:0:0:
266,164,60416,1,0,0:0:0:0:
261,162,60677,1,0,0:0:0:0:
266,164,60807,1,0,0:0:0:0:
266,164,60938,1,0,0:0:0:0:
266,164,61068,1,8,0:0:0:0:
266,164,61199,1,0,0:0:0:0:
271,172,61329,1,8,0:0:0:0:
271,172,61394,1,8,0:0:0:0:
271,172,61460,1,0,0:0:0:0:
264,183,61720,1,0,0:0:0:0:
263,197,61851,1,8,0:0:0:0:
262,198,61981,1,0,0:0:0:0:
262,198,62112,1,8,0:0:0:0:
256,190,62242,1,0,0:0:0:0:
256,190,62307,1,0,0:0:0:0:
256,190,62373,1,8,0:0:0:0:
256,190,62503,1,8,0:0:0:0:
256,190,62633,1,8,0:0:0:0:
256,190,62764,1,8,0:0:0:0:
257,186,62829,1,8,0:0:0:0:
256,190,62894,1,0,0:0:0:0:
257,186,62960,1,0,0:0:0:0:
257,186,63025,1,8,0:0:0:0:
256,190,63155,1,0,0:0:0:0:
265,186,63286,1,0,0:0:0:0:
265,186,63351,1,0,0:0:0:0:
265,186,63416,1,8,0:0:0:0:
265,186,63481,1,0,0:0:0:0:
265,186,63546,1,8,0:0:0:0:
265,186,63677,1,0,0:0:0:0:
265,186,63807,1,8,0:0:0:0:
265,186,63873,1,0,0:0:0:0:
265,186,63938,1,8,0:0:0:0:
265,186,64003,1,8,0:0:0:0:
265,186,64068,1,0,0:0:0:0:
265,186,64133,1,0,0:0:0:0:
265,186,64199,1,8,0:0:0:0:
265,186,64329,1,8,0:0:0:0:
265,186,64460,1,8,0:0:0:0:
274,187,64525,1,0,0:0:0:0:
265,186,64590,1,8,0:0:0:0:
274,187,64720,1,0,0:0:0:0:
259,179,64851,1,0,0:0:0:0:
259,179,64981,1,8,0:0:0:0:
259,179,65046,1,0,0:0:0:0:
258,179,65112,1,8,0:0:0:0:
274,185,65177,1,8,0:0:0:0:
274,185,65242,1,0,0:0:0:0:
265,186,65373,1,0,0:0:0:0:
271,185,65438,1,0,0:0:0:0:
262,180,65503,1,8,0:0:0:0:
265,186,65568,1,0,0:0:0:0:
262,180,65633,1,8,0:0:0:0:
259,179,65764,1,8,0:0:0:0:
259,179,65829,1,0,0:0:0:0:
259,179,65894,1,0,0:0:0:0:
259,179,66025,1,8,0:0:0:0:
258,179,66090,1,0,0:0:0:0:
262,180,66155,1,0,0:0:0:0:
265,186,66286,1,0,0:0:0:0:
265,186,66351,1,0,0:0:0:0:
265,186,66416,1,8,0:0:0:0:
262,180,66481,1,0,0:0:0:0:
265,186,66546,1,8,0:0:0:0:
262,180,66612,1,8,0:0:0:0:
259,179,66677,1,0,0:0:0:0:
259,179,66742,1,0,0:0:0:0:
259,179,66807,1,8,0:0:0:0:
265,186,67329,1,4,0:0:0:0:
251,180,67590,1,8,0:0:0:0:
251,180,67720,1,0,0:0:0:0:
251,180,67981,1,8,0:0:0:0:
251,180,68112,1,0,0:0:0:0:
251,180,68633,1,8,0:0:0:0:
251,180,68764,1,0,0:0:0:0:
251,180,69025,1,8,0:0:0:0:
251,180,69155,1,0,0:0:0:0:
251,180,69416,1,8,0:0:0:0:
251,180,69546,1,0,0:0:0:0:
251,180,69612,1,0,0:0:0:0:
251,180,69677,1,8,0:0:0:0:
251,180,69938,1,0,0:0:0:0:
261,188,70199,1,0,0:0:0:0:
240,185,70329,1,8,0:0:0:0:
256,186,71764,1,8,0:0:0:0:
256,186,71894,1,0,0:0:0:0:
256,186,72155,1,8,0:0:0:0:
256,186,72286,1,0,0:0:0:0:
256,186,72807,1,8,0:0:0:0:
256,186,72937,1,0,0:0:0:0:
256,186,73198,1,8,0:0:0:0:
256,186,73329,1,0,0:0:0:0:
249,168,73590,1,0,0:0:0:0:
249,168,73851,1,0,0:0:0:0:
249,168,74112,1,8,0:0:0:0:
249,168,74242,1,0,0:0:0:0:
249,168,74503,1,0,0:0:0:0:
249,168,74633,1,0,0:0:0:0:
251,188,75025,1,0,0:0:0:0:
251,188,75155,1,8,0:0:0:0:
241,191,75416,1,0,0:0:0:0:
241,191,75677,1,4,0:0:0:0:
251,188,75938,1,8,0:0:0:0:
251,188,76068,1,0,0:0:0:0:
251,194,76329,1,8,0:0:0:0:
251,194,76460,1,0,0:0:0:0:
250,197,76981,1,8,0:0:0:0:
251,194,77112,1,0,0:0:0:0:
251,194,77373,1,8,0:0:0:0:
250,197,77503,1,0,0:0:0:0:
250,197,77764,1,8,0:0:0:0:
250,197,77894,1,0,0:0:0:0:
250,197,77960,1,0,0:0:0:0:
251,194,78025,1,8,0:0:0:0:
251,194,78286,1,0,0:0:0:0:
260,203,78546,1,0,0:0:0:0:
260,203,78677,1,8,0:0:0:0:
251,180,80112,1,8,0:0:0:0:
251,180,80242,1,0,0:0:0:0:
251,180,80503,1,8,0:0:0:0:
251,180,80634,1,0,0:0:0:0:
251,180,81155,1,8,0:0:0:0:
251,180,81286,1,0,0:0:0:0:
251,180,81547,1,8,0:0:0:0:
251,180,81677,1,0,0:0:0:0:
251,180,81938,1,8,0:0:0:0:
251,180,82068,1,0,0:0:0:0:
251,180,82134,1,0,0:0:0:0:
251,180,82199,1,8,0:0:0:0:
251,180,82460,1,8,0:0:0:0:
235,175,82590,1,0,0:0:0:0:
261,188,82851,1,0,0:0:0:0:
240,185,82981,1,8,0:0:0:0:
249,190,83112,1,0,0:0:0:0:
253,192,83242,1,8,0:0:0:0:
253,192,83373,1,8,0:0:0:0:
253,192,83503,1,8,0:0:0:0:
253,192,83633,1,0,0:0:0:0:
253,192,83764,1,8,0:0:0:0:
253,192,83894,1,8,0:0:0:0:
253,192,84025,1,0,0:0:0:0:
253,192,84286,1,8,0:0:0:0:
253,192,84416,1,0,0:0:0:0:
253,192,84677,1,8,0:0:0:0:
253,192,84807,1,0,0:0:0:0:
253,192,85068,1,0,0:0:0:0:
253,192,85329,1,8,0:0:0:0:
253,192,85460,1,0,0:0:0:0:
253,192,85720,1,8,0:0:0:0:
253,192,85851,1,0,0:0:0:0:
257,183,86112,1,8,0:0:0:0:
258,183,86242,1,0,0:0:0:0:
258,183,86307,1,0,0:0:0:0:
258,183,86373,1,8,0:0:0:0:
253,192,86633,1,0,0:0:0:0:
241,188,86894,1,0,0:0:0:0:
249,184,87025,1,8,0:0:0:0:
264,200,87286,1,0,0:0:0:0:
253,192,87546,1,0,0:0:0:0:
253,190,87677,1,8,0:0:0:0:
253,190,87807,1,0,0:0:0:0:
253,190,87938,1,8,0:0:0:0:
253,192,88068,1,8,0:0:0:0:
244,176,88199,1,0,0:0:0:0:
257,197,88460,1,8,0:0:0:0:
257,197,88590,1,0,0:0:0:0:
257,197,88851,1,8,0:0:0:0:
257,197,88981,1,0,0:0:0:0:
257,197,89242,1,0,0:0:0:0:
257,197,89503,1,8,0:0:0:0:
257,197,89633,1,0,0:0:0:0:
274,204,89894,1,8,0:0:0:0:
274,204,90024,1,0,0:0:0:0:
257,197,90286,1,0,0:0:0:0:
270,192,90546,1,0,0:0:0:0:
270,193,90807,1,8,0:0:0:0:
270,193,90938,1,0,0:0:0:0:
270,193,91199,1,0,0:0:0:0:
270,192,91329,1,8,0:0:0:0:
270,193,91590,1,0,0:0:0:0:
270,193,91720,1,0,0:0:0:0:
270,193,91851,1,8,0:0:0:0:
270,193,91981,1,0,0:0:0:0:
270,193,92112,1,8,0:0:0:0:
270,192,92242,1,8,0:0:0:0:
270,193,92373,1,0,0:0:0:0:
270,193,92633,1,8,0:0:0:0:
270,193,92764,1,0,0:0:0:0:
270,193,93025,1,8,0:0:0:0:
270,192,93155,1,0,0:0:0:0:
270,193,93416,1,0,0:0:0:0:
270,193,93677,1,8,0:0:0:0:
287,200,93807,1,0,0:0:0:0:
287,200,94068,1,8,0:0:0:0:
287,200,94199,1,0,0:0:0:0:
287,200,94460,1,8,0:0:0:0:
286,200,94590,1,0,0:0:0:0:
286,200,94655,1,0,0:0:0:0:
287,200,94720,1,8,0:0:0:0:
287,200,94981,1,8,0:0:0:0:
287,200,95242,1,0,0:0:0:0:
287,200,95373,1,8,0:0:0:0:
266,200,95633,1,0,0:0:0:0:
254,196,95894,1,0,0:0:0:0:
254,196,96025,1,8,0:0:0:0:
254,196,96155,1,0,0:0:0:0:
254,196,96286,1,8,0:0:0:0:
254,196,96416,1,8,0:0:0:0:
254,196,96546,1,0,0:0:0:0:
254,196,96807,1,8,0:0:0:0:
254,196,96938,1,0,0:0:0:0:
214,143,97199,5,8,0:0:0:0:
254,196,97329,1,0,0:0:0:0:
214,143,97590,1,0,0:0:0:0:
245,200,97851,1,8,0:0:0:0:
242,188,97981,1,0,0:0:0:0:
214,143,98242,1,8,0:0:0:0:
214,175,98372,1,0,0:0:0:0:
214,143,98633,1,12,0:0:0:0:
222,185,98894,1,4,0:0:0:0:
246,181,99155,1,12,0:0:0:0:
246,181,99286,1,4,0:0:0:0:
246,181,99546,1,4,0:0:0:0:
246,181,99677,1,12,0:0:0:0:
253,186,100068,1,0,0:0:0:0:
253,186,100133,1,0,0:0:0:0:
253,186,100199,1,8,0:0:0:0:
254,192,100460,1,8,0:0:0:0:
254,192,100525,1,0,0:0:0:0:
254,192,100590,1,8,0:0:0:0:
254,192,100655,1,8,0:0:0:0:
253,186,100720,1,0,0:0:0:0:
253,186,100981,1,0,0:0:0:0:
254,192,101242,1,8,0:0:0:0:
256,185,101503,1,0,0:0:0:0:
258,193,101894,1,0,0:0:0:0:
258,193,102025,1,8,0:0:0:0:
236,191,102286,1,0,0:0:0:0:
237,191,102416,1,8,0:0:0:0:
237,191,102547,1,0,0:0:0:0:
243,185,102677,1,0,0:0:0:0:
245,180,102938,1,0,0:0:0:0:
245,180,103068,1,0,0:0:0:0:
245,180,103199,1,8,0:0:0:0:
245,180,103329,1,0,0:0:0:0:
245,180,103460,1,8,0:0:0:0:
243,185,103590,1,8,0:0:0:0:
245,180,103720,1,0,0:0:0:0:
245,180,103851,1,8,0:0:0:0:
245,180,103981,1,0,0:0:0:0:
245,180,104112,1,0,0:0:0:0:
245,180,104242,1,8,0:0:0:0:
245,155,104503,1,0,0:0:0:0:
245,156,104634,1,8,0:0:0:0:
245,156,104699,1,8,0:0:0:0:
245,156,104764,1,0,0:0:0:0:
245,156,104894,1,0,0:0:0:0:
259,185,105416,1,0,0:0:0:0:
259,185,105938,1,0,0:0:0:0:
259,185,106460,1,8,0:0:0:0:
259,185,106981,1,0,0:0:0:0:
248,182,107242,1,0,0:0:0:0:
248,182,107503,1,8,0:0:0:0:
248,182,107764,1,0,0:0:0:0:
248,182,108025,1,8,0:0:0:0:
248,182,108286,1,0,0:0:0:0:
248,182,108329,1,8,0:0:0:0:
240,180,108373,1,0,0:0:0:0:
248,182,108547,1,0,0:0:0:0:
248,182,108677,1,0,0:0:0:0:
248,182,108807,1,8,0:0:0:0:
248,182,108938,1,8,0:0:0:0:
248,182,109068,1,0,0:0:0:0:
246,168,109329,1,8,0:0:0:0:
249,192,109460,1,0,0:0:0:0:
249,192,109590,1,8,0:0:0:0:
249,192,109720,1,8,0:0:0:0:
249,192,109851,1,0,0:0:0:0:
249,192,110112,1,0,0:0:0:0:
263,196,110242,1,8,0:0:0:0:
263,196,110373,1,0,0:0:0:0:
263,196,110634,1,0,0:0:0:0:
263,196,110764,1,0,0:0:0:0:
263,196,110894,1,0,0:0:0:0:
284,203,111025,1,8,0:0:0:0:
274,189,111286,1,0,0:0:0:0:
274,189,111416,1,0,0:0:0:0:
274,189,111547,1,8,0:0:0:0:
274,189,111677,1,0,0:0:0:0:
263,196,111807,1,8,0:0:0:0:
259,192,111938,1,8,0:0:0:0:
259,192,112068,1,0,0:0:0:0:
259,192,112199,1,0,0:0:0:0:
235,162,112329,1,8,0:0:0:0:
235,162,112460,1,0,0:0:0:0:
235,162,112590,1,8,0:0:0:0:
235,162,112851,1,0,0:0:0:0:
250,177,112981,1,8,0:0:0:0:
250,177,113047,1,0,0:0:0:0:
250,177,113112,1,8,0:0:0:0:
250,177,113242,1,0,0:0:0:0:
253,181,113764,1,0,0:0:0:0:
250,177,114286,1,0,0:0:0:0:
250,177,114807,1,0,0:0:0:0:
250,177,115199,1,0,0:0:0:0:
250,177,115264,1,0,0:0:0:0:
250,177,115329,1,8,0:0:0:0:
237,171,115590,1,0,0:0:0:0:
237,171,115851,1,8,0:0:0:0:
237,171,116112,1,0,0:0:0:0:
237,171,116373,1,8,0:0:0:0:
237,171,116634,1,8,0:0:0:0:
229,145,116894,1,0,0:0:0:0:
256,192,117155,12,0,121590,0:0:0:0:
