osu file format v14

[General]
AudioFilename: audio.mp3
AudioLeadIn: 0
PreviewTime: -1
Countdown: 1
SampleSet: Soft
StackLeniency: 0.7
Mode: 3
LetterboxInBreaks: 0
SpecialStyle: 0
WidescreenStoryboard: 1

[Editor]
DistanceSpacing: 0.8
BeatDivisor: 8
GridSize: 8
TimelineZoom: 1.22

[Metadata]
Title:Spider Dance
TitleUnicode:Spider Dance
Artist:Toby Fox
ArtistUnicode:Toby Fox
Creator:KamiaGasii
Version:Normal
Source:UNDERTALE
Tags:UNDERTALE soundtrack Muffet theme spider dance
BeatmapID:1901429
BeatmapSetID:911088

[Difficulty]
HPDrainRate:7
CircleSize:6
OverallDifficulty:5
ApproachRate:5
SliderMultiplier:1.40000000596046
SliderTickRate:1

[Events]
//Background and Video events
0,0,"spiderdance.jpg",0,0
//Break Periods
//Storyboard Layer 0 (Background)
//Storyboard Layer 1 (Fail)
//Storyboard Layer 2 (Pass)
//Storyboard Layer 3 (Foreground)
//Storyboard Sound Samples

[TimingPoints]
50,521.739130434783,4,2,0,0,1,0
50,-66.6666666666667,4,2,0,0,0,0

[HitObjects]
298,192,50,5,0,0:0:0:0:
213,192,50,1,0,0:0:0:0:
128,192,310,1,0,0:0:0:0:
384,192,571,1,0,0:0:0:0:
128,192,832,1,0,0:0:0:0:
469,192,1093,1,0,0:0:0:0:
42,192,1354,1,0,0:0:0:0:
298,192,1615,1,0,0:0:0:0:
42,192,1876,1,0,0:0:0:0:
128,192,2136,1,0,0:0:0:0:
213,192,2136,1,0,0:0:0:0:
42,192,2397,1,0,0:0:0:0:
298,192,2658,1,0,0:0:0:0:
42,192,2919,1,0,0:0:0:0:
213,192,3180,1,0,0:0:0:0:
128,192,3441,1,0,0:0:0:0:
469,192,3702,1,0,0:0:0:0:
298,192,3832,1,0,0:0:0:0:
213,192,3963,1,0,0:0:0:0:
128,192,4093,1,0,0:0:0:0:
42,192,4223,128,0,4745:0:0:0:0:
384,192,4484,128,0,5006:0:0:0:0:
128,192,4745,128,0,5267:0:0:0:0:
469,192,5006,128,0,5528:0:0:0:0:
213,192,5267,128,0,5789:0:0:0:0:
42,192,5528,128,0,6050:0:0:0:0:
298,192,5789,128,0,6310:0:0:0:0:
384,192,6310,1,0,0:0:0:0:
469,192,6310,1,0,0:0:0:0:
384,192,6571,1,0,0:0:0:0:
298,192,6832,1,0,0:0:0:0:
213,192,6832,1,0,0:0:0:0:
213,192,7093,1,0,0:0:0:0:
128,192,7354,1,0,0:0:0:0:
42,192,7354,1,0,0:0:0:0:
128,192,7615,1,0,0:0:0:0:
213,192,7876,128,0,8136:0:0:0:0:
298,192,7876,128,0,8136:0:0:0:0:
298,192,8397,1,0,0:0:0:0:
298,192,8528,1,0,0:0:0:0:
298,192,8658,1,0,0:0:0:0:
128,192,8919,1,0,0:0:0:0:
128,192,9050,1,0,0:0:0:0:
128,192,9180,1,0,0:0:0:0:
42,192,9441,1,0,0:0:0:0:
42,192,9571,1,0,0:0:0:0:
42,192,9702,1,0,0:0:0:0:
298,192,9963,1,0,0:0:0:0:
298,192,10093,1,0,0:0:0:0:
298,192,10223,1,0,0:0:0:0:
213,192,10484,1,0,0:0:0:0:
213,192,10615,1,0,0:0:0:0:
213,192,10745,1,0,0:0:0:0:
298,192,11006,1,0,0:0:0:0:
298,192,11136,1,0,0:0:0:0:
298,192,11267,1,0,0:0:0:0:
384,192,11528,1,0,0:0:0:0:
384,192,11658,1,0,0:0:0:0:
384,192,11789,1,0,0:0:0:0:
469,192,12050,1,0,0:0:0:0:
469,192,12180,1,0,0:0:0:0:
469,192,12310,1,0,0:0:0:0:
42,192,12571,128,0,13093:0:0:0:0:
384,192,12832,128,0,13354:0:0:0:0:
128,192,13093,128,0,13615:0:0:0:0:
469,192,13354,128,0,13876:0:0:0:0:
213,192,13615,128,0,14136:0:0:0:0:
42,192,13876,128,0,14397:0:0:0:0:
298,192,14136,128,0,14658:0:0:0:0:
384,192,14658,1,0,0:0:0:0:
469,192,14658,1,0,0:0:0:0:
384,192,14919,1,0,0:0:0:0:
298,192,15180,1,0,0:0:0:0:
213,192,15180,1,0,0:0:0:0:
213,192,15441,1,0,0:0:0:0:
128,192,15702,1,0,0:0:0:0:
42,192,15702,1,0,0:0:0:0:
128,192,15963,1,0,0:0:0:0:
213,192,16223,128,0,16484:0:0:0:0:
298,192,16223,128,0,16484:0:0:0:0:
213,192,16745,1,0,0:0:0:0:
298,192,16745,1,0,0:0:0:0:
128,192,17006,1,0,0:0:0:0:
384,192,17267,1,0,0:0:0:0:
128,192,17528,1,0,0:0:0:0:
213,192,17789,1,0,0:0:0:0:
469,192,17789,1,0,0:0:0:0:
298,192,17984,1,0,0:0:0:0:
298,192,18115,1,0,0:0:0:0:
469,192,18310,1,0,0:0:0:0:
384,192,18441,1,0,0:0:0:0:
298,192,18571,1,0,0:0:0:0:
213,192,18702,1,0,0:0:0:0:
42,192,18832,1,0,0:0:0:0:
128,192,18832,1,0,0:0:0:0:
213,192,19028,1,0,0:0:0:0:
298,192,19158,1,0,0:0:0:0:
128,192,19289,1,0,0:0:0:0:
42,192,19419,1,0,0:0:0:0:
213,192,19550,1,0,0:0:0:0:
298,192,19680,1,0,0:0:0:0:
128,192,19810,1,0,0:0:0:0:
42,192,19941,1,0,0:0:0:0:
213,192,20071,1,0,0:0:0:0:
298,192,20202,1,0,0:0:0:0:
384,192,20332,128,0,20658:0:0:0:0:
469,192,20332,128,0,20658:0:0:0:0:
42,192,20919,128,0,21441:0:0:0:0:
384,192,21180,128,0,21702:0:0:0:0:
128,192,21441,128,0,21963:0:0:0:0:
469,192,21702,128,0,22223:0:0:0:0:
213,192,21963,128,0,22484:0:0:0:0:
42,192,22223,128,0,22745:0:0:0:0:
298,192,22484,128,0,23006:0:0:0:0:
384,192,23006,1,0,0:0:0:0:
469,192,23006,1,0,0:0:0:0:
384,192,23267,1,0,0:0:0:0:
298,192,23528,1,0,0:0:0:0:
213,192,23528,1,0,0:0:0:0:
213,192,23789,1,0,0:0:0:0:
128,192,24050,1,0,0:0:0:0:
42,192,24050,1,0,0:0:0:0:
128,192,24310,1,0,0:0:0:0:
213,192,24571,128,0,24832:0:0:0:0:
298,192,24571,128,0,24832:0:0:0:0:
298,192,25093,1,0,0:0:0:0:
298,192,25223,1,0,0:0:0:0:
298,192,25354,1,0,0:0:0:0:
128,192,25615,1,0,0:0:0:0:
128,192,25745,1,0,0:0:0:0:
128,192,25876,1,0,0:0:0:0:
42,192,26136,1,0,0:0:0:0:
42,192,26267,1,0,0:0:0:0:
42,192,26397,1,0,0:0:0:0:
298,192,26658,1,0,0:0:0:0:
298,192,26789,1,0,0:0:0:0:
298,192,26919,1,0,0:0:0:0:
213,192,27180,1,0,0:0:0:0:
213,192,27310,1,0,0:0:0:0:
213,192,27441,1,0,0:0:0:0:
298,192,27702,1,0,0:0:0:0:
298,192,27832,1,0,0:0:0:0:
298,192,27963,1,0,0:0:0:0:
384,192,28223,1,0,0:0:0:0:
384,192,28354,1,0,0:0:0:0:
384,192,28484,1,0,0:0:0:0:
469,192,28745,1,0,0:0:0:0:
469,192,28876,1,0,0:0:0:0:
469,192,29006,1,0,0:0:0:0:
42,192,29267,128,0,29789:0:0:0:0:
384,192,29528,128,0,30050:0:0:0:0:
128,192,29789,128,0,30310:0:0:0:0:
469,192,30050,128,0,30571:0:0:0:0:
213,192,30310,128,0,30832:0:0:0:0:
42,192,30571,128,0,31093:0:0:0:0:
298,192,30832,128,0,31354:0:0:0:0:
384,192,31354,1,0,0:0:0:0:
469,192,31354,1,0,0:0:0:0:
298,192,31615,1,0,0:0:0:0:
213,192,31615,1,0,0:0:0:0:
384,192,31876,1,0,0:0:0:0:
469,192,31876,1,0,0:0:0:0:
298,192,32136,1,0,0:0:0:0:
213,192,32136,1,0,0:0:0:0:
128,192,32397,1,0,0:0:0:0:
42,192,32397,1,0,0:0:0:0:
384,192,32658,1,0,0:0:0:0:
469,192,32658,1,0,0:0:0:0:
298,192,32919,1,0,0:0:0:0:
213,192,32919,1,0,0:0:0:0:
298,192,33441,1,0,0:0:0:0:
213,192,33441,1,0,0:0:0:0:
128,192,33441,1,0,0:0:0:0:
384,192,33441,1,0,0:0:0:0:
213,192,33702,1,0,0:0:0:0:
298,192,33702,1,0,0:0:0:0:
469,192,33702,1,0,0:0:0:0:
42,192,33702,1,0,0:0:0:0:
128,192,33963,1,0,0:0:0:0:
384,192,33963,1,0,0:0:0:0:
128,192,34223,1,0,0:0:0:0:
213,192,34484,128,0,34745:0:0:0:0:
384,192,34484,128,0,35267:0:0:0:0:
128,192,34810,1,0,0:0:0:0:
469,192,34876,128,0,35267:0:0:0:0:
42,192,34876,128,0,35267:0:0:0:0:
213,192,35528,128,0,35789:0:0:0:0:
469,192,35528,128,0,36310:0:0:0:0:
128,192,35854,1,0,0:0:0:0:
384,192,35919,128,0,36310:0:0:0:0:
42,192,35919,128,0,36310:0:0:0:0:
213,192,36571,128,0,36832:0:0:0:0:
384,192,36571,128,0,37354:0:0:0:0:
128,192,36897,1,0,0:0:0:0:
469,192,36963,128,0,37354:0:0:0:0:
42,192,36963,128,0,37354:0:0:0:0:
298,192,37615,1,0,0:0:0:0:
213,192,37615,1,0,0:0:0:0:
128,192,37615,1,0,0:0:0:0:
384,192,37615,1,0,0:0:0:0:
213,192,37876,1,0,0:0:0:0:
298,192,37876,1,0,0:0:0:0:
469,192,37876,1,0,0:0:0:0:
42,192,37876,1,0,0:0:0:0:
128,192,38136,1,0,0:0:0:0:
384,192,38136,1,0,0:0:0:0:
128,192,38397,1,0,0:0:0:0:
213,192,38658,128,0,38919:0:0:0:0:
42,192,38658,128,0,39441:0:0:0:0:
384,192,38984,1,0,0:0:0:0:
128,192,39050,128,0,39441:0:0:0:0:
298,192,39050,128,0,39441:0:0:0:0:
213,192,39702,128,0,39963:0:0:0:0:
128,192,39702,128,0,40484:0:0:0:0:
384,192,40028,1,0,0:0:0:0:
42,192,40093,128,0,40484:0:0:0:0:
298,192,40093,128,0,40484:0:0:0:0:
213,192,40745,128,0,41006:0:0:0:0:
42,192,40745,128,0,41528:0:0:0:0:
384,192,41071,1,0,0:0:0:0:
128,192,41136,128,0,41528:0:0:0:0:
469,192,41136,128,0,41528:0:0:0:0:
213,192,41789,1,0,0:0:0:0:
298,192,41789,1,0,0:0:0:0:
128,192,41789,1,0,0:0:0:0:
384,192,41789,1,0,0:0:0:0:
213,192,42050,1,0,0:0:0:0:
298,192,42050,1,0,0:0:0:0:
42,192,42050,1,0,0:0:0:0:
469,192,42050,1,0,0:0:0:0:
128,192,42310,1,0,0:0:0:0:
384,192,42310,1,0,0:0:0:0:
128,192,42571,1,0,0:0:0:0:
213,192,42832,128,0,43093:0:0:0:0:
384,192,42832,128,0,43615:0:0:0:0:
128,192,43158,1,0,0:0:0:0:
469,192,43223,128,0,43615:0:0:0:0:
42,192,43223,128,0,43615:0:0:0:0:
213,192,43876,128,0,44136:0:0:0:0:
469,192,43876,128,0,44658:0:0:0:0:
128,192,44202,1,0,0:0:0:0:
384,192,44267,128,0,44658:0:0:0:0:
42,192,44267,128,0,44658:0:0:0:0:
213,192,44919,128,0,45180:0:0:0:0:
384,192,44919,128,0,45702:0:0:0:0:
128,192,45245,1,0,0:0:0:0:
469,192,45310,128,0,45702:0:0:0:0:
42,192,45310,128,0,45702:0:0:0:0:
298,192,45963,1,0,0:0:0:0:
213,192,45963,1,0,0:0:0:0:
128,192,45963,1,0,0:0:0:0:
384,192,45963,1,0,0:0:0:0:
384,192,46223,1,0,0:0:0:0:
469,192,46223,1,0,0:0:0:0:
213,192,46223,1,0,0:0:0:0:
298,192,46223,1,0,0:0:0:0:
42,192,46484,1,0,0:0:0:0:
469,192,46484,1,0,0:0:0:0:
298,192,46615,1,0,0:0:0:0:
128,192,46745,1,0,0:0:0:0:
213,192,47006,1,0,0:0:0:0:
298,192,47006,1,0,0:0:0:0:
298,192,47267,1,0,0:0:0:0:
213,192,47267,1,0,0:0:0:0:
128,192,47528,1,0,0:0:0:0:
384,192,47528,1,0,0:0:0:0:
384,192,48050,1,0,0:0:0:0:
469,192,48050,1,0,0:0:0:0:
384,192,48310,1,0,0:0:0:0:
469,192,48310,1,0,0:0:0:0:
128,192,48571,1,0,0:0:0:0:
42,192,48571,1,0,0:0:0:0:
42,192,49093,128,0,49354:0:0:0:0:
213,192,49093,128,0,49354:0:0:0:0:
298,192,49354,128,0,49615:0:0:0:0:
469,192,49354,128,0,49615:0:0:0:0:
128,192,49615,128,0,49876:0:0:0:0:
384,192,49615,128,0,49876:0:0:0:0:
469,192,50136,128,0,51180:0:0:0:0:
42,192,50136,128,0,50397:0:0:0:0:
128,192,50397,128,0,50658:0:0:0:0:
298,192,50658,1,0,0:0:0:0:
213,192,50658,128,0,50919:0:0:0:0:
128,192,50919,128,0,51180:0:0:0:0:
384,192,51180,128,0,52223:0:0:0:0:
42,192,51180,128,0,51441:0:0:0:0:
128,192,51441,128,0,51702:0:0:0:0:
213,192,51702,1,0,0:0:0:0:
42,192,51702,128,0,51963:0:0:0:0:
128,192,51963,128,0,52223:0:0:0:0:
298,192,52223,128,0,53267:0:0:0:0:
42,192,52223,128,0,52484:0:0:0:0:
469,192,52484,128,0,52745:0:0:0:0:
128,192,52745,1,0,0:0:0:0:
42,192,52745,128,0,53006:0:0:0:0:
469,192,53006,128,0,53267:0:0:0:0:
42,192,53789,1,0,0:0:0:0:
469,192,53789,1,0,0:0:0:0:
42,192,53919,1,0,0:0:0:0:
469,192,53919,1,0,0:0:0:0:
128,192,54050,1,0,0:0:0:0:
384,192,54050,1,0,0:0:0:0:
384,192,54180,1,0,0:0:0:0:
128,192,54180,1,0,0:0:0:0:
298,192,54310,1,0,0:0:0:0:
213,192,54310,1,0,0:0:0:0:
128,192,54571,1,0,0:0:0:0:
42,192,54702,1,0,0:0:0:0:
128,192,54832,1,0,0:0:0:0:
213,192,54963,1,0,0:0:0:0:
298,192,55093,1,0,0:0:0:0:
384,192,55354,1,0,0:0:0:0:
469,192,55354,1,0,0:0:0:0:
128,192,55354,1,0,0:0:0:0:
42,192,55484,1,0,0:0:0:0:
213,192,55615,1,0,0:0:0:0:
298,192,55745,1,0,0:0:0:0:
384,192,55876,1,0,0:0:0:0:
469,192,56006,1,0,0:0:0:0:
384,192,56136,1,0,0:0:0:0:
298,192,56267,1,0,0:0:0:0:
128,192,56397,1,0,0:0:0:0:
42,192,56397,1,0,0:0:0:0:
469,192,56919,128,0,57180:0:0:0:0:
42,192,56919,1,0,0:0:0:0:
213,192,56919,1,0,0:0:0:0:
384,192,57180,128,0,57441:0:0:0:0:
128,192,57180,1,0,0:0:0:0:
298,192,57441,128,0,57702:0:0:0:0:
213,192,57441,1,0,0:0:0:0:
42,192,57441,1,0,0:0:0:0:
384,192,57702,128,0,57963:0:0:0:0:
128,192,57702,1,0,0:0:0:0:
469,192,57963,128,0,58484:0:0:0:0:
213,192,57963,1,0,0:0:0:0:
42,192,57963,1,0,0:0:0:0:
128,192,58223,1,0,0:0:0:0:
128,192,58354,1,0,0:0:0:0:
298,192,58484,1,0,0:0:0:0:
213,192,58484,1,0,0:0:0:0:
128,192,58484,1,0,0:0:0:0:
384,192,58484,1,0,0:0:0:0:
213,192,58745,1,0,0:0:0:0:
298,192,58745,1,0,0:0:0:0:
42,192,58745,1,0,0:0:0:0:
469,192,58745,1,0,0:0:0:0:
128,192,59006,1,0,0:0:0:0:
384,192,59006,1,0,0:0:0:0:
128,192,59267,1,0,0:0:0:0:
213,192,59528,128,0,59789:0:0:0:0:
384,192,59528,128,0,60310:0:0:0:0:
128,192,59854,1,0,0:0:0:0:
469,192,59919,128,0,60310:0:0:0:0:
42,192,59919,128,0,60310:0:0:0:0:
213,192,60571,128,0,60832:0:0:0:0:
469,192,60571,128,0,61354:0:0:0:0:
128,192,60897,1,0,0:0:0:0:
384,192,60963,128,0,61354:0:0:0:0:
42,192,60963,128,0,61354:0:0:0:0:
213,192,61615,128,0,61876:0:0:0:0:
384,192,61615,128,0,62397:0:0:0:0:
128,192,61941,1,0,0:0:0:0:
42,192,62006,128,0,62397:0:0:0:0:
469,192,62006,128,0,62397:0:0:0:0:
298,192,62658,1,0,0:0:0:0:
213,192,62658,1,0,0:0:0:0:
128,192,62658,1,0,0:0:0:0:
384,192,62658,1,0,0:0:0:0:
384,192,62919,1,0,0:0:0:0:
469,192,62919,1,0,0:0:0:0:
298,192,62919,1,0,0:0:0:0:
213,192,62919,1,0,0:0:0:0:
469,192,63180,1,0,0:0:0:0:
42,192,63180,1,0,0:0:0:0:
298,192,63310,1,0,0:0:0:0:
128,192,63441,1,0,0:0:0:0:
213,192,63702,128,0,63963:0:0:0:0:
298,192,63702,128,0,63963:0:0:0:0:
128,192,63963,128,0,64223:0:0:0:0:
384,192,63963,128,0,64223:0:0:0:0:
298,192,64223,128,0,64484:0:0:0:0:
213,192,64223,128,0,64484:0:0:0:0:
213,192,64745,1,0,0:0:0:0:
298,192,64745,1,0,0:0:0:0:
384,192,64810,1,0,0:0:0:0:
469,192,64876,1,0,0:0:0:0:
42,192,64941,1,0,0:0:0:0:
128,192,65006,1,0,0:0:0:0:
213,192,65071,1,0,0:0:0:0:
298,192,65136,1,0,0:0:0:0:
384,192,65202,1,0,0:0:0:0:
469,192,65267,1,0,0:0:0:0:
42,192,65789,128,0,66050:0:0:0:0:
213,192,65789,128,0,66050:0:0:0:0:
384,192,65789,128,0,66050:0:0:0:0:
469,192,66050,128,0,66310:0:0:0:0:
298,192,66050,128,0,66310:0:0:0:0:
128,192,66050,128,0,66310:0:0:0:0:
384,192,66310,128,0,66571:0:0:0:0:
213,192,66310,128,0,66571:0:0:0:0:
42,192,66310,128,0,66571:0:0:0:0:
42,192,66832,128,0,67093:0:0:0:0:
469,192,67093,1,0,0:0:0:0:
384,192,67223,1,0,0:0:0:0:
42,192,67354,128,0,67615:0:0:0:0:
469,192,67484,1,0,0:0:0:0:
384,192,67615,1,0,0:0:0:0:
42,192,67876,128,0,68136:0:0:0:0:
469,192,68136,1,0,0:0:0:0:
384,192,68267,1,0,0:0:0:0:
42,192,68397,128,0,68658:0:0:0:0:
469,192,68528,1,0,0:0:0:0:
384,192,68658,1,0,0:0:0:0:
384,192,68919,1,0,0:0:0:0:
128,192,68919,128,0,69180:0:0:0:0:
469,192,69050,1,0,0:0:0:0:
384,192,69115,1,0,0:0:0:0:
298,192,69180,1,0,0:0:0:0:
384,192,69441,1,0,0:0:0:0:
128,192,69441,128,0,69702:0:0:0:0:
469,192,69702,1,0,0:0:0:0:
298,192,69832,128,0,70484:0:0:0:0:
128,192,69963,128,0,70223:0:0:0:0:
128,192,70484,128,0,70745:0:0:0:0:
42,192,71006,128,0,71267:0:0:0:0:
469,192,71267,1,0,0:0:0:0:
384,192,71397,1,0,0:0:0:0:
42,192,71528,128,0,71789:0:0:0:0:
469,192,71658,1,0,0:0:0:0:
384,192,71789,1,0,0:0:0:0:
42,192,72050,128,0,72310:0:0:0:0:
469,192,72310,1,0,0:0:0:0:
384,192,72441,1,0,0:0:0:0:
42,192,72571,128,0,72832:0:0:0:0:
469,192,72702,1,0,0:0:0:0:
384,192,72832,1,0,0:0:0:0:
298,192,73093,1,0,0:0:0:0:
128,192,73093,128,0,73354:0:0:0:0:
298,192,73354,1,0,0:0:0:0:
469,192,73354,1,0,0:0:0:0:
128,192,73615,128,0,73876:0:0:0:0:
469,192,73615,1,0,0:0:0:0:
384,192,73745,1,0,0:0:0:0:
384,192,74006,1,0,0:0:0:0:
298,192,74136,128,0,74658:0:0:0:0:
128,192,74136,128,0,74397:0:0:0:0:
128,192,74658,128,0,74919:0:0:0:0:
213,192,75180,128,0,76745:0:0:0:0:
469,192,75441,1,0,0:0:0:0:
384,192,75571,1,0,0:0:0:0:
469,192,75832,1,0,0:0:0:0:
384,192,75963,1,0,0:0:0:0:
469,192,76484,1,0,0:0:0:0:
384,192,76615,1,0,0:0:0:0:
298,192,76745,128,0,76876:0:0:0:0:
469,192,76876,1,0,0:0:0:0:
213,192,76876,128,0,77006:0:0:0:0:
384,192,77006,1,0,0:0:0:0:
128,192,77006,128,0,77136:0:0:0:0:
42,192,77136,128,0,77267:0:0:0:0:
384,192,77267,1,0,0:0:0:0:
128,192,77267,128,0,78832:0:0:0:0:
469,192,77397,1,0,0:0:0:0:
384,192,77463,1,0,0:0:0:0:
298,192,77528,1,0,0:0:0:0:
384,192,77789,1,0,0:0:0:0:
469,192,78050,1,0,0:0:0:0:
298,192,78180,128,0,78832:0:0:0:0:
42,192,78832,128,0,78963:0:0:0:0:
128,192,78963,128,0,79093:0:0:0:0:
213,192,79093,128,0,79223:0:0:0:0:
298,192,79223,128,0,79354:0:0:0:0:
213,192,79354,128,0,80919:0:0:0:0:
469,192,79615,1,0,0:0:0:0:
384,192,79745,1,0,0:0:0:0:
469,192,80006,1,0,0:0:0:0:
384,192,80136,1,0,0:0:0:0:
469,192,80658,1,0,0:0:0:0:
384,192,80789,1,0,0:0:0:0:
298,192,80919,128,0,81441:0:0:0:0:
469,192,81050,1,0,0:0:0:0:
384,192,81180,1,0,0:0:0:0:
384,192,81441,1,0,0:0:0:0:
128,192,81441,128,0,83006:0:0:0:0:
298,192,81702,1,0,0:0:0:0:
469,192,81702,1,0,0:0:0:0:
469,192,81963,1,0,0:0:0:0:
469,192,82093,1,0,0:0:0:0:
384,192,82354,1,0,0:0:0:0:
298,192,82484,128,0,83006:0:0:0:0:
213,192,83006,128,0,83528:0:0:0:0:
128,192,83528,128,0,83789:0:0:0:0:
42,192,83789,1,0,0:0:0:0:
128,192,84050,128,0,84310:0:0:0:0:
42,192,84310,1,0,0:0:0:0:
128,192,84571,128,0,84832:0:0:0:0:
42,192,84832,1,0,0:0:0:0:
213,192,85093,128,0,85354:0:0:0:0:
128,192,85354,128,0,85615:0:0:0:0:
42,192,85615,128,0,85876:0:0:0:0:
128,192,85876,1,0,0:0:0:0:
42,192,86136,128,0,86397:0:0:0:0:
128,192,86397,1,0,0:0:0:0:
42,192,86658,128,0,86919:0:0:0:0:
128,192,86919,1,0,0:0:0:0:
42,192,87180,128,0,87441:0:0:0:0:
128,192,87441,128,0,87702:0:0:0:0:
213,192,87702,128,0,87963:0:0:0:0:
128,192,87963,1,0,0:0:0:0:
213,192,88223,128,0,88484:0:0:0:0:
128,192,88484,1,0,0:0:0:0:
213,192,88745,128,0,89006:0:0:0:0:
128,192,89006,1,0,0:0:0:0:
298,192,89267,128,0,89528:0:0:0:0:
384,192,89528,1,0,0:0:0:0:
213,192,89789,128,0,90050:0:0:0:0:
128,192,90050,1,0,0:0:0:0:
298,192,90115,1,0,0:0:0:0:
384,192,90180,1,0,0:0:0:0:
469,192,90245,1,0,0:0:0:0:
384,192,90506,128,0,90702:0:0:0:0:
469,192,90702,128,0,90897:0:0:0:0:
213,192,91093,128,0,91289:0:0:0:0:
298,192,91223,128,0,91419:0:0:0:0:
384,192,91354,128,0,91550:0:0:0:0:
128,192,91876,128,0,92136:0:0:0:0:
42,192,92136,1,0,0:0:0:0:
128,192,92397,128,0,92658:0:0:0:0:
42,192,92658,1,0,0:0:0:0:
128,192,92919,128,0,93180:0:0:0:0:
42,192,93180,1,0,0:0:0:0:
213,192,93441,128,0,93702:0:0:0:0:
128,192,93702,128,0,93963:0:0:0:0:
42,192,93963,128,0,94223:0:0:0:0:
128,192,94223,1,0,0:0:0:0:
42,192,94484,128,0,94745:0:0:0:0:
128,192,94745,1,0,0:0:0:0:
42,192,95006,128,0,95267:0:0:0:0:
128,192,95267,1,0,0:0:0:0:
42,192,95528,128,0,95789:0:0:0:0:
128,192,95789,128,0,96050:0:0:0:0:
213,192,96050,128,0,96310:0:0:0:0:
298,192,96310,1,0,0:0:0:0:
298,192,96571,128,0,96832:0:0:0:0:
384,192,96571,128,0,96832:0:0:0:0:
213,192,96832,1,0,0:0:0:0:
128,192,97093,128,0,97354:0:0:0:0:
213,192,97093,128,0,97354:0:0:0:0:
298,192,97354,1,0,0:0:0:0:
128,192,98136,1,0,0:0:0:0:
384,192,98136,1,0,0:0:0:0:
42,192,98136,1,0,0:0:0:0:
469,192,98136,1,0,0:0:0:0:
384,192,98397,1,0,0:0:0:0:
128,192,98397,1,0,0:0:0:0:
469,192,98397,1,0,0:0:0:0:
42,192,98397,1,0,0:0:0:0:
298,192,98658,1,0,0:0:0:0:
213,192,98789,1,0,0:0:0:0:
128,192,98789,1,0,0:0:0:0:
213,192,99050,1,0,0:0:0:0:
298,192,99180,1,0,0:0:0:0:
384,192,99180,1,0,0:0:0:0:
298,192,99571,128,0,99963:0:0:0:0:
213,192,99571,128,0,99963:0:0:0:0:
384,192,99636,128,0,99963:0:0:0:0:
128,192,99636,128,0,99963:0:0:0:0:
42,192,99702,128,0,99963:0:0:0:0:
469,192,99702,128,0,99963:0:0:0:0:
128,192,100223,1,0,0:0:0:0:
213,192,100223,1,0,0:0:0:0:
298,192,100223,1,0,0:0:0:0:
384,192,100223,1,0,0:0:0:0:
