osu file format v14

[General]
AudioFilename: audio.mp3
AudioLeadIn: 0
PreviewTime: 33357
Countdown: 0
SampleSet: Soft
StackLeniency: 0.7
Mode: 3
LetterboxInBreaks: 0
SpecialStyle: 0
WidescreenStoryboard: 1

[Editor]
DistanceSpacing: 0.8
BeatDivisor: 4
GridSize: 32
TimelineZoom: 0.6999999

[Metadata]
Title:Spider Dance
TitleUnicode:Spider Dance
Artist:Toby Fox
ArtistUnicode:Toby Fox
Creator:DarkSider2442
Version:7K Easy
Source:Undertale
Tags:Muffet
BeatmapID:958773
BeatmapSetID:423741

[Difficulty]
HPDrainRate:6
CircleSize:7
OverallDifficulty:7
ApproachRate:5
SliderMultiplier:1.4
SliderTickRate:1

[Events]
//Background and Video events
0,0,"55335128_p0.jpg",0,0
//Break Periods
//Storyboard Layer 0 (Background)
//Storyboard Layer 1 (Fail)
//Storyboard Layer 2 (Pass)
//Storyboard Layer 3 (Foreground)
//Storyboard Sound Samples

[TimingPoints]
0,521.739130434783,4,2,0,5,1,0
227,521.739130434783,4,2,0,5,1,0

[HitObjects]
182,192,227,5,0,0:0:0:0:
36,192,748,1,0,0:0:0:0:
182,192,1270,1,0,0:0:0:0:
36,192,1792,1,0,0:0:0:0:
109,192,2313,1,0,0:0:0:0:
256,192,2835,1,0,0:0:0:0:
402,192,3357,1,0,0:0:0:0:
475,192,3879,1,0,0:0:0:0:
329,192,4400,1,0,0:0:0:0:
182,192,4922,1,0,0:0:0:0:
36,192,5444,1,0,0:0:0:0:
109,192,5966,1,0,0:0:0:0:
182,192,6227,1,0,0:0:0:0:
329,192,7009,1,0,0:0:0:0:
329,192,7270,128,0,7792:0:0:0:0:
402,192,8313,1,0,0:0:0:0:
329,192,8574,1,0,0:0:0:0:
182,192,9096,1,0,0:0:0:0:
36,192,9618,1,0,0:0:0:0:
109,192,10140,1,0,0:0:0:0:
329,192,10661,1,0,0:0:0:0:
256,192,11183,1,0,0:0:0:0:
182,192,11705,1,0,0:0:0:0:
402,192,12227,1,0,0:0:0:0:
475,192,12748,1,0,0:0:0:0:
36,192,13270,1,0,0:0:0:0:
402,192,13792,1,0,0:0:0:0:
109,192,14313,1,0,0:0:0:0:
256,192,14574,1,0,0:0:0:0:
256,192,15357,1,0,0:0:0:0:
256,192,15618,128,0,16140:0:0:0:0:
329,192,16661,1,0,0:0:0:0:
182,192,16922,1,0,0:0:0:0:
109,192,17444,1,0,0:0:0:0:
256,192,17966,1,0,0:0:0:0:
475,192,18487,1,0,0:0:0:0:
329,192,19009,1,0,0:0:0:0:
36,192,19531,1,0,0:0:0:0:
182,192,20053,1,0,0:0:0:0:
475,192,20574,1,0,0:0:0:0:
256,192,21096,1,0,0:0:0:0:
36,192,21618,1,0,0:0:0:0:
256,192,22140,1,0,0:0:0:0:
475,192,22661,1,0,0:0:0:0:
402,192,22922,1,0,0:0:0:0:
109,192,23705,1,0,0:0:0:0:
109,192,23966,128,0,24357:0:0:0:0:
182,192,25009,1,0,0:0:0:0:
329,192,25270,1,0,0:0:0:0:
402,192,25792,1,0,0:0:0:0:
475,192,26313,1,0,0:0:0:0:
256,192,26835,1,0,0:0:0:0:
36,192,27357,1,0,0:0:0:0:
402,192,27879,1,0,0:0:0:0:
109,192,28400,1,0,0:0:0:0:
329,192,28922,1,0,0:0:0:0:
182,192,29444,1,0,0:0:0:0:
36,192,29966,1,0,0:0:0:0:
475,192,30487,1,0,0:0:0:0:
329,192,31009,1,0,0:0:0:0:
36,192,31270,1,0,0:0:0:0:
182,192,31531,1,0,0:0:0:0:
329,192,31792,1,0,0:0:0:0:
475,192,32053,1,0,0:0:0:0:
109,192,32313,1,0,0:0:0:0:
256,192,32574,1,0,0:0:0:0:
402,192,32835,128,0,33357:0:0:0:0:
182,192,33357,1,0,0:0:0:0:
182,192,33879,1,0,0:0:0:0:
329,192,34400,1,0,0:0:0:0:
329,192,34922,1,0,0:0:0:0:
402,192,35444,1,0,0:0:0:0:
402,192,35966,1,0,0:0:0:0:
109,192,36487,1,0,0:0:0:0:
109,192,37009,1,0,0:0:0:0:
36,192,37531,1,0,0:0:0:0:
36,192,38053,1,0,0:0:0:0:
475,192,38574,1,0,0:0:0:0:
475,192,39096,1,0,0:0:0:0:
402,192,39618,1,0,0:0:0:0:
402,192,40140,1,0,0:0:0:0:
256,192,40661,1,0,0:0:0:0:
256,192,41183,1,0,0:0:0:0:
182,192,41705,1,0,0:0:0:0:
36,192,42227,1,0,0:0:0:0:
329,192,42748,1,0,0:0:0:0:
182,192,43270,1,0,0:0:0:0:
475,192,43792,1,0,0:0:0:0:
329,192,44313,1,0,0:0:0:0:
475,192,44835,1,0,0:0:0:0:
256,192,45357,1,0,0:0:0:0:
36,192,45879,1,0,0:0:0:0:
329,192,46400,1,0,0:0:0:0:
109,192,46922,1,0,0:0:0:0:
402,192,47444,1,0,0:0:0:0:
182,192,47966,1,0,0:0:0:0:
475,192,48487,1,0,0:0:0:0:
402,192,49009,1,0,0:0:0:0:
329,192,49531,1,0,0:0:0:0:
36,192,50053,1,0,0:0:0:0:
182,192,50574,1,0,0:0:0:0:
475,192,51096,1,0,0:0:0:0:
329,192,51618,1,0,0:0:0:0:
182,192,52140,1,0,0:0:0:0:
256,192,52400,1,0,0:0:0:0:
329,192,52661,1,0,0:0:0:0:
109,192,53183,1,0,0:0:0:0:
402,192,53705,1,0,0:0:0:0:
256,192,54227,1,0,0:0:0:0:
182,192,54748,1,0,0:0:0:0:
329,192,55270,1,0,0:0:0:0:
36,192,55792,1,0,0:0:0:0:
256,192,56053,1,0,0:0:0:0:
475,192,56313,1,0,0:0:0:0:
182,192,56835,1,0,0:0:0:0:
329,192,57357,1,0,0:0:0:0:
109,192,57879,1,0,0:0:0:0:
402,192,58400,1,0,0:0:0:0:
329,192,58922,1,0,0:0:0:0:
109,192,59444,1,0,0:0:0:0:
182,192,59966,1,0,0:0:0:0:
402,192,60487,1,0,0:0:0:0:
475,192,61009,1,0,0:0:0:0:
109,192,61531,1,0,0:0:0:0:
36,192,62053,1,0,0:0:0:0:
256,192,62574,1,0,0:0:0:0:
402,192,63096,1,0,0:0:0:0:
182,192,63618,1,0,0:0:0:0:
329,192,64140,1,0,0:0:0:0:
475,192,64661,1,0,0:0:0:0:
402,192,65183,1,0,0:0:0:0:
329,192,65705,1,0,0:0:0:0:
182,192,65966,1,0,0:0:0:0:
36,192,66227,1,0,0:0:0:0:
256,192,67009,1,0,0:0:0:0:
182,192,67400,1,0,0:0:0:0:
329,192,68053,1,0,0:0:0:0:
256,192,68444,1,0,0:0:0:0:
402,192,68835,1,0,0:0:0:0:
109,192,69096,1,0,0:0:0:0:
475,192,69357,1,0,0:0:0:0:
475,192,69748,128,0,70400:0:0:0:0:
109,192,71183,1,0,0:0:0:0:
36,192,71574,1,0,0:0:0:0:
256,192,72227,1,0,0:0:0:0:
182,192,72618,1,0,0:0:0:0:
402,192,73009,1,0,0:0:0:0:
256,192,73270,1,0,0:0:0:0:
109,192,73531,1,0,0:0:0:0:
109,192,74053,128,0,74574:0:0:0:0:
475,192,75096,128,0,76661:0:0:0:0:
329,192,76661,1,0,0:0:0:0:
182,192,76922,1,0,0:0:0:0:
36,192,77183,128,0,78748:0:0:0:0:
182,192,78748,1,0,0:0:0:0:
329,192,79009,1,0,0:0:0:0:
475,192,79270,128,0,80835:0:0:0:0:
109,192,80835,128,0,81357:0:0:0:0:
402,192,81357,128,0,82400:0:0:0:0:
256,192,82400,128,0,83444:0:0:0:0:
475,192,83444,1,0,0:0:0:0:
329,192,83966,1,0,0:0:0:0:
475,192,84487,1,0,0:0:0:0:
329,192,85009,1,0,0:0:0:0:
256,192,85270,1,0,0:0:0:0:
182,192,85531,1,0,0:0:0:0:
36,192,86053,1,0,0:0:0:0:
182,192,86574,1,0,0:0:0:0:
329,192,87096,1,0,0:0:0:0:
256,192,87357,1,0,0:0:0:0:
182,192,87618,1,0,0:0:0:0:
402,192,88140,1,0,0:0:0:0:
109,192,88661,1,0,0:0:0:0:
329,192,89183,1,0,0:0:0:0:
475,192,89705,1,0,0:0:0:0:
402,192,90227,1,0,0:0:0:0:
329,192,90748,1,0,0:0:0:0:
36,192,91009,1,0,0:0:0:0:
182,192,91270,1,0,0:0:0:0:
329,192,91792,1,0,0:0:0:0:
402,192,92313,1,0,0:0:0:0:
329,192,92835,1,0,0:0:0:0:
36,192,93357,1,0,0:0:0:0:
329,192,93618,1,0,0:0:0:0:
182,192,93879,1,0,0:0:0:0:
109,192,94400,1,0,0:0:0:0:
182,192,94922,1,0,0:0:0:0:
475,192,95444,1,0,0:0:0:0:
182,192,95705,1,0,0:0:0:0:
329,192,95966,1,0,0:0:0:0:
402,192,96487,1,0,0:0:0:0:
109,192,97009,1,0,0:0:0:0:
475,192,97531,1,0,0:0:0:0:
256,192,98053,1,0,0:0:0:0:
109,192,98574,1,0,0:0:0:0:
329,192,99096,128,0,100140:0:0:0:0:
182,192,99618,128,0,100140:0:0:0:0:
