osu file format v14

[General]
AudioFilename: audio.mp3
AudioLeadIn: 0
PreviewTime: 11640
Countdown: 0
SampleSet: Normal
StackLeniency: 0.6
Mode: 1
LetterboxInBreaks: 0
WidescreenStoryboard: 0

[Editor]
Bookmarks: 41679
DistanceSpacing: 0.8
BeatDivisor: 4
GridSize: 32
TimelineZoom: 2.2

[Metadata]
Title:Spear of Justice
TitleUnicode:Spear of Justice
Artist:Toby Fox
ArtistUnicode:Toby Fox
Creator:skildfrix
Version:Oni
Source:UNDERTALE
Tags:undertale toby fox spear of justice undyne boss ost batlle ost
BeatmapID:986247
BeatmapSetID:460525

[Difficulty]
HPDrainRate:6
CircleSize:3
OverallDifficulty:8
ApproachRate:10
SliderMultiplier:1.4
SliderTickRate:1

[Events]
//Background and Video events
0,0,"undyne.jpg",0,0
//Break Periods
//Storyboard Layer 0 (Background)
//Storyboard Layer 1 (Fail)
//Storyboard Layer 2 (Pass)
//Storyboard Layer 3 (Foreground)
//Storyboard Sound Samples

[TimingPoints]
690,228.136882129278,4,1,0,70,1,0
11640,-100,4,1,0,70,0,1
22534,-100,4,1,0,70,0,0
22591,-90.9090909090909,4,1,0,70,0,1
37191,-133.333333333333,4,1,0,70,0,0
48427,-100,4,1,0,70,0,0
59549,-133.333333333333,4,1,0,70,0,0
70499,-100,4,1,0,70,0,0
81450,-133.333333333333,4,1,0,70,0,0

[HitObjects]
384,96,690,5,6,0:0:0:0:
160,128,1032,1,0,0:0:0:0:
352,288,1260,1,8,0:0:0:0:
192,128,1374,1,0,0:0:0:0:
160,96,1602,1,0,0:0:0:0:
320,288,1830,1,8,0:0:0:0:
384,64,2058,5,14,0:0:0:0:
160,128,2401,1,0,0:0:0:0:
320,288,2629,1,8,0:0:0:0:
192,128,2743,1,0,0:0:0:0:
192,128,2971,1,0,0:0:0:0:
320,288,3199,1,8,0:0:0:0:
352,128,3427,1,6,0:0:0:0:
128,128,3769,1,0,0:0:0:0:
352,288,3997,1,8,0:0:0:0:
160,128,4112,1,0,0:0:0:0:
160,128,4340,1,0,0:0:0:0:
160,128,4568,1,0,0:0:0:0:
128,288,4796,1,4,0:0:0:0:
352,288,5024,1,8,0:0:0:0:
160,128,5252,1,0,0:0:0:0:
160,288,5480,1,4,0:0:0:0:
352,288,5709,1,8,0:0:0:0:
160,128,5937,1,0,0:0:0:0:
352,96,6165,1,6,0:0:0:0:
160,128,6507,5,0,0:0:0:0:
352,288,6735,1,8,0:0:0:0:
192,128,6849,1,0,0:0:0:0:
160,96,7077,1,0,0:0:0:0:
320,288,7305,1,8,0:0:0:0:
384,64,7534,5,14,0:0:0:0:
160,128,7876,1,0,0:0:0:0:
320,288,8104,1,8,0:0:0:0:
192,128,8218,1,0,0:0:0:0:
192,128,8446,1,0,0:0:0:0:
320,288,8674,1,8,0:0:0:0:
352,128,8902,1,6,0:0:0:0:
128,128,9245,1,0,0:0:0:0:
352,288,9473,1,8,0:0:0:0:
160,128,9587,1,0,0:0:0:0:
160,128,9815,1,0,0:0:0:0:
160,128,10043,1,0,0:0:0:0:
128,288,10271,1,4,0:0:0:0:
352,288,10499,1,8,0:0:0:0:
160,128,10728,1,0,0:0:0:0:
160,288,10956,1,4,0:0:0:0:
352,288,11184,1,8,0:0:0:0:
160,128,11412,1,0,0:0:0:0:
352,96,11640,1,6,0:0:0:0:
160,128,11982,5,0,0:0:0:0:
160,64,12096,1,0,0:0:0:0:
352,288,12210,1,8,0:0:0:0:
352,256,12324,1,8,0:0:0:0:
128,128,12439,1,0,0:0:0:0:
320,288,12553,1,8,0:0:0:0:
128,96,12667,1,0,0:0:0:0:
320,288,12781,1,8,0:0:0:0:
96,128,12895,1,0,0:0:0:0:
384,256,13009,5,8,0:0:0:0:
160,128,13351,1,0,0:0:0:0:
96,128,13465,1,0,0:0:0:0:
320,288,13579,1,8,0:0:0:0:
192,128,13693,1,0,0:0:0:0:
128,128,13807,1,0,0:0:0:0:
352,288,13921,1,8,0:0:0:0:
128,128,14036,1,0,0:0:0:0:
320,288,14150,1,8,0:0:0:0:
96,128,14264,1,0,0:0:0:0:
352,256,14378,1,8,0:0:0:0:
128,128,14720,1,0,0:0:0:0:
128,96,14834,1,0,0:0:0:0:
352,288,14948,1,8,0:0:0:0:
160,128,15062,1,0,0:0:0:0:
128,128,15176,1,0,0:0:0:0:
160,128,15290,1,0,0:0:0:0:
128,128,15404,1,0,0:0:0:0:
352,288,15518,1,8,0:0:0:0:
384,256,15747,1,8,0:0:0:0:
160,128,15861,1,0,0:0:0:0:
384,288,15975,1,8,0:0:0:0:
160,128,16089,1,0,0:0:0:0:
320,256,16203,1,8,0:0:0:0:
160,128,16317,1,0,0:0:0:0:
192,128,16431,1,0,0:0:0:0:
192,128,16545,1,0,0:0:0:0:
352,288,16659,1,8,0:0:0:0:
160,128,16773,1,0,0:0:0:0:
352,288,16887,1,8,0:0:0:0:
160,128,17001,1,0,0:0:0:0:
352,96,17115,1,12,0:0:0:0:
160,128,17458,5,0,0:0:0:0:
160,64,17572,1,0,0:0:0:0:
352,288,17686,1,8,0:0:0:0:
192,128,17800,1,0,0:0:0:0:
128,128,17914,1,0,0:0:0:0:
160,96,18028,1,0,0:0:0:0:
128,96,18142,1,0,0:0:0:0:
320,288,18256,1,8,0:0:0:0:
96,128,18370,1,0,0:0:0:0:
384,256,18484,5,8,0:0:0:0:
160,128,18826,1,0,0:0:0:0:
96,128,18940,1,0,0:0:0:0:
320,288,19055,1,8,0:0:0:0:
192,128,19169,1,0,0:0:0:0:
128,128,19283,1,0,0:0:0:0:
192,128,19397,1,0,0:0:0:0:
128,128,19511,1,0,0:0:0:0:
320,288,19625,1,8,0:0:0:0:
96,128,19739,1,0,0:0:0:0:
352,256,19853,1,8,0:0:0:0:
128,128,20195,1,0,0:0:0:0:
128,96,20309,1,0,0:0:0:0:
352,288,20423,1,8,0:0:0:0:
160,128,20537,1,0,0:0:0:0:
128,128,20651,1,0,0:0:0:0:
160,128,20766,1,8,0:0:0:0:
128,128,20880,1,0,0:0:0:0:
352,288,20994,1,0,0:0:0:0:
128,288,21222,1,0,0:0:0:0:
160,128,21336,1,0,0:0:0:0:
352,288,21450,1,8,0:0:0:0:
160,128,21564,1,0,0:0:0:0:
160,128,21678,1,0,0:0:0:0:
160,128,21792,1,0,0:0:0:0:
192,128,21906,1,0,0:0:0:0:
192,128,22020,1,0,0:0:0:0:
352,288,22134,1,8,0:0:0:0:
160,128,22248,1,0,0:0:0:0:
320,256,22363,1,8,0:0:0:0:
320,288,22477,1,8,0:0:0:0:
352,96,22591,1,6,0:0:0:0:
160,128,22933,5,0,0:0:0:0:
160,64,23047,1,0,0:0:0:0:
352,288,23161,1,8,0:0:0:0:
192,128,23275,1,0,0:0:0:0:
128,128,23389,1,0,0:0:0:0:
160,96,23503,1,0,0:0:0:0:
128,96,23617,1,0,0:0:0:0:
320,288,23731,1,8,0:0:0:0:
96,128,23845,1,0,0:0:0:0:
384,256,23959,5,8,0:0:0:0:
160,128,24302,1,0,0:0:0:0:
96,128,24416,1,0,0:0:0:0:
320,288,24530,1,8,0:0:0:0:
192,128,24644,1,0,0:0:0:0:
128,128,24758,1,0,0:0:0:0:
192,128,24872,1,0,0:0:0:0:
128,128,24986,1,0,0:0:0:0:
320,288,25100,1,8,0:0:0:0:
96,128,25214,1,0,0:0:0:0:
352,256,25328,1,8,0:0:0:0:
128,128,25670,1,0,0:0:0:0:
128,96,25785,1,0,0:0:0:0:
352,288,25899,1,8,0:0:0:0:
160,128,26013,1,0,0:0:0:0:
128,128,26127,1,0,0:0:0:0:
160,128,26241,1,0,0:0:0:0:
128,128,26355,1,0,0:0:0:0:
352,288,26469,1,8,0:0:0:0:
128,288,26697,1,0,0:0:0:0:
160,128,26811,1,0,0:0:0:0:
352,288,26925,1,8,0:0:0:0:
160,128,27039,1,0,0:0:0:0:
160,128,27153,1,8,0:0:0:0:
160,128,27267,1,0,0:0:0:0:
192,128,27382,1,0,0:0:0:0:
192,128,27496,1,0,0:0:0:0:
352,288,27610,1,8,0:0:0:0:
160,128,27724,1,0,0:0:0:0:
160,128,27838,1,0,0:0:0:0:
160,128,27952,1,0,0:0:0:0:
352,96,28066,1,6,0:0:0:0:
160,128,28408,5,0,0:0:0:0:
160,64,28522,1,0,0:0:0:0:
352,288,28636,1,8,0:0:0:0:
192,128,28750,1,0,0:0:0:0:
128,128,28864,1,0,0:0:0:0:
160,96,28978,1,0,0:0:0:0:
128,96,29093,1,0,0:0:0:0:
320,288,29207,1,8,0:0:0:0:
96,128,29321,1,0,0:0:0:0:
384,256,29435,5,8,0:0:0:0:
160,128,29777,1,0,0:0:0:0:
96,128,29891,1,0,0:0:0:0:
320,288,30005,1,8,0:0:0:0:
192,128,30119,1,0,0:0:0:0:
128,128,30233,1,0,0:0:0:0:
192,128,30347,1,0,0:0:0:0:
128,128,30461,1,0,0:0:0:0:
320,288,30575,1,8,0:0:0:0:
96,128,30690,1,0,0:0:0:0:
352,256,30804,1,8,0:0:0:0:
128,128,31146,1,0,0:0:0:0:
128,96,31260,1,0,0:0:0:0:
352,288,31374,1,8,0:0:0:0:
160,128,31488,1,0,0:0:0:0:
128,128,31602,1,0,0:0:0:0:
160,128,31716,1,0,0:0:0:0:
128,128,31830,1,0,0:0:0:0:
352,288,31944,1,8,0:0:0:0:
128,288,32172,1,0,0:0:0:0:
160,128,32286,1,0,0:0:0:0:
352,288,32401,1,8,0:0:0:0:
384,320,32515,1,8,0:0:0:0:
160,128,32629,1,0,0:0:0:0:
160,128,32743,1,0,0:0:0:0:
192,128,32857,1,0,0:0:0:0:
192,128,32971,1,0,0:0:0:0:
352,288,33085,1,8,0:0:0:0:
160,128,33199,1,0,0:0:0:0:
320,256,33313,1,8,0:0:0:0:
160,96,33427,1,0,0:0:0:0:
416,320,33541,1,8,0:0:0:0:
320,256,33769,1,8,0:0:0:0:
128,128,33997,1,0,0:0:0:0:
160,128,34226,1,0,0:0:0:0:
320,256,34454,1,8,0:0:0:0:
320,256,34682,1,8,0:0:0:0:
384,320,34910,1,8,0:0:0:0:
192,128,35138,1,0,0:0:0:0:
160,96,35366,1,0,0:0:0:0:
192,128,35594,1,0,0:0:0:0:
160,128,35823,1,0,0:0:0:0:
352,256,36051,1,8,0:0:0:0:
160,128,36279,1,4,0:0:0:0:
320,256,36507,1,8,0:0:0:0:
160,128,36735,1,0,0:0:0:0:
320,256,36963,1,6,0:0:0:0:
192,192,37191,2,0,L|352:192,1,157.500006008148
128,96,37648,1,0,0:0:0:0:
160,96,37762,1,0,0:0:0:0:
320,256,37876,1,8,0:0:0:0:
192,128,37990,1,0,0:0:0:0:
160,128,38104,1,0,0:0:0:0:
320,256,38218,1,8,0:0:0:0:
128,128,38332,1,0,0:0:0:0:
160,128,38560,1,0,0:0:0:0:
320,288,38674,1,8,0:0:0:0:
352,288,38788,1,8,0:0:0:0:
128,128,38902,1,0,0:0:0:0:
320,256,39016,1,8,0:0:0:0:
128,96,39245,1,0,0:0:0:0:
384,256,39359,1,8,0:0:0:0:
320,288,39587,1,8,0:0:0:0:
96,128,39701,1,0,0:0:0:0:
160,128,39929,1,0,0:0:0:0:
320,288,40043,1,8,0:0:0:0:
384,288,40157,1,8,0:0:0:0:
320,288,40271,1,8,0:0:0:0:
128,128,40385,1,0,0:0:0:0:
160,128,40613,1,0,0:0:0:0:
352,288,40728,1,8,0:0:0:0:
128,128,40956,1,0,0:0:0:0:
320,256,41070,1,8,0:0:0:0:
160,128,41298,1,0,0:0:0:0:
128,128,41526,1,0,0:0:0:0:
192,128,41754,1,0,0:0:0:0:
320,288,41868,1,8,0:0:0:0:
288,256,41982,1,8,0:0:0:0:
192,128,42096,1,0,0:0:0:0:
352,288,42324,1,8,0:0:0:0:
160,128,42439,1,0,0:0:0:0:
160,128,42667,1,0,0:0:0:0:
160,128,42895,5,0,0:0:0:0:
320,288,43009,1,8,0:0:0:0:
160,128,43123,1,0,0:0:0:0:
192,128,43237,1,0,0:0:0:0:
128,128,43351,1,0,0:0:0:0:
320,288,43465,1,8,0:0:0:0:
160,128,43579,1,0,0:0:0:0:
352,288,43693,1,8,0:0:0:0:
128,96,43807,1,0,0:0:0:0:
320,256,44036,1,8,0:0:0:0:
160,96,44150,1,0,0:0:0:0:
320,256,44264,1,8,0:0:0:0:
128,96,44378,1,0,0:0:0:0:
352,288,44492,1,8,0:0:0:0:
160,128,44720,1,0,0:0:0:0:
384,256,44834,1,8,0:0:0:0:
384,320,45062,1,8,0:0:0:0:
160,128,45176,1,0,0:0:0:0:
128,128,45404,1,0,0:0:0:0:
160,96,45518,1,0,0:0:0:0:
352,288,45632,1,8,0:0:0:0:
320,288,45747,1,8,0:0:0:0:
96,128,45861,1,0,0:0:0:0:
128,128,46089,1,0,0:0:0:0:
320,288,46203,1,8,0:0:0:0:
128,128,46431,1,0,0:0:0:0:
320,288,46545,1,8,0:0:0:0:
352,320,46773,1,8,0:0:0:0:
160,128,47001,1,0,0:0:0:0:
352,288,47229,1,8,0:0:0:0:
320,256,47343,1,8,0:0:0:0:
128,128,47458,1,0,0:0:0:0:
128,128,47572,1,0,0:0:0:0:
352,288,47800,1,8,0:0:0:0:
160,128,47914,1,0,0:0:0:0:
128,128,48142,1,0,0:0:0:0:
128,128,48256,1,0,0:0:0:0:
128,128,48370,1,0,0:0:0:0:
160,128,48484,1,0,0:0:0:0:
352,96,48598,5,12,0:0:0:0:
160,128,48826,1,0,0:0:0:0:
352,288,48940,1,8,0:0:0:0:
160,128,49169,1,0,0:0:0:0:
352,128,49283,1,12,0:0:0:0:
160,128,49511,1,0,0:0:0:0:
352,288,49625,1,8,0:0:0:0:
160,128,49739,1,0,0:0:0:0:
352,288,49853,1,8,0:0:0:0:
160,128,49967,1,0,0:0:0:0:
160,128,50195,1,0,0:0:0:0:
384,288,50309,1,8,0:0:0:0:
160,288,50651,1,4,0:0:0:0:
128,288,50880,1,4,0:0:0:0:
128,288,51108,1,4,0:0:0:0:
352,96,51336,1,12,0:0:0:0:
160,128,51564,1,0,0:0:0:0:
352,288,51678,1,8,0:0:0:0:
160,128,51906,1,0,0:0:0:0:
352,96,52020,1,12,0:0:0:0:
160,128,52248,1,0,0:0:0:0:
352,288,52363,1,8,0:0:0:0:
160,128,52477,1,0,0:0:0:0:
352,288,52591,1,8,0:0:0:0:
160,128,52705,1,0,0:0:0:0:
160,128,52933,1,0,0:0:0:0:
352,288,53047,1,8,0:0:0:0:
160,288,53389,1,4,0:0:0:0:
96,288,53617,1,4,0:0:0:0:
352,96,53845,1,12,0:0:0:0:
352,96,54074,1,12,0:0:0:0:
160,128,54302,1,0,0:0:0:0:
352,288,54416,1,8,0:0:0:0:
160,128,54644,1,0,0:0:0:0:
352,128,54758,1,12,0:0:0:0:
160,128,54986,1,0,0:0:0:0:
352,288,55100,1,8,0:0:0:0:
160,128,55214,1,0,0:0:0:0:
352,288,55328,1,8,0:0:0:0:
160,128,55442,1,0,0:0:0:0:
160,128,55670,1,0,0:0:0:0:
384,288,55785,1,8,0:0:0:0:
160,288,56127,1,4,0:0:0:0:
128,288,56355,1,4,0:0:0:0:
128,288,56583,1,4,0:0:0:0:
352,96,56811,1,12,0:0:0:0:
160,128,57039,1,0,0:0:0:0:
352,288,57153,1,8,0:0:0:0:
160,128,57382,1,0,0:0:0:0:
352,96,57496,1,12,0:0:0:0:
160,128,57724,1,0,0:0:0:0:
352,288,57838,1,8,0:0:0:0:
160,128,57952,1,0,0:0:0:0:
352,288,58066,1,8,0:0:0:0:
160,128,58180,1,0,0:0:0:0:
160,128,58408,1,0,0:0:0:0:
352,288,58522,1,8,0:0:0:0:
160,288,58864,1,4,0:0:0:0:
96,288,59093,1,4,0:0:0:0:
192,288,59321,1,4,0:0:0:0:
128,96,59549,5,0,0:0:0:0:
160,96,59663,1,0,0:0:0:0:
320,256,59777,1,8,0:0:0:0:
192,128,59891,1,0,0:0:0:0:
160,128,60005,1,0,0:0:0:0:
320,256,60119,1,8,0:0:0:0:
128,128,60233,1,0,0:0:0:0:
160,128,60461,1,0,0:0:0:0:
320,288,60575,1,8,0:0:0:0:
352,288,60690,1,8,0:0:0:0:
128,128,60804,1,0,0:0:0:0:
320,256,60918,1,8,0:0:0:0:
128,96,61146,1,0,0:0:0:0:
384,256,61260,1,8,0:0:0:0:
320,288,61488,1,8,0:0:0:0:
96,128,61602,1,0,0:0:0:0:
160,128,61830,1,0,0:0:0:0:
320,288,61944,1,8,0:0:0:0:
384,288,62058,1,8,0:0:0:0:
320,288,62172,1,8,0:0:0:0:
128,128,62286,1,0,0:0:0:0:
128,96,62515,1,0,0:0:0:0:
352,288,62629,1,8,0:0:0:0:
128,128,62857,1,0,0:0:0:0:
320,256,62971,1,8,0:0:0:0:
160,128,63199,1,0,0:0:0:0:
128,128,63427,1,0,0:0:0:0:
192,128,63655,1,0,0:0:0:0:
320,288,63769,1,8,0:0:0:0:
320,256,63883,1,8,0:0:0:0:
192,128,63997,1,0,0:0:0:0:
352,288,64226,1,8,0:0:0:0:
160,128,64340,1,0,0:0:0:0:
160,128,64568,1,0,0:0:0:0:
160,128,64796,5,0,0:0:0:0:
320,288,64910,1,8,0:0:0:0:
160,128,65024,1,0,0:0:0:0:
192,128,65138,1,0,0:0:0:0:
128,128,65252,1,0,0:0:0:0:
320,288,65366,1,8,0:0:0:0:
160,128,65480,1,0,0:0:0:0:
352,288,65594,1,8,0:0:0:0:
128,96,65709,1,0,0:0:0:0:
320,256,65937,1,0,0:0:0:0:
352,288,66051,1,8,0:0:0:0:
320,256,66165,1,8,0:0:0:0:
128,96,66279,1,0,0:0:0:0:
352,288,66393,1,8,0:0:0:0:
160,128,66621,1,0,0:0:0:0:
384,256,66735,1,8,0:0:0:0:
384,320,66963,1,8,0:0:0:0:
160,128,67077,1,0,0:0:0:0:
128,128,67305,1,0,0:0:0:0:
160,96,67420,1,0,0:0:0:0:
352,288,67534,1,8,0:0:0:0:
320,288,67648,1,8,0:0:0:0:
96,128,67762,1,0,0:0:0:0:
128,128,67990,1,0,0:0:0:0:
320,288,68104,1,8,0:0:0:0:
128,128,68332,1,0,0:0:0:0:
320,288,68446,1,8,0:0:0:0:
352,320,68674,1,8,0:0:0:0:
160,128,68902,1,0,0:0:0:0:
352,288,69131,1,8,0:0:0:0:
320,256,69245,1,8,0:0:0:0:
128,128,69359,1,0,0:0:0:0:
128,128,69473,1,0,0:0:0:0:
352,288,69701,1,8,0:0:0:0:
160,128,69815,1,0,0:0:0:0:
128,128,70043,1,0,0:0:0:0:
128,128,70157,1,0,0:0:0:0:
128,128,70271,1,0,0:0:0:0:
160,128,70385,1,0,0:0:0:0:
352,96,70499,5,12,0:0:0:0:
160,128,70728,1,0,0:0:0:0:
352,288,70842,1,8,0:0:0:0:
160,128,71070,1,0,0:0:0:0:
320,96,71184,1,12,0:0:0:0:
160,128,71412,1,0,0:0:0:0:
352,288,71526,1,8,0:0:0:0:
160,128,71640,1,0,0:0:0:0:
352,288,71754,1,8,0:0:0:0:
160,128,71868,1,0,0:0:0:0:
160,128,72096,1,0,0:0:0:0:
384,288,72210,1,8,0:0:0:0:
160,288,72553,1,4,0:0:0:0:
128,288,72781,1,4,0:0:0:0:
128,288,73009,1,4,0:0:0:0:
352,96,73237,1,12,0:0:0:0:
160,128,73465,1,0,0:0:0:0:
352,288,73579,1,8,0:0:0:0:
160,128,73807,1,0,0:0:0:0:
352,128,73921,1,12,0:0:0:0:
160,128,74150,1,0,0:0:0:0:
352,288,74264,1,8,0:0:0:0:
160,128,74378,1,0,0:0:0:0:
352,288,74492,1,8,0:0:0:0:
160,128,74606,1,0,0:0:0:0:
160,128,74834,1,0,0:0:0:0:
352,288,74948,1,8,0:0:0:0:
160,288,75290,1,4,0:0:0:0:
96,288,75518,1,4,0:0:0:0:
352,96,75747,1,12,0:0:0:0:
352,96,75975,1,12,0:0:0:0:
160,128,76203,1,0,0:0:0:0:
352,288,76317,1,8,0:0:0:0:
160,128,76545,1,0,0:0:0:0:
320,96,76659,1,12,0:0:0:0:
160,128,76887,1,0,0:0:0:0:
352,288,77001,1,8,0:0:0:0:
160,128,77115,1,0,0:0:0:0:
352,288,77229,1,8,0:0:0:0:
160,128,77343,1,0,0:0:0:0:
160,128,77572,1,0,0:0:0:0:
384,288,77686,1,8,0:0:0:0:
160,288,78028,1,4,0:0:0:0:
128,288,78256,1,4,0:0:0:0:
128,288,78484,1,4,0:0:0:0:
352,96,78712,1,12,0:0:0:0:
160,128,78940,1,0,0:0:0:0:
352,288,79055,1,8,0:0:0:0:
160,128,79283,1,0,0:0:0:0:
384,64,79397,1,12,0:0:0:0:
160,128,79625,1,0,0:0:0:0:
352,288,79739,1,8,0:0:0:0:
160,128,79853,1,0,0:0:0:0:
352,288,79967,1,8,0:0:0:0:
160,128,80081,1,0,0:0:0:0:
160,128,80309,1,0,0:0:0:0:
352,288,80423,1,8,0:0:0:0:
320,288,80766,1,8,0:0:0:0:
96,288,80994,1,4,0:0:0:0:
192,288,81222,1,4,0:0:0:0:
128,96,81450,5,0,0:0:0:0:
352,256,81678,1,8,0:0:0:0:
160,128,81792,1,0,0:0:0:0:
352,288,82020,1,8,0:0:0:0:
160,128,82134,1,0,0:0:0:0:
320,256,82363,1,8,0:0:0:0:
320,256,82420,1,8,0:0:0:0:
320,256,82477,1,8,0:0:0:0:
160,128,82591,1,0,0:0:0:0:
128,128,82819,1,0,0:0:0:0:
352,256,83047,1,8,0:0:0:0:
160,128,83161,1,0,0:0:0:0:
352,288,83389,1,8,0:0:0:0:
160,128,83503,1,0,0:0:0:0:
160,128,83731,1,0,0:0:0:0:
160,128,83959,1,0,0:0:0:0:
352,288,84188,1,8,0:0:0:0:
160,128,84416,1,0,0:0:0:0:
160,128,84473,1,0,0:0:0:0:
320,256,84530,1,8,0:0:0:0:
160,96,84758,1,0,0:0:0:0:
352,288,84872,1,8,0:0:0:0:
320,256,84986,1,8,0:0:0:0:
320,256,85043,1,8,0:0:0:0:
320,256,85100,1,8,0:0:0:0:
128,96,85214,1,0,0:0:0:0:
384,288,85328,1,8,0:0:0:0:
128,96,85556,1,0,0:0:0:0:
352,320,85785,1,8,0:0:0:0:
128,128,85899,1,0,0:0:0:0:
352,320,86127,1,8,0:0:0:0:
128,128,86241,1,0,0:0:0:0:
128,128,86469,1,0,0:0:0:0:
384,288,86697,1,8,0:0:0:0:
128,96,86925,5,0,0:0:0:0:
352,256,87153,1,8,0:0:0:0:
160,128,87267,1,0,0:0:0:0:
352,288,87496,1,8,0:0:0:0:
160,128,87610,1,0,0:0:0:0:
320,256,87838,1,8,0:0:0:0:
320,256,87895,1,8,0:0:0:0:
320,256,87952,1,8,0:0:0:0:
160,128,88066,1,0,0:0:0:0:
128,128,88294,1,0,0:0:0:0:
352,256,88522,1,8,0:0:0:0:
160,128,88636,1,0,0:0:0:0:
352,288,88864,1,8,0:0:0:0:
160,128,88978,1,0,0:0:0:0:
160,128,89207,1,0,0:0:0:0:
160,128,89435,1,0,0:0:0:0:
352,288,89663,1,8,0:0:0:0:
160,128,89891,1,0,0:0:0:0:
160,128,89948,1,0,0:0:0:0:
320,256,90005,1,8,0:0:0:0:
160,96,90233,1,0,0:0:0:0:
352,288,90347,1,8,0:0:0:0:
320,256,90461,1,8,0:0:0:0:
320,256,90518,1,8,0:0:0:0:
320,256,90575,1,8,0:0:0:0:
128,96,90690,1,0,0:0:0:0:
384,288,90804,1,8,0:0:0:0:
128,96,91032,1,0,0:0:0:0:
352,320,91260,1,8,0:0:0:0:
128,128,91374,1,0,0:0:0:0:
352,320,91602,1,8,0:0:0:0:
128,128,91716,1,0,0:0:0:0:
128,128,91944,1,0,0:0:0:0:
352,96,92172,1,12,0:0:0:0:
128,96,92401,5,0,0:0:0:0:
352,256,92629,1,8,0:0:0:0:
160,128,92743,1,0,0:0:0:0:
352,288,92971,1,8,0:0:0:0:
160,128,93085,1,0,0:0:0:0:
128,128,93313,1,0,0:0:0:0:
128,128,93427,1,0,0:0:0:0:
384,256,93541,1,8,0:0:0:0:
192,128,93655,1,0,0:0:0:0:
352,256,93769,1,8,0:0:0:0:
352,256,93997,1,8,0:0:0:0:
160,128,94112,1,0,0:0:0:0:
352,288,94340,1,8,0:0:0:0:
160,128,94454,1,0,0:0:0:0:
160,128,94682,1,0,0:0:0:0:
352,320,94796,1,8,0:0:0:0:
160,128,94910,1,0,0:0:0:0:
352,288,95024,1,8,0:0:0:0:
160,128,95138,1,0,0:0:0:0:
160,128,95366,1,0,0:0:0:0:
320,256,95480,1,8,0:0:0:0:
160,96,95709,1,0,0:0:0:0:
352,288,95823,1,8,0:0:0:0:
320,256,96051,1,8,0:0:0:0:
384,288,96279,1,0,0:0:0:0:
128,96,96507,1,0,0:0:0:0:
352,256,96621,1,8,0:0:0:0:
352,320,96735,1,8,0:0:0:0:
128,128,96849,1,0,0:0:0:0:
352,320,97077,1,8,0:0:0:0:
128,128,97191,1,0,0:0:0:0:
128,128,97420,1,0,0:0:0:0:
384,288,97648,1,8,0:0:0:0:
320,288,97762,1,8,0:0:0:0:
128,96,97876,1,0,0:0:0:0:
160,96,98104,1,0,0:0:0:0:
320,256,98218,1,8,0:0:0:0:
352,288,98446,1,8,0:0:0:0:
160,128,98560,1,0,0:0:0:0:
160,128,98788,1,0,0:0:0:0:
160,128,98902,1,0,0:0:0:0:
352,256,99016,1,8,0:0:0:0:
96,128,99131,1,0,0:0:0:0:
352,288,99245,1,8,0:0:0:0:
352,256,99473,1,8,0:0:0:0:
160,128,99587,1,0,0:0:0:0:
352,288,99815,1,8,0:0:0:0:
160,128,99929,1,0,0:0:0:0:
160,128,100157,1,0,0:0:0:0:
320,256,100271,1,8,0:0:0:0:
160,128,100385,1,0,0:0:0:0:
320,256,100499,1,0,0:0:0:0:
352,288,100613,1,8,0:0:0:0:
160,128,100842,1,0,0:0:0:0:
320,256,100956,1,8,0:0:0:0:
160,96,101184,1,0,0:0:0:0:
352,256,101298,1,8,0:0:0:0:
352,256,101526,1,8,0:0:0:0:
160,96,101754,1,0,0:0:0:0:
320,256,101982,1,8,0:0:0:0:
352,288,102096,1,8,0:0:0:0:
128,64,102210,1,0,0:0:0:0:
128,128,102324,1,0,0:0:0:0:
352,320,102553,1,8,0:0:0:0:
128,128,102667,1,0,0:0:0:0:
128,128,102895,1,0,0:0:0:0:
384,288,103123,1,8,0:0:0:0:
128,96,103351,5,0,0:0:0:0:
352,256,103579,1,8,0:0:0:0:
160,128,103693,1,0,0:0:0:0:
352,288,103921,1,8,0:0:0:0:
160,128,104036,1,0,0:0:0:0:
192,128,104264,1,0,0:0:0:0:
192,128,104378,1,0,0:0:0:0:
416,288,104492,1,8,0:0:0:0:
160,128,104606,1,0,0:0:0:0:
384,288,104720,1,8,0:0:0:0:
352,256,104948,1,8,0:0:0:0:
160,128,105062,1,0,0:0:0:0:
352,288,105290,1,8,0:0:0:0:
160,128,105404,1,0,0:0:0:0:
160,128,105632,1,0,0:0:0:0:
352,320,105747,1,8,0:0:0:0:
160,128,105861,1,0,0:0:0:0:
352,288,105975,1,8,0:0:0:0:
160,128,106089,1,0,0:0:0:0:
160,128,106317,1,0,0:0:0:0:
320,256,106431,1,8,0:0:0:0:
160,96,106659,1,0,0:0:0:0:
352,288,106773,1,8,0:0:0:0:
320,256,107001,1,8,0:0:0:0:
160,128,107229,1,0,0:0:0:0:
128,96,107458,1,0,0:0:0:0:
352,256,107572,1,8,0:0:0:0:
352,320,107686,1,8,0:0:0:0:
128,128,107800,1,0,0:0:0:0:
352,320,108028,1,8,0:0:0:0:
128,128,108142,1,0,0:0:0:0:
128,128,108370,1,0,0:0:0:0:
384,288,108598,1,8,0:0:0:0:
320,288,108712,1,8,0:0:0:0:
128,96,108826,1,0,0:0:0:0:
160,96,109055,1,0,0:0:0:0:
320,256,109169,1,8,0:0:0:0:
352,288,109397,1,8,0:0:0:0:
160,128,109511,1,0,0:0:0:0:
192,128,109739,1,0,0:0:0:0:
192,128,109853,1,0,0:0:0:0:
320,256,109967,1,8,0:0:0:0:
96,128,110081,1,0,0:0:0:0:
352,288,110195,1,8,0:0:0:0:
352,256,110423,1,8,0:0:0:0:
160,128,110537,1,0,0:0:0:0:
352,288,110766,1,8,0:0:0:0:
160,128,110880,1,0,0:0:0:0:
160,128,111108,1,0,0:0:0:0:
320,256,111222,1,8,0:0:0:0:
160,128,111336,1,0,0:0:0:0:
192,128,111450,1,0,0:0:0:0:
352,288,111564,1,8,0:0:0:0:
160,128,111792,1,0,0:0:0:0:
320,256,111906,1,8,0:0:0:0:
160,96,112134,1,0,0:0:0:0:
352,288,112248,1,8,0:0:0:0:
320,256,112477,1,8,0:0:0:0:
384,288,112705,1,0,0:0:0:0:
288,256,112933,1,8,0:0:0:0:
160,128,113047,1,8,0:0:0:0:
352,320,113161,1,0,0:0:0:0:
128,128,113275,1,0,0:0:0:0:
352,320,113503,1,8,0:0:0:0:
128,128,113617,1,0,0:0:0:0:
128,128,113845,1,0,0:0:0:0:
384,288,114074,1,12,0:0:0:0:
