osu file format v14

[General]
AudioFilename: audio.mp3
AudioLeadIn: 0
PreviewTime: 11640
Countdown: 0
SampleSet: Normal
StackLeniency: 0.6
Mode: 1
LetterboxInBreaks: 0
WidescreenStoryboard: 1

[Editor]
Bookmarks: 3409,25652,28390,41679
DistanceSpacing: 0.9
BeatDivisor: 4
GridSize: 32
TimelineZoom: 2.2

[Metadata]
Title:Spear of Justice
TitleUnicode:Spear of Justice
Artist:Toby Fox
ArtistUnicode:Toby Fox
Creator:skildfrix
Version:Futsuu
Source:UNDERTALE
Tags:undertale toby fox spear of justice undyne boss ost batlle ost
BeatmapID:986606
BeatmapSetID:460525

[Difficulty]
HPDrainRate:2
CircleSize:2
OverallDifficulty:3
ApproachRate:10
SliderMultiplier:1.4
SliderTickRate:1

[Events]
//Background and Video events
0,0,"undyne.jpg",0,0
//Break Periods
//Storyboard Layer 0 (Background)
//Storyboard Layer 1 (Fail)
//Storyboard Layer 2 (Pass)
//Storyboard Layer 3 (Foreground)
//Storyboard Sound Samples

[TimingPoints]
690,228.136882129278,4,1,0,70,1,0
11640,-100,4,1,0,70,0,1
22534,-100,4,1,0,70,0,0
22591,-100,4,1,0,70,0,1
37191,-133.333333333333,4,1,0,70,0,0
48427,-100,4,1,0,70,0,0
59549,-133.333333333333,4,1,0,70,0,0
70499,-100,4,1,0,70,0,0
81450,-133.333333333333,4,1,0,70,0,0

[HitObjects]
352,96,690,5,12,0:0:0:0:
192,96,1602,1,0,0:0:0:0:
352,96,2058,1,12,0:0:0:0:
160,128,2971,1,0,0:0:0:0:
352,96,3427,1,12,0:0:0:0:
160,96,4340,1,0,0:0:0:0:
192,128,4796,1,0,0:0:0:0:
160,96,5480,1,0,0:0:0:0:
352,96,6165,5,12,0:0:0:0:
160,128,7077,1,0,0:0:0:0:
352,96,7533,1,12,0:0:0:0:
160,128,8446,1,0,0:0:0:0:
352,96,8902,1,12,0:0:0:0:
160,128,9815,1,0,0:0:0:0:
160,128,10271,1,0,0:0:0:0:
160,96,10955,1,0,0:0:0:0:
352,96,11640,5,12,0:0:0:0:
192,96,12553,1,0,0:0:0:0:
352,288,13008,1,8,0:0:0:0:
160,96,13921,1,0,0:0:0:0:
320,256,14377,1,8,0:0:0:0:
160,96,15290,1,0,0:0:0:0:
192,128,15746,1,0,0:0:0:0:
160,96,16430,1,0,0:0:0:0:
352,96,17115,5,12,0:0:0:0:
160,96,18028,1,0,0:0:0:0:
320,256,18483,1,8,0:0:0:0:
160,96,19397,1,0,0:0:0:0:
352,288,19852,1,8,0:0:0:0:
160,96,20766,1,0,0:0:0:0:
160,128,21221,1,0,0:0:0:0:
160,96,21905,1,0,0:0:0:0:
320,256,22591,5,8,0:0:0:0:
128,128,22933,1,0,0:0:0:0:
160,128,23503,1,0,0:0:0:0:
352,288,23959,1,8,0:0:0:0:
128,128,24302,1,0,0:0:0:0:
160,128,24872,1,0,0:0:0:0:
320,256,25328,1,8,0:0:0:0:
128,128,25670,1,0,0:0:0:0:
160,128,26240,1,0,0:0:0:0:
192,128,26697,1,0,0:0:0:0:
160,96,27381,1,0,0:0:0:0:
320,288,28066,5,8,0:0:0:0:
128,128,28408,1,0,0:0:0:0:
160,128,28978,1,0,0:0:0:0:
320,256,29434,1,8,0:0:0:0:
128,128,29777,1,0,0:0:0:0:
160,128,30347,1,0,0:0:0:0:
352,288,30803,1,8,0:0:0:0:
128,128,31146,1,0,0:0:0:0:
160,128,31716,1,0,0:0:0:0:
160,128,32172,1,0,0:0:0:0:
160,96,32856,1,0,0:0:0:0:
352,256,33541,1,8,0:0:0:0:
160,96,34226,1,0,0:0:0:0:
352,288,34910,1,8,0:0:0:0:
160,96,35594,1,0,0:0:0:0:
352,288,36279,1,8,0:0:0:0:
128,288,36963,1,4,0:0:0:0:
96,64,37648,5,0,0:0:0:0:
352,288,37990,1,8,0:0:0:0:
160,128,38332,1,0,0:0:0:0:
352,288,39016,1,8,0:0:0:0:
160,96,39359,1,0,0:0:0:0:
128,128,39701,1,0,0:0:0:0:
256,192,40385,1,8,0:0:0:0:
128,96,41070,1,0,0:0:0:0:
160,128,41754,1,0,0:0:0:0:
128,128,42096,1,0,0:0:0:0:
384,288,42439,1,8,0:0:0:0:
96,64,43123,5,0,0:0:0:0:
352,288,43465,1,8,0:0:0:0:
160,128,43807,1,0,0:0:0:0:
352,288,44491,1,8,0:0:0:0:
160,96,44834,1,0,0:0:0:0:
128,128,45176,1,0,0:0:0:0:
160,128,45861,1,0,0:0:0:0:
320,288,46545,1,8,0:0:0:0:
128,96,47229,1,0,0:0:0:0:
128,128,47571,1,0,0:0:0:0:
160,96,47914,1,0,0:0:0:0:
352,288,48598,1,8,0:0:0:0:
352,288,49283,1,8,0:0:0:0:
128,128,49967,1,0,0:0:0:0:
160,128,50651,1,0,0:0:0:0:
384,288,51336,1,8,0:0:0:0:
384,288,52020,1,8,0:0:0:0:
192,96,52705,1,0,0:0:0:0:
192,96,53389,1,0,0:0:0:0:
352,96,54074,1,12,0:0:0:0:
352,256,54758,1,8,0:0:0:0:
192,96,55443,1,0,0:0:0:0:
192,96,56127,1,0,0:0:0:0:
384,288,56811,1,8,0:0:0:0:
384,288,57495,1,8,0:0:0:0:
192,96,58180,1,0,0:0:0:0:
384,320,58864,1,8,0:0:0:0:
96,64,59549,5,0,0:0:0:0:
352,288,59891,1,8,0:0:0:0:
160,128,60233,1,0,0:0:0:0:
352,288,60917,1,8,0:0:0:0:
160,96,61260,1,0,0:0:0:0:
128,128,61602,1,0,0:0:0:0:
160,128,62286,1,0,0:0:0:0:
320,288,62971,1,8,0:0:0:0:
160,128,63655,1,0,0:0:0:0:
128,128,63997,1,0,0:0:0:0:
160,96,64340,1,0,0:0:0:0:
96,64,65024,5,0,0:0:0:0:
352,288,65366,1,8,0:0:0:0:
160,128,65708,1,0,0:0:0:0:
352,288,66392,1,8,0:0:0:0:
160,96,66735,1,0,0:0:0:0:
128,128,67077,1,0,0:0:0:0:
160,128,67761,1,0,0:0:0:0:
320,288,68446,1,8,0:0:0:0:
352,256,69130,1,8,0:0:0:0:
128,128,69472,1,0,0:0:0:0:
160,128,69815,1,0,0:0:0:0:
320,256,70499,1,8,0:0:0:0:
352,288,71184,1,8,0:0:0:0:
128,128,71868,1,0,0:0:0:0:
160,128,72552,1,0,0:0:0:0:
384,288,73237,1,8,0:0:0:0:
352,320,73921,1,8,0:0:0:0:
192,96,74606,1,0,0:0:0:0:
192,96,75290,1,0,0:0:0:0:
384,96,75975,1,12,0:0:0:0:
384,320,76659,1,8,0:0:0:0:
192,96,77344,1,0,0:0:0:0:
192,96,78028,1,0,0:0:0:0:
384,288,78712,1,8,0:0:0:0:
384,288,79397,1,8,0:0:0:0:
192,96,80081,1,0,0:0:0:0:
192,96,80765,1,0,0:0:0:0:
96,64,81450,5,0,0:0:0:0:
352,288,81792,1,8,0:0:0:0:
160,128,82134,1,0,0:0:0:0:
352,288,82818,1,8,0:0:0:0:
160,96,83161,1,0,0:0:0:0:
128,128,83503,1,0,0:0:0:0:
160,128,84187,1,0,0:0:0:0:
320,288,84872,1,8,0:0:0:0:
352,256,85556,1,8,0:0:0:0:
128,128,85898,1,0,0:0:0:0:
160,96,86241,1,0,0:0:0:0:
96,64,86925,5,0,0:0:0:0:
352,288,87267,1,8,0:0:0:0:
128,96,87610,1,0,0:0:0:0:
352,288,88293,1,8,0:0:0:0:
160,96,88636,1,0,0:0:0:0:
128,128,88978,1,0,0:0:0:0:
384,288,89663,1,8,0:0:0:0:
320,288,90347,1,8,0:0:0:0:
352,256,91031,1,8,0:0:0:0:
128,128,91373,1,0,0:0:0:0:
160,96,91716,1,0,0:0:0:0:
320,256,92400,1,8,0:0:0:0:
160,128,92743,1,0,0:0:0:0:
160,96,93085,1,0,0:0:0:0:
448,256,93769,1,8,0:0:0:0:
128,128,94112,1,0,0:0:0:0:
160,128,94453,1,0,0:0:0:0:
384,288,95138,1,8,0:0:0:0:
128,128,95480,1,0,0:0:0:0:
160,128,95823,1,0,0:0:0:0:
384,320,96507,1,8,0:0:0:0:
160,128,96849,1,0,0:0:0:0:
192,96,97191,1,0,0:0:0:0:
160,128,97876,1,0,0:0:0:0:
384,320,98218,1,8,0:0:0:0:
128,96,98560,1,0,0:0:0:0:
352,288,99245,1,8,0:0:0:0:
192,128,99587,1,0,0:0:0:0:
192,96,99929,1,0,0:0:0:0:
384,288,100613,1,8,0:0:0:0:
160,128,100956,1,0,0:0:0:0:
384,288,101298,1,8,0:0:0:0:
352,288,101982,1,8,0:0:0:0:
160,128,102324,1,0,0:0:0:0:
192,96,102666,1,0,0:0:0:0:
160,128,103351,5,0,0:0:0:0:
160,128,103693,1,0,0:0:0:0:
160,96,104035,1,0,0:0:0:0:
448,256,104719,1,8,0:0:0:0:
160,96,105062,1,0,0:0:0:0:
160,128,105403,1,0,0:0:0:0:
352,288,106088,1,8,0:0:0:0:
160,96,106431,1,0,0:0:0:0:
128,128,106772,1,0,0:0:0:0:
384,320,107457,1,8,0:0:0:0:
160,128,107800,1,0,0:0:0:0:
192,96,108141,1,0,0:0:0:0:
160,128,108826,1,0,0:0:0:0:
352,288,109169,1,8,0:0:0:0:
192,128,109510,1,0,0:0:0:0:
352,288,110195,1,8,0:0:0:0:
160,96,110537,1,0,0:0:0:0:
192,96,110879,1,0,0:0:0:0:
384,288,111563,1,8,0:0:0:0:
128,96,111906,1,0,0:0:0:0:
160,96,112247,1,0,0:0:0:0:
192,96,112932,1,0,0:0:0:0:
160,128,113275,1,0,0:0:0:0:
416,320,113616,1,8,0:0:0:0:
352,288,114074,1,12,0:0:0:0:
