osu file format v14

[General]
AudioFilename: audio.mp3
AudioLeadIn: 0
PreviewTime: -1
Countdown: 1
SampleSet: Soft
StackLeniency: 0.7
Mode: 3
LetterboxInBreaks: 0
SpecialStyle: 0
WidescreenStoryboard: 0

[Editor]
DistanceSpacing: 0.8
BeatDivisor: 6
GridSize: 8
TimelineZoom: 1.232405

[Metadata]
Title:Spear of Justice
TitleUnicode:Spear of Justice
Artist:Toby Fox
ArtistUnicode:Toby Fox
Creator:KamiaGasii
Version:Easy
Source:UNDERTALE
Tags:UNDERTALE soundtrack Undyne theme Spear of Justice
BeatmapID:1898402
BeatmapSetID:909694

[Difficulty]
HPDrainRate:7
CircleSize:6
OverallDifficulty:7
ApproachRate:5
SliderMultiplier:1.49999990463257
SliderTickRate:1

[Events]
//Background and Video events
0,0,"spearofjustice.jpg",0,0
//Break Periods
//Storyboard Layer 0 (Background)
//Storyboard Layer 1 (Fail)
//Storyboard Layer 2 (Pass)
//Storyboard Layer 3 (Foreground)
//Storyboard Sound Samples

[TimingPoints]
80,342.270393610953,4,2,0,0,1,0

[HitObjects]
213,192,80,5,0,0:0:0:0:
298,192,80,1,0,0:0:0:0:
469,192,1449,1,0,0:0:0:0:
384,192,1449,1,0,0:0:0:0:
128,192,2818,1,0,0:0:0:0:
42,192,2818,1,0,0:0:0:0:
384,192,4187,1,0,0:0:0:0:
469,192,4187,1,0,0:0:0:0:
298,192,4871,1,0,0:0:0:0:
213,192,4871,1,0,0:0:0:0:
128,192,5556,1,0,0:0:0:0:
42,192,5556,1,0,0:0:0:0:
384,192,6925,1,0,0:0:0:0:
469,192,6925,1,0,0:0:0:0:
213,192,8294,1,0,0:0:0:0:
298,192,8294,1,0,0:0:0:0:
128,192,9663,1,0,0:0:0:0:
42,192,9663,1,0,0:0:0:0:
213,192,10348,1,0,0:0:0:0:
298,192,10348,1,0,0:0:0:0:
384,192,11032,1,0,0:0:0:0:
469,192,11032,1,0,0:0:0:0:
213,192,11717,1,0,0:0:0:0:
384,192,11945,1,0,0:0:0:0:
298,192,12173,1,0,0:0:0:0:
128,192,12401,1,0,0:0:0:0:
42,192,12401,1,0,0:0:0:0:
384,192,13086,1,0,0:0:0:0:
469,192,13314,1,0,0:0:0:0:
128,192,13542,1,0,0:0:0:0:
213,192,13770,1,0,0:0:0:0:
298,192,13770,1,0,0:0:0:0:
128,192,14455,1,0,0:0:0:0:
298,192,14683,1,0,0:0:0:0:
42,192,14911,1,0,0:0:0:0:
384,192,15139,1,0,0:0:0:0:
469,192,15139,1,0,0:0:0:0:
213,192,15824,1,0,0:0:0:0:
298,192,15824,1,0,0:0:0:0:
128,192,16508,1,0,0:0:0:0:
42,192,16508,1,0,0:0:0:0:
298,192,17193,1,0,0:0:0:0:
469,192,17421,1,0,0:0:0:0:
384,192,17649,1,0,0:0:0:0:
128,192,17878,1,0,0:0:0:0:
42,192,17878,1,0,0:0:0:0:
384,192,18562,1,0,0:0:0:0:
128,192,18790,1,0,0:0:0:0:
469,192,19018,1,0,0:0:0:0:
298,192,19247,1,0,0:0:0:0:
213,192,19247,1,0,0:0:0:0:
42,192,19931,1,0,0:0:0:0:
384,192,20159,1,0,0:0:0:0:
128,192,20388,1,0,0:0:0:0:
384,192,20616,1,0,0:0:0:0:
469,192,20616,1,0,0:0:0:0:
42,192,21300,1,0,0:0:0:0:
298,192,21528,1,0,0:0:0:0:
128,192,21757,1,0,0:0:0:0:
213,192,21985,1,0,0:0:0:0:
42,192,21985,1,0,0:0:0:0:
469,192,22669,1,0,0:0:0:0:
213,192,22898,1,0,0:0:0:0:
384,192,23126,1,0,0:0:0:0:
298,192,23354,1,0,0:0:0:0:
469,192,23354,1,0,0:0:0:0:
213,192,24038,1,0,0:0:0:0:
298,192,24267,1,0,0:0:0:0:
42,192,24495,1,0,0:0:0:0:
469,192,24495,1,0,0:0:0:0:
128,192,24723,1,0,0:0:0:0:
384,192,24723,1,0,0:0:0:0:
469,192,25408,1,0,0:0:0:0:
298,192,25636,1,0,0:0:0:0:
128,192,25864,1,0,0:0:0:0:
213,192,26092,1,0,0:0:0:0:
42,192,26092,1,0,0:0:0:0:
298,192,26777,1,0,0:0:0:0:
469,192,26777,1,0,0:0:0:0:
213,192,27461,1,0,0:0:0:0:
42,192,27461,1,0,0:0:0:0:
298,192,28146,1,0,0:0:0:0:
128,192,28374,1,0,0:0:0:0:
384,192,28602,1,0,0:0:0:0:
213,192,28830,1,0,0:0:0:0:
469,192,28830,1,0,0:0:0:0:
384,192,29515,1,0,0:0:0:0:
128,192,29743,1,0,0:0:0:0:
469,192,29971,1,0,0:0:0:0:
298,192,30199,1,0,0:0:0:0:
42,192,30199,1,0,0:0:0:0:
213,192,30884,1,0,0:0:0:0:
384,192,31112,1,0,0:0:0:0:
42,192,31340,1,0,0:0:0:0:
128,192,31568,1,0,0:0:0:0:
384,192,31568,1,0,0:0:0:0:
213,192,32253,1,0,0:0:0:0:
298,192,32253,1,0,0:0:0:0:
42,192,32937,1,0,0:0:0:0:
469,192,32937,1,0,0:0:0:0:
213,192,33622,1,0,0:0:0:0:
298,192,33622,1,0,0:0:0:0:
128,192,34307,1,0,0:0:0:0:
384,192,34307,1,0,0:0:0:0:
298,192,34991,1,0,0:0:0:0:
213,192,34991,1,0,0:0:0:0:
42,192,35676,1,0,0:0:0:0:
469,192,35676,1,0,0:0:0:0:
128,192,36360,1,0,0:0:0:0:
213,192,36360,1,0,0:0:0:0:
298,192,36360,1,0,0:0:0:0:
384,192,36360,1,0,0:0:0:0:
213,192,37045,1,0,0:0:0:0:
298,192,37387,1,0,0:0:0:0:
384,192,37729,1,0,0:0:0:0:
213,192,38414,1,0,0:0:0:0:
128,192,38756,1,0,0:0:0:0:
42,192,39098,1,0,0:0:0:0:
213,192,39783,1,0,0:0:0:0:
469,192,40125,1,0,0:0:0:0:
384,192,40467,1,0,0:0:0:0:
213,192,41152,1,0,0:0:0:0:
298,192,41494,1,0,0:0:0:0:
213,192,41836,1,0,0:0:0:0:
213,192,42521,1,0,0:0:0:0:
298,192,42863,1,0,0:0:0:0:
384,192,43120,1,0,0:0:0:0:
469,192,43206,1,0,0:0:0:0:
298,192,43890,1,0,0:0:0:0:
213,192,44232,1,0,0:0:0:0:
128,192,44489,1,0,0:0:0:0:
42,192,44575,1,0,0:0:0:0:
384,192,45259,1,0,0:0:0:0:
42,192,45601,1,0,0:0:0:0:
128,192,45944,1,0,0:0:0:0:
298,192,46628,1,0,0:0:0:0:
213,192,46971,1,0,0:0:0:0:
298,192,47313,1,0,0:0:0:0:
128,192,47997,1,0,0:0:0:0:
384,192,47997,1,0,0:0:0:0:
469,192,48340,1,0,0:0:0:0:
42,192,48340,1,0,0:0:0:0:
298,192,48682,1,0,0:0:0:0:
213,192,48682,1,0,0:0:0:0:
213,192,49366,1,0,0:0:0:0:
128,192,49709,1,0,0:0:0:0:
42,192,50051,1,0,0:0:0:0:
384,192,50736,1,0,0:0:0:0:
128,192,50736,1,0,0:0:0:0:
42,192,51078,1,0,0:0:0:0:
469,192,51078,1,0,0:0:0:0:
298,192,51420,1,0,0:0:0:0:
213,192,51420,1,0,0:0:0:0:
298,192,52105,1,0,0:0:0:0:
384,192,52447,1,0,0:0:0:0:
469,192,52789,1,0,0:0:0:0:
384,192,53131,1,0,0:0:0:0:
213,192,53474,128,0,54158:0:0:0:0:
298,192,53474,128,0,54158:0:0:0:0:
213,192,54843,1,0,0:0:0:0:
128,192,55185,1,0,0:0:0:0:
42,192,55527,1,0,0:0:0:0:
384,192,56212,1,0,0:0:0:0:
128,192,56212,1,0,0:0:0:0:
469,192,56554,1,0,0:0:0:0:
42,192,56554,1,0,0:0:0:0:
213,192,56896,1,0,0:0:0:0:
298,192,56896,1,0,0:0:0:0:
298,192,57581,1,0,0:0:0:0:
384,192,57923,1,0,0:0:0:0:
469,192,58265,1,0,0:0:0:0:
213,192,58950,1,0,0:0:0:0:
298,192,59292,1,0,0:0:0:0:
384,192,59635,1,0,0:0:0:0:
213,192,60319,1,0,0:0:0:0:
128,192,60661,1,0,0:0:0:0:
42,192,61004,1,0,0:0:0:0:
213,192,61688,1,0,0:0:0:0:
469,192,62030,1,0,0:0:0:0:
384,192,62373,1,0,0:0:0:0:
213,192,63057,1,0,0:0:0:0:
298,192,63400,1,0,0:0:0:0:
213,192,63742,1,0,0:0:0:0:
213,192,64426,1,0,0:0:0:0:
298,192,64769,1,0,0:0:0:0:
384,192,65025,1,0,0:0:0:0:
469,192,65111,1,0,0:0:0:0:
298,192,65795,1,0,0:0:0:0:
213,192,66138,1,0,0:0:0:0:
128,192,66394,1,0,0:0:0:0:
42,192,66480,1,0,0:0:0:0:
384,192,67164,1,0,0:0:0:0:
42,192,67507,1,0,0:0:0:0:
128,192,67849,1,0,0:0:0:0:
298,192,68534,1,0,0:0:0:0:
213,192,68876,1,0,0:0:0:0:
298,192,69218,1,0,0:0:0:0:
384,192,69903,1,0,0:0:0:0:
128,192,69903,1,0,0:0:0:0:
42,192,70245,1,0,0:0:0:0:
469,192,70245,1,0,0:0:0:0:
298,192,70587,1,0,0:0:0:0:
213,192,70587,1,0,0:0:0:0:
213,192,71272,1,0,0:0:0:0:
128,192,71614,1,0,0:0:0:0:
42,192,71956,1,0,0:0:0:0:
384,192,72641,1,0,0:0:0:0:
128,192,72641,1,0,0:0:0:0:
469,192,72983,1,0,0:0:0:0:
42,192,72983,1,0,0:0:0:0:
213,192,73325,1,0,0:0:0:0:
298,192,73325,1,0,0:0:0:0:
298,192,74010,1,0,0:0:0:0:
384,192,74352,1,0,0:0:0:0:
469,192,74694,1,0,0:0:0:0:
384,192,75037,1,0,0:0:0:0:
213,192,75379,128,0,76064:0:0:0:0:
298,192,75379,128,0,76064:0:0:0:0:
213,192,76748,1,0,0:0:0:0:
128,192,77090,1,0,0:0:0:0:
42,192,77433,1,0,0:0:0:0:
384,192,78117,1,0,0:0:0:0:
128,192,78117,1,0,0:0:0:0:
42,192,78459,1,0,0:0:0:0:
469,192,78459,1,0,0:0:0:0:
298,192,78802,1,0,0:0:0:0:
213,192,78802,1,0,0:0:0:0:
298,192,79486,1,0,0:0:0:0:
384,192,79829,1,0,0:0:0:0:
469,192,80171,1,0,0:0:0:0:
213,192,80855,1,0,0:0:0:0:
298,192,81198,1,0,0:0:0:0:
384,192,81454,1,0,0:0:0:0:
469,192,81540,1,0,0:0:0:0:
298,192,82224,1,0,0:0:0:0:
213,192,82567,1,0,0:0:0:0:
128,192,82823,1,0,0:0:0:0:
42,192,82909,1,0,0:0:0:0:
469,192,83593,1,0,0:0:0:0:
384,192,83936,1,0,0:0:0:0:
298,192,84192,1,0,0:0:0:0:
128,192,84278,1,0,0:0:0:0:
213,192,84506,1,0,0:0:0:0:
298,192,84734,1,0,0:0:0:0:
469,192,84963,1,0,0:0:0:0:
384,192,84963,1,0,0:0:0:0:
213,192,85305,1,0,0:0:0:0:
298,192,85305,1,0,0:0:0:0:
42,192,85647,1,0,0:0:0:0:
128,192,85647,1,0,0:0:0:0:
213,192,86332,1,0,0:0:0:0:
298,192,86674,1,0,0:0:0:0:
384,192,86931,1,0,0:0:0:0:
469,192,87016,1,0,0:0:0:0:
298,192,87701,1,0,0:0:0:0:
213,192,88043,1,0,0:0:0:0:
128,192,88300,1,0,0:0:0:0:
42,192,88385,1,0,0:0:0:0:
384,192,89070,128,0,89412:0:0:0:0:
469,192,89070,128,0,89412:0:0:0:0:
128,192,89754,128,0,90097:0:0:0:0:
42,192,89754,128,0,90097:0:0:0:0:
384,192,90439,1,0,0:0:0:0:
469,192,90439,1,0,0:0:0:0:
298,192,90781,1,0,0:0:0:0:
213,192,90781,1,0,0:0:0:0:
128,192,91123,1,0,0:0:0:0:
42,192,91123,1,0,0:0:0:0:
128,192,91808,128,0,92150:0:0:0:0:
42,192,91808,128,0,92150:0:0:0:0:
384,192,91808,128,0,92150:0:0:0:0:
469,192,91808,128,0,92150:0:0:0:0:
213,192,92407,1,0,0:0:0:0:
298,192,92493,1,0,0:0:0:0:
384,192,93177,128,0,93519:0:0:0:0:
469,192,93177,128,0,93519:0:0:0:0:
128,192,93177,128,0,93519:0:0:0:0:
42,192,93177,128,0,93519:0:0:0:0:
298,192,93776,1,0,0:0:0:0:
213,192,93862,1,0,0:0:0:0:
213,192,94546,128,0,94888:0:0:0:0:
298,192,94546,128,0,94888:0:0:0:0:
128,192,95231,1,0,0:0:0:0:
213,192,95459,1,0,0:0:0:0:
298,192,95687,1,0,0:0:0:0:
469,192,95915,1,0,0:0:0:0:
384,192,95915,1,0,0:0:0:0:
128,192,96257,1,0,0:0:0:0:
42,192,96257,1,0,0:0:0:0:
384,192,96600,1,0,0:0:0:0:
469,192,96600,1,0,0:0:0:0:
384,192,97284,128,0,97627:0:0:0:0:
469,192,97284,128,0,97627:0:0:0:0:
128,192,97284,128,0,97627:0:0:0:0:
42,192,97284,128,0,97627:0:0:0:0:
213,192,97883,1,0,0:0:0:0:
298,192,97969,1,0,0:0:0:0:
384,192,98653,128,0,98996:0:0:0:0:
469,192,98653,128,0,98996:0:0:0:0:
128,192,98653,128,0,98996:0:0:0:0:
42,192,98653,128,0,98996:0:0:0:0:
298,192,99252,1,0,0:0:0:0:
213,192,99338,1,0,0:0:0:0:
469,192,100022,128,0,100365:0:0:0:0:
384,192,100707,1,0,0:0:0:0:
298,192,100935,1,0,0:0:0:0:
213,192,101163,1,0,0:0:0:0:
128,192,101392,1,0,0:0:0:0:
42,192,101392,1,0,0:0:0:0:
384,192,101734,1,0,0:0:0:0:
469,192,101734,1,0,0:0:0:0:
42,192,102076,1,0,0:0:0:0:
128,192,102076,1,0,0:0:0:0:
213,192,102761,128,0,103103:0:0:0:0:
298,192,102761,128,0,103103:0:0:0:0:
469,192,103360,1,0,0:0:0:0:
42,192,103360,1,0,0:0:0:0:
384,192,103445,1,0,0:0:0:0:
128,192,103445,1,0,0:0:0:0:
298,192,104130,128,0,104472:0:0:0:0:
213,192,104130,128,0,104472:0:0:0:0:
384,192,104729,1,0,0:0:0:0:
128,192,104729,1,0,0:0:0:0:
42,192,104814,1,0,0:0:0:0:
469,192,104814,1,0,0:0:0:0:
42,192,105499,128,0,105841:0:0:0:0:
128,192,106126,1,0,0:0:0:0:
213,192,106354,1,0,0:0:0:0:
298,192,106583,1,0,0:0:0:0:
469,192,106868,128,0,107039:0:0:0:0:
384,192,106868,128,0,107039:0:0:0:0:
213,192,107210,128,0,107381:0:0:0:0:
298,192,107210,128,0,107381:0:0:0:0:
42,192,107552,128,0,107724:0:0:0:0:
128,192,107552,128,0,107724:0:0:0:0:
213,192,108237,128,0,108579:0:0:0:0:
298,192,108237,128,0,108579:0:0:0:0:
42,192,108836,1,0,0:0:0:0:
469,192,108836,1,0,0:0:0:0:
128,192,108921,1,0,0:0:0:0:
384,192,108921,1,0,0:0:0:0:
213,192,109606,128,0,109948:0:0:0:0:
298,192,109606,128,0,109948:0:0:0:0:
128,192,110205,1,0,0:0:0:0:
384,192,110205,1,0,0:0:0:0:
42,192,110291,1,0,0:0:0:0:
469,192,110291,1,0,0:0:0:0:
469,192,110975,128,0,111317:0:0:0:0:
384,192,110975,128,0,111317:0:0:0:0:
298,192,111660,1,0,0:0:0:0:
213,192,111888,1,0,0:0:0:0:
128,192,112116,1,0,0:0:0:0:
298,192,112344,1,0,0:0:0:0:
213,192,112344,1,0,0:0:0:0:
384,192,112686,1,0,0:0:0:0:
128,192,112686,1,0,0:0:0:0:
213,192,113029,1,0,0:0:0:0:
298,192,113029,1,0,0:0:0:0:
469,192,113713,1,0,0:0:0:0:
384,192,113713,1,0,0:0:0:0:
298,192,113713,1,0,0:0:0:0:
213,192,113713,1,0,0:0:0:0:
128,192,113713,1,0,0:0:0:0:
42,192,113713,1,0,0:0:0:0:
