osu file format v14

[General]
AudioFilename: audio.mp3
AudioLeadIn: 0
PreviewTime: 84
Countdown: 0
SampleSet: Soft
StackLeniency: 0.7
Mode: 0
LetterboxInBreaks: 0
WidescreenStoryboard: 1

[Editor]
DistanceSpacing: 1.2
BeatDivisor: 4
GridSize: 8
TimelineZoom: 1.5

[Metadata]
Title:Spamton
TitleUnicode:Spamton
Artist:Toby Fox
ArtistUnicode:Toby Fox
Creator:atlas-
Version:bluirre's NO..rmal
Source:DELTARUNE
Tags:deltarune chapter 2 two g chiptune normal hard keygen ost original soundtrack video game electronic english instrumental aeniko atlas bluirre
BeatmapID:3283829
BeatmapSetID:1607535

[Difficulty]
HPDrainRate:3
CircleSize:4.5
OverallDifficulty:4
ApproachRate:5
SliderMultiplier:1.4
SliderTickRate:1

[Events]
//Background and Video events
0,0,"Spamton_screenshot_shop_2560x1440.jpg",0,0
//Break Periods
//Storyboard Layer 0 (Background)
//Storyboard Layer 1 (Fail)
//Storyboard Layer 2 (Pass)
//Storyboard Layer 3 (Foreground)
//Storyboard Layer 4 (Overlay)
//Storyboard Sound Samples

[TimingPoints]
84,631.578947368421,4,2,1,60,1,0
84,-86.9565217391304,4,2,1,60,0,0
1662,-86.9565217391304,4,2,1,60,0,0
1978,-86.9565217391304,4,2,1,60,0,0
4188,-86.9565217391304,4,2,1,60,0,0
6714,-86.9565217391304,4,2,1,60,0,0
7030,-86.9565217391304,4,2,1,60,0,0
9240,-86.9565217391304,4,2,1,60,0,0
9872,-86.9565217391304,4,2,1,60,0,0
10268,-86.9565217391304,4,2,1,5,0,0
10505,-86.9565217391304,4,2,1,60,0,0
10741,-86.9565217391304,4,2,1,5,0,0
10978,-86.9565217391304,4,2,1,60,0,0
11215,-86.9565217391304,4,2,1,5,0,0
11294,-86.9565217391304,4,2,1,60,0,0
11373,-86.9565217391304,4,2,1,5,0,0
11452,-86.9565217391304,4,2,1,60,0,0
11767,-86.9565217391304,4,2,1,60,0,0
12083,-86.9565217391304,4,2,1,60,0,0
12794,-86.9565217391304,4,2,1,5,0,0
13031,-86.9565217391304,4,2,1,60,0,0
13267,-86.9565217391304,4,2,1,5,0,0
13504,-86.9565217391304,4,2,1,60,0,0
13741,-86.9565217391304,4,2,1,5,0,0
13820,-86.9565217391304,4,2,1,60,0,0
13899,-86.9565217391304,4,2,1,5,0,0
13978,-86.9565217391304,4,2,1,60,0,0
14293,-86.9565217391304,4,2,1,60,0,0
15320,-86.9565217391304,4,2,1,5,0,0
15557,-86.9565217391304,4,2,1,60,0,0
15793,-86.9565217391304,4,2,1,5,0,0
16030,-86.9565217391304,4,2,1,60,0,0
16267,-86.9565217391304,4,2,1,5,0,0
16346,-86.9565217391304,4,2,1,60,0,0
16425,-86.9565217391304,4,2,1,5,0,0
16504,-86.9565217391304,4,2,1,60,0,0
16819,-86.9565217391304,4,2,1,60,0,0
17135,-86.9565217391304,4,2,1,60,0,0
17847,-86.9565217391304,4,2,1,5,0,0
18084,-86.9565217391304,4,2,1,60,0,0
18320,-86.9565217391304,4,2,1,5,0,0
18557,-86.9565217391304,4,2,1,60,0,0
18794,-86.9565217391304,4,2,1,5,0,0
18873,-86.9565217391304,4,2,1,60,0,0
18952,-86.9565217391304,4,2,1,5,0,0
19031,-86.9565217391304,4,2,1,60,0,0
19346,-86.9565217391304,4,2,1,60,0,0
19977,-86.9565217391304,4,2,1,60,0,0
29609,-86.9565217391304,4,2,1,60,0,0
38293,-86.9565217391304,4,2,1,60,0,0
39872,-86.9565217391304,4,2,1,60,0,0
40189,-86.9565217391304,4,2,1,40,0,0
41136,-86.9565217391304,4,2,1,30,0,0
41610,-86.9565217391304,4,2,1,20,0,0
42084,-86.9565217391304,4,2,1,10,0,0
42557,-86.9565217391304,4,2,1,5,0,0

[Colours]
Combo1 : 0,64,128
Combo2 : 255,176,255
Combo3 : 255,255,98
Combo4 : 60,191,255

[HitObjects]
92,107,84,6,0,P|149:82|183:93,1,80.5000015354157,2|2,0:0|0:3,0:0:0:0:
206,108,557,2,0,L|291:84,1,80.5000015354157,2|10,0:0|2:2,0:0:0:0:
421,132,1347,2,0,P|414:193|387:217,2,80.5000015354157,2|2|10,0:0|0:0|0:0,0:0:0:0:
498,309,2610,6,0,P|441:284|407:295,1,80.5000015354157,2|2,0:0|0:3,0:0:0:0:
378,300,3083,2,0,L|293:276,1,80.5000015354157,2|10,0:0|0:0,0:0:0:0:
163,230,3873,2,0,P|123:230|90:252,1,80.5000015354157,2|2,0:0|0:0,0:0:0:0:
71,297,4347,1,2,0:0:0:0:
71,297,4505,1,10,0:0:0:0:
250,367,5136,6,0,P|311:354|332:326,1,80.5000015354157,2|2,0:0|0:3,0:0:0:0:
341,297,5610,2,0,L|314:218,1,80.5000015354157,2|2,0:0|0:0,0:0:0:0:
275,81,6399,1,2,0:0:0:0:
194,27,6715,1,2,0:0:0:0:
178,122,7031,1,10,0:0:0:0:
140,311,7662,6,0,P|104:293|83:260,1,80.5000015354157,2|2,0:0|0:3,0:0:0:0:
70,212,8136,2,0,L|57:125,1,80.5000015354157,2|10,0:0|0:0,0:0:0:0:
202,121,8925,2,0,B|247:120|247:120|282:152,1,80.5000015354157,2|2,0:0|0:0,0:0:0:0:
307,184,9399,1,2,0:0:0:0:
307,184,9557,2,0,B|333:207|333:207|378:206,1,80.5000015354157,10|10,0:3|0:3,0:0:0:0:
405,299,10189,6,0,P|348:324|314:313,1,80.5000015354157,2|2,0:0|0:3,0:0:0:0:
291,298,10662,2,0,L|206:322,1,80.5000015354157,2|10,0:0|0:0,0:0:0:0:
166,332,11136,1,2,0:0:0:0:
129,242,11452,2,0,P|135:180|162:156,2,80.5000015354157,2|2|10,0:0|0:0|0:0,0:0:0:0:
280,362,12715,6,0,P|337:387|371:376,1,80.5000015354157,2|2,0:0|0:3,0:0:0:0:
400,373,13189,2,0,L|485:349,1,80.5000015354157,2|10,0:0|0:0,0:0:0:0:
501,309,13662,1,2,0:0:0:0:
410,274,13978,2,0,P|389:239|354:222,1,80.5000015354157,2|2,0:0|0:0,0:0:0:0:
310,238,14452,1,2,0:0:0:0:
310,238,14610,1,10,0:0:0:0:
156,355,15241,6,0,P|94:342|73:314,1,80.5000015354157,2|2,0:0|0:3,0:0:0:0:
75,283,15715,2,0,L|102:203,1,80.5000015354157,2|10,0:0|0:0,0:0:0:0:
118,160,16188,1,2,0:0:0:0:
175,237,16505,1,2,0:0:0:0:
232,159,16820,1,2,0:0:0:0:
292,83,17136,1,10,0:0:0:0:
485,85,17768,6,0,P|506:117|508:156,1,80.5000015354157,2|2,0:0|0:3,0:0:0:0:
490,202,18241,2,0,L|457:283,1,80.5000015354157,2|10,0:0|0:0,0:0:0:0:
437,318,18714,1,2,0:0:0:0:
354,369,19031,2,0,B|309:370|309:370|274:338,1,80.5000015354157,2|2,0:0|0:0,0:0:0:0:
278,301,19504,1,2,0:0:0:0:
278,301,19662,2,0,B|251:277|251:277|206:278,1,80.5000015354157,10|10,0:3|0:3,0:0:0:0:
160,192,20294,6,0,L|160:96,1,80.5000015354157,6|2,0:0|0:0,0:0:0:0:
256,96,20926,2,0,L|256:176,1,80.5000015354157,10|2,0:0|0:0,0:0:0:0:
348,203,21557,1,2,0:0:0:0:
348,107,21873,1,2,0:3:0:0:
348,11,22189,1,10,0:0:0:0:
474,156,22820,6,0,L|474:236,1,80.5000015354157,2|2,0:0|0:3,0:0:0:0:
389,284,23452,2,0,L|389:203,1,80.5000015354157,2|2,0:0|0:3,0:0:0:0:
299,165,24084,2,0,L|299:245,1,80.5000015354157,2|2,0:0|0:0,0:0:0:0:
202,247,24715,1,4,0:3:0:0:
80,96,25347,6,0,L|184:96,1,80.5000015354157,2|2,0:0|0:0,0:0:0:0:
257,99,25978,2,0,L|361:99,1,80.5000015354157,10|2,0:0|0:0,0:0:0:0:
434,100,26610,1,2,0:0:0:0:
434,196,26926,1,2,0:3:0:0:
437,292,27241,1,10,0:0:0:0:
243,290,27873,6,0,L|162:290,1,80.5000015354157,2|2,0:0|0:3,0:0:0:0:
117,204,28505,2,0,L|197:204,1,80.5000015354157,2|2,0:0|0:3,0:0:0:0:
293,191,29136,2,0,B|292:153|292:153|289:145|289:145|289:124|289:124|293:116|293:116|293:55,1,120.750002303124,2|0,0:0|0:0,0:0:0:0:
293,23,29768,2,0,L|197:23,1,80.5000015354157,4|0,3:0|0:0,0:0:0:0:
115,23,30399,6,0,L|115:119,1,80.5000015354157,2|2,0:0|0:0,0:0:0:0:
200,144,31031,2,0,L|200:224,1,80.5000015354157,10|2,0:0|0:0,0:0:0:0:
200,320,31662,1,2,0:0:0:0:
296,320,31978,1,2,0:3:0:0:
392,320,32294,1,10,0:0:0:0:
392,128,32925,6,0,L|392:48,1,80.5000015354157,2|2,0:0|0:3,0:0:0:0:
296,40,33557,2,0,L|296:121,1,80.5000015354157,2|2,0:0|0:3,0:0:0:0:
200,128,34189,2,0,L|200:48,1,80.5000015354157,2|2,0:0|0:0,0:0:0:0:
104,32,34820,1,4,3:0:0:0:
112,224,35452,6,0,L|208:224,1,80.5000015354157
256,296,36084,2,0,L|352:296,1,80.5000015354157,10|2,0:0|0:0,0:0:0:0:
336,200,36715,1,2,0:0:0:0:
336,104,37031,1,2,3:0:0:0:
336,8,37347,1,10,0:0:0:0:
144,8,37978,6,0,B|96:8|96:8|96:48,1,80.5000015354157,2|2,0:0|0:3,0:0:0:0:
96,136,38610,2,0,B|96:168|96:168|144:168,1,80.5000015354157,2|2,0:0|0:3,0:0:0:0:
240,168,39241,2,0,L|240:0,1,161.000003070831,2|4,0:0|3:0,0:0:0:0:
