osu file format v14

[General]
AudioFilename: audio.mp3
AudioLeadIn: 0
PreviewTime: 84
Countdown: 0
SampleSet: Soft
StackLeniency: 0.7
Mode: 0
LetterboxInBreaks: 0
WidescreenStoryboard: 0

[Editor]
DistanceSpacing: 0.7
BeatDivisor: 8
GridSize: 4
TimelineZoom: 2.4

[Metadata]
Title:Spamton
TitleUnicode:Spamton
Artist:Toby Fox
ArtistUnicode:Toby Fox
Creator:atlas-
Version:[[KEYGEN]]
Source:DELTARUNE
Tags:deltarune chapter 2 two g chiptune normal hard keygen ost original soundtrack video game electronic english instrumental aeniko atlas bluirre
BeatmapID:3282697
BeatmapSetID:1607535

[Difficulty]
HPDrainRate:6
CircleSize:7.2
OverallDifficulty:8
ApproachRate:9
SliderMultiplier:2
SliderTickRate:1

[Events]
//Background and Video events
0,0,"Spamton_screenshot_shop_2560x1440.jpg",0,0
//Break Periods
//Storyboard Layer 0 (Background)
//Storyboard Layer 1 (Fail)
//Storyboard Layer 2 (Pass)
//Storyboard Layer 3 (Foreground)
//Storyboard Layer 4 (Overlay)
//Storyboard Sound Samples

[TimingPoints]
84,631.578947368421,4,2,1,60,1,0
10268,-100,4,2,1,5,0,0
10505,-100,4,2,1,60,0,0
10741,-100,4,2,1,5,0,0
10978,-100,4,2,1,60,0,0
11215,-100,4,2,1,5,0,0
11294,-100,4,2,1,60,0,0
11373,-100,4,2,1,5,0,0
11452,-100,4,2,1,60,0,0
12794,-100,4,2,1,5,0,0
13031,-100,4,2,1,60,0,0
13267,-100,4,2,1,5,0,0
13504,-100,4,2,1,60,0,0
13741,-100,4,2,1,5,0,0
13820,-100,4,2,1,60,0,0
13899,-100,4,2,1,5,0,0
13978,-100,4,2,1,60,0,0
15320,-100,4,2,1,5,0,0
15557,-100,4,2,1,60,0,0
15793,-100,4,2,1,5,0,0
16030,-100,4,2,1,60,0,0
16267,-100,4,2,1,5,0,0
16346,-100,4,2,1,60,0,0
16425,-100,4,2,1,5,0,0
16504,-100,4,2,1,60,0,0
17847,-100,4,2,1,5,0,0
18084,-100,4,2,1,60,0,0
18320,-100,4,2,1,5,0,0
18557,-100,4,2,1,60,0,0
18794,-100,4,2,1,5,0,0
18873,-100,4,2,1,60,0,0
18952,-100,4,2,1,5,0,0
19031,-100,4,2,1,60,0,0
20294,-90.9090909090909,4,2,1,60,0,0
24715,-80,4,2,1,60,0,0
25347,-90.9090909090909,4,2,1,60,0,0
34820,-80,4,2,1,60,0,0
35452,-90.9090909090909,4,2,1,60,0,0
39873,-80,4,2,1,60,0,0
40189,-80,4,2,1,40,0,0
40662,-100,4,2,1,40,0,0
41136,-100,4,2,1,30,0,0
41610,-100,4,2,1,20,0,0
42084,-100,4,2,1,10,0,0
42557,-100,4,2,1,5,0,0

[Colours]
Combo1 : 0,64,128
Combo2 : 255,176,255
Combo3 : 255,255,98
Combo4 : 60,191,255

[HitObjects]
30,37,84,6,0,L|139:32,1,100,2|2,0:0|0:3,0:0:0:0:
166,67,557,2,0,L|275:62,1,100,2|10,0:0|2:2,0:0:0:0:
302,28,1031,1,2,0:0:0:0:
133,118,1347,5,2,0:0:0:0:
124,117,1426,1,0,0:0:0:0:
116,116,1505,1,2,0:0:0:0:
178,151,1662,1,2,0:0:0:0:
227,144,1820,1,2,0:0:0:0:
274,139,1978,2,0,L|381:146,1,100,10|0,0:0|0:0,0:0:0:0:
482,37,2610,6,0,L|373:32,1,100,2|2,0:0|0:3,0:0:0:0:
346,67,3083,2,0,L|237:62,1,100,2|10,0:0|0:0,0:0:0:0:
210,28,3557,1,2,0:0:0:0:
433,99,3820,5,2,0:0:0:0:
433,99,3873,1,2,0:0:0:0:
428,148,4031,1,2,0:0:0:0:
461,188,4189,1,2,0:0:0:0:
456,238,4347,1,2,0:0:0:0:
491,279,4505,2,0,L|481:388,1,100,10|0,0:0|0:0,0:0:0:0:
378,296,5136,6,0,L|273:287,1,100,2|2,0:0|0:3,0:0:0:0:
273,341,5610,2,0,L|167:350,1,100,2|2,0:0|0:0,0:0:0:0:
216,291,6083,1,2,0:0:0:0:
71,278,6399,5,2,0:0:0:0:
121,271,6557,1,2,0:0:0:0:
65,228,6715,1,2,0:0:0:0:
115,221,6873,1,2,0:0:0:0:
57,176,7031,2,0,L|46:67,1,100,10|10,0:0|0:0,0:0:0:0:
132,17,7662,6,0,L|231:12,1,100,2|2,0:0|0:3,0:0:0:0:
291,68,8136,2,0,L|182:73,1,100,2|10,0:0|0:0,0:0:0:0:
147,104,8609,1,2,0:0:0:0:
329,156,8926,5,2,0:0:0:0:
341,154,9004,1,2,0:0:0:0:
353,155,9083,1,2,0:0:0:0:
365,160,9162,1,2,0:0:0:0:
374,168,9241,1,2,0:0:0:0:
381,178,9320,1,2,0:0:0:0:
385,190,9399,1,2,0:0:0:0:
386,203,9478,1,2,0:0:0:0:
384,214,9557,6,0,L|347:219,3,25,10|2|10|2,0:3|0:0|0:3|0:0,0:0:0:0:
311,204,9873,2,0,L|274:209,3,25,10|2|10|2,0:3|0:0|0:3|0:0,0:0:0:0:
237,177,10189,6,0,L|243:138,1,25,6|0,0:0|0:0,0:0:0:0:
289,98,10505,5,2,0:3:0:0:
186,173,10662,2,0,L|192:134,1,25,2|0,0:0|0:0,0:0:0:0:
240,92,10978,5,10,0:0:0:0:
135,166,11136,2,0,L|141:127,1,25,2|0,0:0|0:0,0:0:0:0:
124,235,11294,2,0,L|130:196,1,25
115,281,11452,5,2,0:0:0:0:
169,293,11610,1,2,0:0:0:0:
181,347,11768,1,2,0:0:0:0:
235,335,11926,1,2,0:0:0:0:
272,292,12083,2,0,L|384:309,1,100,10|0,0:0|0:0,0:0:0:0:
450,211,12715,6,0,L|445:165,1,25,2|0,0:0|0:0,0:0:0:0:
414,151,13031,5,2,0:3:0:0:
424,273,13189,2,0,L|419:227,1,25,2|0,0:0|0:0,0:0:0:0:
388,213,13505,5,10,0:0:0:0:
375,296,13662,2,0,L|370:250,1,25,2|0,0:0|0:0,0:0:0:0:
384,370,13820,2,0,L|379:324,1,25
316,219,13978,5,2,0:0:0:0:
262,207,14136,1,2,0:0:0:0:
327,169,14294,1,2,0:0:0:0:
273,157,14452,1,2,0:0:0:0:
338,117,14610,2,0,L|231:96,1,100,10|0,0:0|0:0,0:0:0:0:
34,22,15241,6,0,B|47:15|47:15|66:17,1,25,2|0,0:0|0:0,0:0:0:0:
104,24,15557,5,2,0:3:0:0:
33,75,15715,2,0,B|46:68|46:68|65:70,1,25,2|0,0:0|0:0,0:0:0:0:
101,79,16031,5,10,0:0:0:0:
30,129,16189,2,0,B|43:122|43:122|62:124,1,25,2|0,0:0|0:0,0:0:0:0:
38,175,16347,2,0,B|48:176|48:176|61:169,1,25
105,140,16505,5,2,0:0:0:0:
113,192,16662,1,2,0:0:0:0:
156,152,16820,1,2,0:0:0:0:
164,204,16977,1,2,0:0:0:0:
206,162,17136,2,0,L|192:57,1,100,10|10,0:0|0:0,0:0:0:0:
256,4,17768,6,0,L|256:28,1,25,2|0,0:0|0:0,0:0:0:0:
307,90,18084,5,2,0:3:0:0:
256,76,18241,2,0,L|256:100,1,25,2|0,0:0|0:0,0:0:0:0:
206,159,18557,5,10,0:0:0:0:
256,148,18715,2,0,L|256:172,1,25,2|0,0:0|0:0,0:0:0:0:
256,220,18873,2,0,L|256:244,1,25
256,296,19031,5,2,0:0:0:0:
277,296,19109,1,2,0:0:0:0:
299,296,19188,1,2,0:0:0:0:
321,296,19267,1,2,0:0:0:0:
343,296,19346,1,2,0:0:0:0:
365,296,19425,1,2,0:0:0:0:
387,296,19504,1,2,0:0:0:0:
409,296,19583,1,2,0:0:0:0:
431,296,19662,6,0,L|430:262,3,25,10|2|10|2,0:3|0:0|0:3|0:0,0:0:0:0:
430,222,19978,2,0,L|429:188,3,25,10|2|10|2,0:3|0:0|0:3|0:0,0:0:0:0:
428,144,20294,6,0,L|294:157,1,110.000003356934,6|2,0:0|0:0,0:0:0:0:
279,124,20768,1,2,0:0:0:0:
230,165,20926,2,0,B|252:181|252:181|285:168,1,55.0000016784668,10|0,0:0|0:0,0:0:0:0:
345,223,21241,2,0,B|323:207|323:207|290:220,1,55.0000016784668,2|0,0:0|0:0,0:0:0:0:
179,176,21557,6,0,L|190:69,1,82.5000025177003,2|0,0:0|0:0,0:0:0:0:
82,84,21873,2,0,L|74:167,1,82.5000025177003,2|0,0:3|0:0,0:0:0:0:
126,182,22189,2,0,L|135:72,1,110.000003356934,10|0,0:0|0:0,0:0:0:0:
296,279,22820,6,0,L|307:386,1,82.5000025177003,2|0,0:0|0:0,0:0:0:0:
241,378,23136,2,0,L|232:295,1,82.5000025177003,2|0,0:3|0:0,0:0:0:0:
296,279,23452,6,0,L|307:386,1,82.5000025177003,2|0,0:0|0:0,0:0:0:0:
241,378,23768,2,0,L|232:295,1,82.5000025177003,2|0,0:3|0:0,0:0:0:0:
265,228,24084,6,0,B|270:220|270:220|334:213,1,55.0000016784668,2|0,0:0|0:0,0:0:0:0:
257,171,24399,2,0,B|263:175|263:175|327:167,1,55.0000016784668,2|0,0:0|0:0,0:0:0:0:
429,139,24715,6,0,B|383:151|366:119|366:119|367:114|367:114|353:80|323:97|323:97|323:101|323:101|308:129|256:112,1,187.5,4|0,0:3|0:0,0:0:0:0:
230,40,25347,6,0,L|356:28,1,110.000003356934,2|2,0:0|0:0,0:0:0:0:
386,7,25820,1,2,0:0:0:0:
427,70,25978,2,0,L|435:4,1,55.0000016784668,10|0,0:0|0:0,0:0:0:0:
377,79,26294,2,0,L|370:133,1,55.0000016784668,2|0,0:0|0:0,0:0:0:0:
502,136,26610,6,0,B|468:113|468:113|428:125,1,82.5000025177003,2|0,0:0|0:0,0:0:0:0:
439,187,26926,2,0,B|473:210|473:210|513:198,1,82.5000025177003,2|0,0:3|0:0,0:0:0:0:
369,133,27241,2,0,L|259:119,1,110.000003356934,10|0,0:0|0:0,0:0:0:0:
150,97,27873,6,0,P|125:71|135:19,1,82.5000025177003,2|0,0:0|0:0,0:0:0:0:
174,12,28189,2,0,P|201:43|196:82,1,82.5000025177003,2|0,0:3|0:0,0:0:0:0:
150,97,28505,6,0,P|125:71|135:19,1,82.5000025177003,2|0,0:0|0:0,0:0:0:0:
174,12,28821,2,0,P|201:43|196:82,1,82.5000025177003,2|0,0:3|0:0,0:0:0:0:
242,204,29136,6,0,B|250:193|250:193|242:148,2,36.6666677856446,2|2|2,0:0|0:0|0:0,0:0:0:0:
309,126,29407,6,0,B|315:133|315:133|312:174,3,31.4285723876953,2|2|2|2,0:0|0:0|0:0|0:0,0:0:0:0:
335,210,29768,6,0,B|358:220|354:245|354:245|359:221|393:221,1,82.5000025177003,4|0,3:0|0:0,0:0:0:0:
397,179,30084,1,0,3:0:0:0:
395,173,30162,1,0,3:0:0:0:
390,170,30241,1,0,3:0:0:0:
385,168,30320,1,0,3:0:0:0:
335,210,30399,6,0,L|329:331,1,110.000003356934,2|2,0:0|0:0,0:0:0:0:
284,299,30873,1,2,0:0:0:0:
294,354,31031,2,0,P|282:370|248:377,1,55.0000016784668,10|0,0:0|0:0,0:0:0:0:
170,288,31347,2,0,P|196:291|207:316,1,55.0000016784668,2|0,0:0|0:0,0:0:0:0:
368,367,31662,6,0,B|397:334|397:334|446:364,1,82.5000025177003,2|0,0:0|0:0,0:0:0:0:
512,278,31978,2,0,B|483:245|483:245|434:275,1,82.5000025177003,2|0,0:3|0:0,0:0:0:0:
330,216,32294,2,0,B|368:172|368:172|433:212,1,110.000003356934,10|0,0:0|0:0,0:0:0:0:
222,375,32926,6,0,B|223:346|238:339|238:348|270:332|262:297,1,82.5000025177003,2|0,0:0|0:0,0:0:0:0:
245,219,33241,2,0,B|244:248|229:255|229:246|197:262|205:297,1,82.5000025177003,2|0,0:3|0:0,0:0:0:0:
222,375,33557,6,0,B|223:346|238:339|238:348|270:332|262:297,1,82.5000025177003,2|0,0:0|0:0,0:0:0:0:
245,219,33873,2,0,B|244:248|229:255|229:246|197:262|205:297,1,82.5000025177003,2|0,0:3|0:0,0:0:0:0:
331,254,34189,6,0,P|365:261|391:260,1,55.0000016784668,2|0,0:0|0:0,0:0:0:0:
325,309,34505,2,0,P|353:310|380:316,1,55.0000016784668,2|0,0:0|0:0,0:0:0:0:
512,167,34820,6,0,B|488:192|455:182|455:182|453:176|453:176|437:159|403:169|403:169|402:176|402:176|384:174|359:192|359:192|373:179|370:166,1,187.5,4|0,3:0|0:0,2:0:0:0:
326,0,35452,6,0,P|335:43|400:69,1,110.000003356934
436,71,35926,1,0,0:0:0:0:
383,117,36084,2,0,L|319:110,1,55.0000016784668,10|0,0:0|0:0,0:0:0:0:
279,104,36399,2,0,L|215:97,1,55.0000016784668,2|0,0:0|0:0,0:0:0:0:
231,181,36715,6,0,B|241:190|241:190|315:178,1,82.5000025177003,2|0,0:0|0:0,0:0:0:0:
242,252,37031,2,0,B|247:237|247:237|328:224,1,82.5000025177003,2|0,3:0|0:0,0:0:0:0:
458,232,37347,2,0,B|426:243|407:215|411:212|416:210|400:180|353:199,1,110.000003356934,10|0,0:0|0:0,0:0:0:0:
97,106,37978,6,0,B|103:116|116:123|116:123|107:199,1,82.5000025177003,2|0,0:0|0:0,0:0:0:0:
187,118,38294,2,0,B|175:128|164:129|164:129|156:192,1,82.5000025177003,2|0,0:3|0:0,0:0:0:0:
97,106,38610,6,0,B|103:116|116:123|116:123|107:199,1,82.5000025177003,2|0,0:0|0:0,0:0:0:0:
187,118,38926,2,0,B|175:128|164:129|164:129|156:192,1,82.5000025177003,2|0,0:3|0:0,0:0:0:0:
127,264,39241,6,0,L|132:214,2,36.6666677856446,2|2|2,0:0|0:0|0:0,0:0:0:0:
121,344,39512,6,0,L|124:303,3,31.4285723876953,2|2|2|2,0:0|0:0|0:0|0:0,0:0:0:0:
166,373,39873,6,0,P|201:350|206:320,1,62.5,4|0,3:0|0:0,0:0:0:0:
185,285,40189,5,0,0:0:0:0:
213,247,40347,1,2,3:2:0:0:
223,248,40426,1,2,3:2:0:0:
226,257,40505,1,2,3:2:0:0:
201,197,40662,5,0,0:0:0:0:
248,185,40820,1,2,3:2:0:0:
254,192,40899,1,2,3:2:0:0:
249,200,40978,1,2,3:2:0:0:
264,122,41136,5,0,0:0:0:0:
306,147,41293,1,2,3:2:0:0:
306,154,41372,1,2,3:2:0:0:
299,157,41451,1,2,3:2:0:0:
344,90,41610,5,0,0:0:0:0:
360,133,41767,1,2,3:2:0:0:
357,137,41846,1,2,3:2:0:0:
352,135,41925,1,2,3:2:0:0:
431,88,42084,5,0,0:0:0:0:
419,132,42241,1,2,3:2:0:0:
415,133,42320,1,2,3:2:0:0:
413,129,42400,1,2,3:2:0:0:
512,135,42557,5,0,0:0:0:0:
469,153,42715,1,2,3:2:0:0:
466,151,42794,1,2,3:2:0:0:
467,148,42873,1,2,3:2:0:0:
