osu file format v14

[General]
AudioFilename: audio.mp3
AudioLeadIn: 0
PreviewTime: 12502
Countdown: 0
SampleSet: Soft
StackLeniency: 0.7
Mode: 0
LetterboxInBreaks: 0
WidescreenStoryboard: 0

[Editor]
Bookmarks: 115,12502,24889,37276
DistanceSpacing: 0.9
BeatDivisor: 4
GridSize: 8
TimelineZoom: 2.2

[Metadata]
Title:Shop (Jelly Fernandez Remix)
TitleUnicode:Shop (Jelly Fernandez Remix)
Artist:toby fox
ArtistUnicode:toby fox
Creator:Cycopton
Version:Window Shopping
Source:UNDERTALE
Tags:agatsu rialkuu daxmasterix trap under tale keeper vgm video game
BeatmapID:2189544
BeatmapSetID:1040162

[Difficulty]
HPDrainRate:7
CircleSize:4
OverallDifficulty:7
ApproachRate:9
SliderMultiplier:1.4
SliderTickRate:1

[Events]
//Background and Video events
0,0,"shopglas.jpg",0,0
//Break Periods
//Storyboard Layer 0 (Background)
//Storyboard Layer 1 (Fail)
//Storyboard Layer 2 (Pass)
//Storyboard Layer 3 (Foreground)
//Storyboard Layer 4 (Overlay)
//Storyboard Sound Samples

[TimingPoints]
115,387.096774193548,4,2,1,60,1,0
115,-166.666666666667,4,2,1,60,0,0
889,-166.666666666667,4,2,1,10,0,0
1276,-166.666666666667,4,2,1,60,0,0
1534,-166.666666666667,4,2,1,10,0,0
1663,-166.666666666667,4,2,1,60,0,0
1953,-166.666666666667,4,2,1,10,0,0
2050,-166.666666666667,4,2,1,60,0,0
2340,-166.666666666667,4,2,1,10,0,0
2437,-166.666666666667,4,2,1,60,0,0
3792,-166.666666666667,4,2,1,10,0,0
3985,-166.666666666667,4,2,1,60,0,0
4760,-250,4,2,1,60,0,0
5921,-166.666666666667,4,2,1,10,0,0
6308,-166.666666666667,4,2,1,60,0,0
7082,-166.666666666667,4,2,1,10,0,0
7469,-166.666666666667,4,2,1,60,0,0
7727,-166.666666666667,4,2,1,10,0,0
7856,-166.666666666667,4,2,1,60,0,0
8147,-166.666666666667,4,2,1,10,0,0
8244,-166.666666666667,4,2,1,60,0,0
8534,-166.666666666667,4,2,1,10,0,0
8631,-166.666666666667,4,2,1,60,0,0
9985,-166.666666666667,4,2,1,10,0,0
10179,-166.666666666667,4,2,1,60,0,0
12502,-100,4,3,0,85,0,1
24889,-166.666666666667,4,2,1,70,0,0
37276,-100,4,3,0,85,0,1
49276,-100,4,3,0,85,0,0

[Colours]
Combo1 : 255,128,255
Combo2 : 255,128,64
Combo3 : 255,255,128

[HitObjects]
189,65,115,6,0,P|159:95|208:205,1,167.999994873047,2|0,0:0|0:0,0:0:0:0:
389,106,1276,2,0,L|328:124,1,55.9999982910157,2|2,0:0|0:0,0:0:0:0:
319,135,1663,2,0,P|285:147|251:142,1,62.9999980773926,2|0,0:0|0:0,0:0:0:0:
135,51,2050,2,0,P|170:57|197:78,1,62.9999980773926,2|0,0:0|0:0,0:0:0:0:
233,276,2437,2,0,L|237:239,2,27.9999991455078,2|2|2,0:0|0:0|0:0,0:0:0:0:
215,293,2824,1,2,0:0:0:0:
101,120,3211,6,0,P|144:133|167:212,1,125.999996154785,2|0,0:0|0:0,0:0:0:0:
284,167,3985,1,2,0:0:0:0:
175,56,4373,1,2,0:0:0:0:
215,293,4760,2,0,P|255:241|262:306,1,167.999994873047,2|0,0:0|0:0,0:0:0:0:
421,305,6308,6,0,B|381:281|341:305|341:305|301:329|261:305,1,167.999994873047,2|0,0:0|0:0,0:0:0:0:
314,97,7469,2,0,P|322:118|318:162,1,55.9999982910157,2|2,0:0|0:0,0:0:0:0:
305,171,7856,2,0,L|303:238,1,62.9999980773926,2|0,0:0|0:0,0:0:0:0:
219,357,8244,2,0,L|221:290,1,62.9999980773926,2|0,0:0|0:0,0:0:0:0:
434,209,8631,2,0,L|398:212,2,27.9999991455078,2|2|2,0:0|0:0|0:0,0:0:0:0:
451,191,9018,1,2,0:0:0:0:
325,29,9405,6,0,P|288:29|245:105,1,125.999996154785,2|0,0:0|0:0,0:0:0:0:
265,200,10179,1,2,0:0:0:0:
144,78,10566,1,2,0:0:0:0:
123,277,10953,2,0,B|85:251|66:221|98:218|115:233|115:233|130:215|161:213|148:246|119:273,1,167.999994873047,2|0,0:0|0:0,0:0:0:0:
123,277,12114,1,0,0:0:0:0:
423,113,12502,6,0,L|276:108,1,140,2|0,0:0|0:0,0:0:0:0:
213,238,13082,1,0,0:0:0:0:
213,238,13147,1,0,0:0:0:0:
213,238,13211,1,0,0:0:0:0:
213,238,13276,2,0,P|211:190|224:166,1,70,8|0,0:0|0:0,0:0:0:0:
369,325,13663,1,2,0:0:0:0:
351,208,13856,1,2,0:0:0:0:
254,326,14050,6,0,P|209:334|164:323,1,70,2|0,0:0|0:0,0:0:0:0:
351,208,14437,2,0,P|396:200|441:211,1,70,2|0,0:0|0:0,0:0:0:0:
213,238,14824,1,10,0:0:0:0:
176,150,14921,1,2,0:0:0:0:
96,201,15018,1,2,0:0:0:0:
39,94,15211,2,0,P|79:69|112:66,1,70,6|0,0:0|0:0,0:0:0:0:
10,309,15598,6,0,L|5:166,1,140,2|0,0:0|0:0,0:0:0:0:
187,299,16179,1,0,0:0:0:0:
187,299,16244,1,0,0:0:0:0:
187,299,16308,1,0,0:0:0:0:
187,299,16373,2,0,P|213:255|210:228,1,70,10|0,0:0|0:0,0:0:0:0:
113,114,16760,2,0,P|138:158|162:169,1,70,2|0,0:0|0:0,0:0:0:0:
233,38,17147,6,0,L|159:40,1,70,2|0,0:0|0:0,0:0:0:0:
254,170,17534,1,0,0:0:0:0:
348,34,17727,1,0,0:0:0:0:
389,196,17921,1,8,0:0:0:0:
348,34,18114,1,0,0:0:0:0:
246,178,18308,2,0,L|250:102,1,70,4|0,0:0|0:0,0:0:0:0:
397,204,18695,6,0,P|430:281|488:280,1,140,2|0,0:0|0:0,0:0:0:0:
502,147,19276,1,0,0:0:0:0:
502,147,19340,1,0,0:0:0:0:
502,147,19405,1,0,0:0:0:0:
502,147,19469,2,0,L|501:67,1,70,8|0,0:0|0:0,0:0:0:0:
338,122,19856,1,2,0:0:0:0:
356,5,20049,1,2,0:0:0:0:
274,187,20244,6,0,P|232:196|196:183,1,70,2|0,0:0|0:0,0:0:0:0:
121,78,20631,2,0,P|163:69|199:82,1,70,2|0,0:0|0:0,0:0:0:0:
61,213,21018,1,10,0:0:0:0:
150,183,21114,1,2,0:0:0:0:
149,279,21211,1,2,0:0:0:0:
247,204,21405,2,0,P|247:156|233:125,1,70,6|0,0:0|0:0,0:0:0:0:
310,276,21792,6,0,L|452:269,1,140,2|0,0:0|0:0,0:0:0:0:
506,204,22373,1,0,0:0:0:0:
506,204,22437,1,0,0:0:0:0:
506,204,22502,1,0,0:0:0:0:
506,204,22566,2,0,P|501:146|474:121,1,70,10|0,0:0|0:0,0:0:0:0:
379,228,22953,2,0,P|426:194|434:158,1,70,2|0,0:0|0:0,0:0:0:0:
346,84,23340,2,0,L|358:166,1,70,2|0,0:0|0:0,0:0:0:0:
193,210,23727,5,0,0:0:0:0:
217,72,23921,1,0,0:0:0:0:
276,154,24114,1,8,0:0:0:0:
217,72,24308,1,0,0:0:0:0:
185,218,24502,1,4,0:0:0:0:
217,72,24695,1,0,0:0:0:0:
284,162,24889,5,0,0:0:0:0:
390,76,25276,2,0,L|487:71,2,83.9999974365235,2|2|2,0:0|0:0|0:0,0:0:0:0:
284,162,26437,2,0,P|229:177|199:165,1,83.9999974365235,2|2,0:0|0:0,0:0:0:0:
68,83,27211,2,0,P|123:67|153:79,1,83.9999974365235,2|2,0:0|0:0,0:0:0:0:
264,184,27985,2,0,B|271:63|271:63|237:105,2,167.999994873047,2|2|2,0:0|0:0|0:0,0:0:0:0:
95,262,29921,1,0,0:0:0:0:
95,262,30695,1,0,0:0:0:0:
334,354,31082,5,0,0:0:0:0:
402,255,31469,2,0,P|411:208|398:172,2,83.9999974365235,2|2|2,0:0|0:0|0:0,0:0:0:0:
247,119,32631,2,0,L|335:114,1,83.9999974365235,2|2,0:0|0:0,0:0:0:0:
252,247,33405,2,0,L|164:242,1,83.9999974365235,2|2,0:0|0:0,0:0:0:0:
129,73,34179,6,0,P|195:190|65:161,1,335.999989746094,2|0,0:0|0:0,0:0:0:0:
232,142,36114,1,0,0:0:0:0:
410,346,36889,1,2,0:0:0:0:
416,267,37082,1,2,0:0:0:0:
422,188,37276,6,0,P|388:168|334:174,1,70,2|0,0:0|0:0,0:0:0:0:
182,299,37663,2,0,P|216:279|238:229,1,70,2|0,0:0|0:0,0:0:0:0:
232,231,37920,1,0,0:0:0:0:
231,207,37985,1,0,0:0:0:0:
231,184,38050,2,0,L|229:111,1,70,10|0,0:0|0:0,0:0:0:0:
65,42,38437,2,0,L|63:111,1,70,2|0,0:0|0:0,0:0:0:0:
198,216,38824,5,2,0:0:0:0:
63,111,39018,1,0,0:0:0:0:
49,286,39211,1,2,0:0:0:0:
155,85,39405,1,0,0:0:0:0:
144,305,39598,1,10,0:0:0:0:
75,125,39792,1,0,0:0:0:0:
55,301,39985,1,6,0:0:0:0:
55,301,40373,6,0,P|112:322|133:318,1,70
257,184,40760,2,0,P|201:209|189:227,1,70,2|0,0:0|0:0,0:0:0:0:
197,238,41017,1,0,0:0:0:0:
198,262,41082,1,0,0:0:0:0:
198,285,41147,2,0,P|224:307|257:316,1,70,10|0,0:0|0:0,0:0:0:0:
338,217,41534,2,0,L|338:297,1,70,2|0,0:0|0:0,0:0:0:0:
400,147,41921,5,2,0:0:0:0:
338,287,42114,1,0,0:0:0:0:
303,139,42308,1,2,0:0:0:0:
372,310,42502,1,0,0:0:0:0:
429,165,42695,1,10,0:0:0:0:
345,318,42889,1,0,0:0:0:0:
320,98,43082,1,6,0:0:0:0:
320,98,43469,6,0,L|401:94,1,70,2|0,0:0|0:0,0:0:0:0:
257,184,43856,2,0,L|187:180,1,70
163,181,44114,1,0,0:0:0:0:
140,182,44179,1,0,0:0:0:0:
117,183,44244,2,0,P|100:212|98:253,1,70,8|0,0:0|0:0,0:0:0:0:
131,101,44631,2,0,P|97:100|60:119,1,70
244,150,45018,5,0,0:0:0:0:
200,27,45211,1,0,0:0:0:0:
150,170,45405,1,0,0:0:0:0:
224,11,45598,1,0,0:0:0:0:
266,259,45792,2,0,P|317:274|338:272,1,70,10|0,0:0|0:0,0:0:0:0:
447,81,46179,2,0,P|408:117|399:136,1,70,6|0,0:0|0:0,0:0:0:0:
491,232,46566,6,0,L|488:149,1,70,2|0,0:0|0:0,0:0:0:0:
336,203,46953,2,0,L|333:286,1,70
332,295,47211,1,0,0:0:0:0:
331,318,47276,1,0,0:0:0:0:
330,341,47340,2,0,P|282:356|248:342,1,70,8|0,0:0|0:0,0:0:0:0:
124,273,47727,2,0,P|172:258|206:272,1,70
42,353,48114,5,0,0:0:0:0:
78,214,48308,1,0,0:0:0:0:
167,340,48502,1,0,0:0:0:0:
163,141,48695,1,0,0:0:0:0:
48,256,48889,5,8,0:0:0:0:
70,86,49082,1,0,0:0:0:0:
175,175,49276,1,4,0:0:0:0:
