osu file format v14

[General]
AudioFilename: audio.ogg
AudioLeadIn: 0
PreviewTime: 13775
Countdown: 0
SampleSet: Normal
StackLeniency: 0.7
Mode: 1
LetterboxInBreaks: 0
WidescreenStoryboard: 1

[Editor]
Bookmarks: 622,7479,9193,12622,14336,18193,28050,41764,51514
DistanceSpacing: 1.2
BeatDivisor: 4
GridSize: 32
TimelineZoom: 1.4

[Metadata]
Title:Rude Buster
TitleUnicode:Rude Buster
Artist:Toby Fox
ArtistUnicode:Toby Fox
Creator:_Vex
Version:Refi's Oni
Source:DELTARUNE
Tags:Battle Theme delta rune official soundtrack ost video game videogame 8-4 kris ralsei susie refi reficul mid midnaait vatron vxtron suhle _shl01 electronic instrumental chiptune midi orchestral Chapter 1 one
BeatmapID:2582055
BeatmapSetID:1241797

[Difficulty]
HPDrainRate:6
CircleSize:5
OverallDifficulty:6
ApproachRate:5
SliderMultiplier:1.4
SliderTickRate:1

[Events]
//Background and Video events
0,0,"cropped-1920-1080-971721.jpg",0,0
//Break Periods
//Storyboard Layer 0 (Background)
//Storyboard Layer 1 (Fail)
//Storyboard Layer 2 (Pass)
//Storyboard Layer 3 (Foreground)
//Storyboard Layer 4 (Overlay)
//Storyboard Sound Samples

[TimingPoints]
61,428.571428571429,4,1,0,60,1,0
48061,-100,4,1,0,60,0,1
53953,-100,4,1,0,60,0,0
54918,-100,4,1,0,60,0,1
61346,-100,4,1,0,60,0,0
65203,-100,4,1,0,60,0,1
66918,-100,4,1,0,60,0,0
72061,-100,4,1,0,60,0,1
75489,-100,4,1,0,60,0,0

[HitObjects]
198,123,61,5,4,0:0:0:0:
198,123,489,1,0,0:0:0:0:
198,123,596,1,8,0:0:0:0:
157,117,811,1,0,0:0:0:0:
157,117,1025,1,8,0:0:0:0:
157,117,1132,1,0,0:0:0:0:
184,122,1239,1,0,0:0:0:0:
157,117,1346,1,8,0:0:0:0:
157,117,1561,1,8,0:0:0:0:
162,118,1775,1,0,0:0:0:0:
163,118,1989,1,8,0:0:0:0:
164,118,2096,1,0,0:0:0:0:
168,120,2311,1,8,0:0:0:0:
168,120,2525,1,0,0:0:0:0:
168,120,2739,1,0,0:0:0:0:
170,119,2846,1,0,0:0:0:0:
191,123,2953,1,0,0:0:0:0:
173,119,3061,1,8,0:0:0:0:
173,120,3275,1,8,0:0:0:0:
174,121,3489,1,0,0:0:0:0:
175,121,3918,1,8,0:0:0:0:
173,119,4025,1,8,0:0:0:0:
173,120,4239,1,0,0:0:0:0:
174,121,4453,1,8,0:0:0:0:
175,121,4561,1,0,0:0:0:0:
183,136,4668,1,0,0:0:0:0:
175,121,4775,1,8,0:0:0:0:
178,121,4989,1,8,0:0:0:0:
178,121,5203,1,0,0:0:0:0:
163,121,5418,1,0,0:0:0:0:
175,121,5525,1,0,0:0:0:0:
165,120,5632,1,8,0:0:0:0:
165,120,5846,1,0,0:0:0:0:
185,125,5953,1,8,0:0:0:0:
173,141,6168,1,8,0:0:0:0:
185,125,6275,1,0,0:0:0:0:
186,124,6489,1,8,0:0:0:0:
171,119,6703,1,8,0:0:0:0:
171,119,6811,1,8,0:0:0:0:
165,120,6918,1,0,0:0:0:0:
167,129,7346,1,0,0:0:0:0:
167,129,7453,1,8,0:0:0:0:
167,129,7668,1,0,0:0:0:0:
167,129,7882,1,8,0:0:0:0:
167,129,7989,1,0,0:0:0:0:
167,129,8096,1,0,0:0:0:0:
167,129,8203,1,8,0:0:0:0:
167,129,8418,1,8,0:0:0:0:
167,129,8632,1,0,0:0:0:0:
167,129,8846,1,8,0:0:0:0:
167,129,8953,1,0,0:0:0:0:
167,129,9168,1,8,0:0:0:0:
167,129,9382,1,0,0:0:0:0:
167,129,9596,1,0,0:0:0:0:
167,129,9703,1,0,0:0:0:0:
167,129,9811,1,0,0:0:0:0:
167,129,9918,1,8,0:0:0:0:
167,129,10132,1,8,0:0:0:0:
167,129,10346,1,0,0:0:0:0:
167,129,10775,1,8,0:0:0:0:
167,129,10882,1,8,0:0:0:0:
167,129,11096,1,0,0:0:0:0:
167,129,11311,1,8,0:0:0:0:
167,129,11418,1,0,0:0:0:0:
167,129,11525,1,0,0:0:0:0:
167,129,11632,1,8,0:0:0:0:
167,129,11846,1,8,0:0:0:0:
167,129,12061,1,0,0:0:0:0:
163,119,12275,1,0,0:0:0:0:
167,129,12382,1,0,0:0:0:0:
162,119,12489,1,8,0:0:0:0:
162,118,12703,1,8,0:0:0:0:
167,129,12811,1,0,0:0:0:0:
167,129,13132,1,8,0:0:0:0:
163,148,13239,1,8,0:0:0:0:
167,129,13346,1,0,0:0:0:0:
162,144,13453,1,0,0:0:0:0:
162,146,13561,1,8,0:0:0:0:
162,135,13775,1,4,0:0:0:0:
132,131,14203,1,0,0:0:0:0:
132,131,14311,1,0,0:0:0:0:
132,131,14418,1,8,0:0:0:0:
132,131,14525,1,8,0:0:0:0:
132,131,14739,1,0,0:0:0:0:
132,131,14953,1,0,0:0:0:0:
132,131,15168,1,8,0:0:0:0:
132,131,15489,1,8,0:0:0:0:
132,114,15703,1,0,0:0:0:0:
132,131,15811,1,8,0:0:0:0:
132,131,16025,1,8,0:0:0:0:
132,131,16239,1,8,0:0:0:0:
132,131,16346,1,0,0:0:0:0:
132,131,16561,1,0,0:0:0:0:
132,131,16668,1,0,0:0:0:0:
146,116,16775,1,8,0:0:0:0:
146,116,16989,1,8,0:0:0:0:
146,116,17203,1,0,0:0:0:0:
146,116,17632,1,0,0:0:0:0:
146,116,17739,1,0,0:0:0:0:
146,116,17846,1,8,0:0:0:0:
146,116,17953,1,8,0:0:0:0:
146,116,18168,1,0,0:0:0:0:
146,116,18382,1,0,0:0:0:0:
146,116,18596,1,8,0:0:0:0:
146,116,18918,1,8,0:0:0:0:
146,116,19239,1,8,0:0:0:0:
146,116,19453,1,0,0:0:0:0:
146,116,19668,1,8,0:0:0:0:
143,99,19882,1,0,0:0:0:0:
143,99,19989,1,8,0:0:0:0:
145,98,20096,1,8,0:0:0:0:
146,116,20203,1,0,0:0:0:0:
146,116,20418,1,8,0:0:0:0:
146,116,20632,1,0,0:0:0:0:
134,114,21061,1,0,0:0:0:0:
133,113,21168,1,0,0:0:0:0:
133,112,21275,1,8,0:0:0:0:
133,112,21382,1,8,0:0:0:0:
133,112,21596,1,0,0:0:0:0:
134,114,21811,1,0,0:0:0:0:
134,114,22025,1,8,0:0:0:0:
133,112,22346,1,8,0:0:0:0:
171,104,22561,1,8,0:0:0:0:
134,114,22668,1,0,0:0:0:0:
134,114,22882,1,0,0:0:0:0:
133,112,23096,1,0,0:0:0:0:
133,112,23203,1,8,0:0:0:0:
134,114,23418,1,8,0:0:0:0:
134,114,23525,1,8,0:0:0:0:
139,118,23632,1,0,0:0:0:0:
115,136,23846,1,8,0:0:0:0:
142,100,24061,1,0,0:0:0:0:
134,114,24489,1,0,0:0:0:0:
134,114,24596,1,0,0:0:0:0:
134,114,24703,1,8,0:0:0:0:
134,114,24811,1,8,0:0:0:0:
134,114,25025,1,0,0:0:0:0:
134,114,25239,1,0,0:0:0:0:
138,111,25453,1,8,0:0:0:0:
138,111,25775,1,0,0:0:0:0:
138,111,26096,1,8,0:0:0:0:
138,111,26311,1,0,0:0:0:0:
138,111,26525,1,8,0:0:0:0:
130,93,26739,1,0,0:0:0:0:
127,96,26846,1,0,0:0:0:0:
130,93,26953,1,0,0:0:0:0:
138,111,27061,1,8,0:0:0:0:
138,111,27275,1,8,0:0:0:0:
138,111,27489,1,4,0:0:0:0:
136,134,27811,1,8,0:0:0:0:
137,134,27918,1,8,0:0:0:0:
139,134,28132,1,0,0:0:0:0:
139,133,28239,1,0,0:0:0:0:
139,133,28346,1,8,0:0:0:0:
136,134,28668,1,0,0:0:0:0:
139,134,28989,1,8,0:0:0:0:
139,134,29203,1,0,0:0:0:0:
136,134,29525,1,8,0:0:0:0:
136,134,29632,1,8,0:0:0:0:
139,134,29846,1,0,0:0:0:0:
139,134,29953,1,0,0:0:0:0:
139,134,30061,1,8,0:0:0:0:
179,131,30275,1,0,0:0:0:0:
141,132,30382,1,8,0:0:0:0:
142,131,30596,1,8,0:0:0:0:
139,134,30703,1,8,0:0:0:0:
139,134,30918,1,0,0:0:0:0:
141,132,31239,1,8,0:0:0:0:
141,132,31346,1,8,0:0:0:0:
139,134,31561,1,0,0:0:0:0:
139,134,31668,1,0,0:0:0:0:
144,135,31775,1,8,0:0:0:0:
144,135,32096,1,0,0:0:0:0:
144,135,32418,1,8,0:0:0:0:
144,135,32632,1,0,0:0:0:0:
140,128,32846,1,8,0:0:0:0:
144,135,32953,1,0,0:0:0:0:
144,135,33168,1,0,0:0:0:0:
144,135,33382,1,8,0:0:0:0:
144,135,33918,1,8,0:0:0:0:
144,135,34132,1,8,0:0:0:0:
138,132,34346,1,0,0:0:0:0:
137,134,34668,1,8,0:0:0:0:
137,134,34775,1,8,0:0:0:0:
137,134,34989,1,0,0:0:0:0:
137,133,35096,1,0,0:0:0:0:
138,132,35203,1,8,0:0:0:0:
137,134,35525,1,0,0:0:0:0:
137,134,35846,1,8,0:0:0:0:
137,133,36061,1,0,0:0:0:0:
137,134,36382,1,8,0:0:0:0:
137,134,36489,1,8,0:0:0:0:
137,134,36703,1,0,0:0:0:0:
137,134,36811,1,0,0:0:0:0:
144,133,36918,1,8,0:0:0:0:
144,134,37132,1,0,0:0:0:0:
144,134,37239,1,8,0:0:0:0:
144,133,37453,1,8,0:0:0:0:
146,134,37561,1,8,0:0:0:0:
146,134,37775,1,0,0:0:0:0:
156,134,38096,1,8,0:0:0:0:
156,134,38203,1,8,0:0:0:0:
156,134,38418,1,0,0:0:0:0:
156,134,38525,1,0,0:0:0:0:
156,134,38632,1,8,0:0:0:0:
156,134,38953,1,0,0:0:0:0:
156,134,39275,1,0,0:0:0:0:
156,134,39489,1,8,0:0:0:0:
148,124,39703,1,0,0:0:0:0:
156,134,39811,1,0,0:0:0:0:
156,134,40025,1,8,0:0:0:0:
156,134,40239,1,0,0:0:0:0:
156,134,40561,1,8,0:0:0:0:
156,134,40668,1,8,0:0:0:0:
159,120,40775,1,0,0:0:0:0:
160,104,40882,1,0,0:0:0:0:
160,104,40989,1,8,0:0:0:0:
160,104,41203,1,4,0:0:0:0:
177,126,41632,1,0,0:0:0:0:
177,126,41739,1,8,0:0:0:0:
177,126,41953,1,0,0:0:0:0:
177,126,42168,1,8,0:0:0:0:
177,126,42275,1,0,0:0:0:0:
177,126,42489,1,8,0:0:0:0:
177,126,42703,1,0,0:0:0:0:
177,126,42918,1,0,0:0:0:0:
177,126,43132,1,8,0:0:0:0:
177,126,43239,1,0,0:0:0:0:
177,126,43453,1,8,0:0:0:0:
177,126,43668,1,0,0:0:0:0:
177,126,43882,1,8,0:0:0:0:
177,126,43989,1,0,0:0:0:0:
156,124,44096,1,0,0:0:0:0:
177,126,44203,1,8,0:0:0:0:
177,126,44632,1,0,0:0:0:0:
177,126,44846,1,8,0:0:0:0:
177,126,45061,1,0,0:0:0:0:
177,126,45168,1,8,0:0:0:0:
177,126,45382,1,0,0:0:0:0:
177,126,45596,1,8,0:0:0:0:
177,126,45703,1,0,0:0:0:0:
177,126,45918,1,8,0:0:0:0:
177,126,46132,1,0,0:0:0:0:
177,126,46346,1,0,0:0:0:0:
165,115,46561,1,8,0:0:0:0:
165,114,46668,1,0,0:0:0:0:
165,114,46775,1,8,0:0:0:0:
165,114,46882,1,0,0:0:0:0:
177,126,47096,1,8,0:0:0:0:
155,108,47311,1,8,0:0:0:0:
177,126,47418,1,0,0:0:0:0:
177,126,47632,1,8,0:0:0:0:
177,126,47846,1,8,0:0:0:0:
177,126,48061,1,4,0:0:0:0:
201,102,48489,1,8,0:0:0:0:
172,122,48703,1,0,0:0:0:0:
172,121,48811,1,8,0:0:0:0:
171,120,48918,1,0,0:0:0:0:
201,102,49239,1,0,0:0:0:0:
201,102,49346,1,8,0:0:0:0:
172,122,49561,1,8,0:0:0:0:
172,122,49668,1,8,0:0:0:0:
172,121,49775,1,0,0:0:0:0:
172,122,49989,1,8,0:0:0:0:
172,122,50096,1,8,0:0:0:0:
172,122,50203,1,0,0:0:0:0:
172,122,50311,1,0,0:0:0:0:
172,122,50525,1,8,0:0:0:0:
172,121,50739,1,0,0:0:0:0:
172,122,50953,1,8,0:0:0:0:
172,122,51168,1,8,0:0:0:0:
172,122,51382,1,0,0:0:0:0:
172,122,51918,1,8,0:0:0:0:
172,122,52132,1,8,0:0:0:0:
172,122,52346,1,0,0:0:0:0:
172,122,52453,1,8,0:0:0:0:
172,122,52561,1,0,0:0:0:0:
172,122,52775,1,8,0:0:0:0:
172,122,52989,1,0,0:0:0:0:
172,122,53096,1,8,0:0:0:0:
172,122,53203,1,8,0:0:0:0:
163,121,53418,1,8,0:0:0:0:
172,122,53525,1,0,0:0:0:0:
172,122,53953,1,0,0:0:0:0:
172,122,54168,1,0,0:0:0:0:
172,122,54382,1,0,0:0:0:0:
172,122,54489,1,0,0:0:0:0:
172,122,54596,1,8,0:0:0:0:
172,122,54703,1,0,0:0:0:0:
172,122,54918,1,8,0:0:0:0:
185,124,55132,1,0,0:0:0:0:
185,124,55239,1,8,0:0:0:0:
185,124,55346,1,8,0:0:0:0:
185,124,55561,1,0,0:0:0:0:
185,124,55668,1,8,0:0:0:0:
185,124,55775,1,8,0:0:0:0:
185,124,55882,1,8,0:0:0:0:
185,124,55989,1,0,0:0:0:0:
185,124,56203,1,8,0:0:0:0:
197,118,56418,1,0,0:0:0:0:
177,124,56525,1,0,0:0:0:0:
177,124,56632,1,8,0:0:0:0:
178,124,56846,1,0,0:0:0:0:
178,124,56953,1,8,0:0:0:0:
178,124,57168,1,8,0:0:0:0:
178,124,57275,1,0,0:0:0:0:
177,124,57489,1,8,0:0:0:0:
177,124,57596,1,8,0:0:0:0:
178,124,57703,1,0,0:0:0:0:
178,124,57811,1,0,0:0:0:0:
178,124,57918,1,8,0:0:0:0:
178,124,58132,1,0,0:0:0:0:
178,124,58239,1,0,0:0:0:0:
177,124,58346,1,8,0:0:0:0:
177,124,58561,1,8,0:0:0:0:
178,124,58668,1,0,0:0:0:0:
178,124,58882,1,0,0:0:0:0:
178,124,58989,1,0,0:0:0:0:
178,124,59096,1,8,0:0:0:0:
177,124,59311,1,8,0:0:0:0:
177,124,59418,1,0,0:0:0:0:
178,124,59632,1,0,0:0:0:0:
178,124,59846,1,8,0:0:0:0:
178,124,60061,1,0,0:0:0:0:
177,124,60382,1,8,0:0:0:0:
178,124,60596,1,0,0:0:0:0:
178,124,60811,1,0,0:0:0:0:
173,121,61132,1,0,0:0:0:0:
177,124,61239,1,0,0:0:0:0:
165,115,61346,1,8,0:0:0:0:
164,113,61561,1,8,0:0:0:0:
164,113,61775,1,0,0:0:0:0:
159,119,62203,1,0,0:0:0:0:
159,118,62418,1,8,0:0:0:0:
159,117,62632,1,0,0:0:0:0:
161,117,62739,1,8,0:0:0:0:
159,119,62846,1,8,0:0:0:0:
159,119,62953,1,0,0:0:0:0:
159,118,63275,1,0,0:0:0:0:
159,118,63382,1,8,0:0:0:0:
159,119,63918,1,0,0:0:0:0:
159,118,64132,1,8,0:0:0:0:
159,118,64346,1,8,0:0:0:0:
159,119,64453,1,0,0:0:0:0:
159,119,64561,1,0,0:0:0:0:
159,119,64668,1,8,0:0:0:0:
159,119,64882,1,0,0:0:0:0:
159,118,65203,1,8,0:0:0:0:
137,114,65311,1,0,0:0:0:0:
137,114,65525,1,8,0:0:0:0:
137,114,65632,1,0,0:0:0:0:
137,114,65846,1,0,0:0:0:0:
137,114,65953,1,0,0:0:0:0:
137,114,66061,1,8,0:0:0:0:
137,114,66275,1,0,0:0:0:0:
137,114,66382,1,8,0:0:0:0:
137,114,66596,1,0,0:0:0:0:
137,114,66703,1,8,0:0:0:0:
137,114,66811,1,8,0:0:0:0:
137,114,66918,1,0,0:0:0:0:
137,114,67132,1,8,0:0:0:0:
137,114,67239,1,0,0:0:0:0:
137,114,67453,1,0,0:0:0:0:
137,114,67561,1,8,0:0:0:0:
137,114,67989,1,8,0:0:0:0:
137,114,68096,1,8,0:0:0:0:
137,114,68203,1,0,0:0:0:0:
137,114,68311,1,0,0:0:0:0:
137,114,68418,1,8,0:0:0:0:
137,114,68632,1,0,0:0:0:0:
128,114,69061,1,0,0:0:0:0:
128,114,69168,1,0,0:0:0:0:
128,114,69275,1,8,0:0:0:0:
128,114,69382,1,8,0:0:0:0:
128,114,69596,1,0,0:0:0:0:
146,120,69918,1,0,0:0:0:0:
146,120,70132,1,8,0:0:0:0:
146,120,70346,1,8,0:0:0:0:
145,119,70453,1,0,0:0:0:0:
145,118,70561,1,0,0:0:0:0:
146,120,70668,1,8,0:0:0:0:
146,120,70882,1,8,0:0:0:0:
146,120,71096,1,0,0:0:0:0:
146,120,71203,1,0,0:0:0:0:
146,120,71632,1,8,0:0:0:0:
146,120,71846,1,8,0:0:0:0:
146,120,71953,1,8,0:0:0:0:
142,129,72061,1,0,0:0:0:0:
158,119,72168,1,0,0:0:0:0:
160,118,72382,1,0,0:0:0:0:
157,111,72489,1,8,0:0:0:0:
160,118,72703,1,0,0:0:0:0:
160,118,72811,1,8,0:0:0:0:
157,111,72918,1,8,0:0:0:0:
163,117,73025,1,0,0:0:0:0:
162,117,73239,1,8,0:0:0:0:
160,118,73346,1,0,0:0:0:0:
164,117,73561,1,0,0:0:0:0:
160,118,73668,1,8,0:0:0:0:
157,111,73775,1,0,0:0:0:0:
163,117,73989,1,0,0:0:0:0:
157,111,74096,1,8,0:0:0:0:
157,111,74311,1,0,0:0:0:0:
157,111,74525,1,0,0:0:0:0:
157,111,75061,1,0,0:0:0:0:
157,111,75275,1,8,0:0:0:0:
