osu file format v14

[General]
AudioFilename: audio.ogg
AudioLeadIn: 0
PreviewTime: 13775
Countdown: 0
SampleSet: Normal
StackLeniency: 0.7
Mode: 1
LetterboxInBreaks: 0
WidescreenStoryboard: 1

[Editor]
Bookmarks: 622,7479,9193,12622,14336,18193,28050,41764,51514
DistanceSpacing: 1.2
BeatDivisor: 4
GridSize: 32
TimelineZoom: 2

[Metadata]
Title:Rude Buster
TitleUnicode:Rude Buster
Artist:Toby Fox
ArtistUnicode:Toby Fox
Creator:_Vex
Version:Muzukashii
Source:DELTARUNE
Tags:Battle Theme delta rune official soundtrack ost video game videogame 8-4 kris ralsei susie refi reficul mid midnaait vatron vxtron suhle _shl01 electronic instrumental chiptune midi orchestral Chapter 1 one
BeatmapID:2581679
BeatmapSetID:1241797

[Difficulty]
HPDrainRate:7
CircleSize:5
OverallDifficulty:5
ApproachRate:5
SliderMultiplier:1.4
SliderTickRate:1

[Events]
//Background and Video events
0,0,"cropped-1920-1080-971721.jpg",0,0
//Break Periods
//Storyboard Layer 0 (Background)
//Storyboard Layer 1 (Fail)
//Storyboard Layer 2 (Pass)
//Storyboard Layer 3 (Foreground)
//Storyboard Layer 4 (Overlay)
//Storyboard Sound Samples

[TimingPoints]
61,428.571428571429,4,1,0,60,1,0
48061,-100,4,1,0,60,0,1
53953,-100,4,1,0,60,0,0
54918,-100,4,1,0,60,0,1
61346,-100,4,1,0,60,0,0
65203,-100,4,1,0,60,0,1
66918,-100,4,1,0,60,0,0
72061,-100,4,1,0,60,0,1
75489,-100,4,1,0,60,0,0

[HitObjects]
256,128,61,5,4,0:0:0:0:
256,128,489,1,8,0:0:0:0:
256,128,703,1,0,0:0:0:0:
256,128,811,1,0,0:0:0:0:
256,128,1025,1,8,0:0:0:0:
256,128,1132,1,8,0:0:0:0:
256,128,1346,1,0,0:0:0:0:
256,128,1775,1,0,0:0:0:0:
256,128,1989,1,0,0:0:0:0:
256,128,2096,1,0,0:0:0:0:
256,128,2203,1,0,0:0:0:0:
256,128,2418,1,0,0:0:0:0:
256,128,2525,1,0,0:0:0:0:
256,128,2739,1,0,0:0:0:0:
256,128,2846,1,0,0:0:0:0:
256,128,3061,1,8,0:0:0:0:
256,128,3489,1,0,0:0:0:0:
256,128,3703,1,8,0:0:0:0:
256,128,3811,1,8,0:0:0:0:
256,128,3918,1,8,0:0:0:0:
256,128,4132,1,0,0:0:0:0:
256,128,4239,1,0,0:0:0:0:
256,128,4453,1,8,0:0:0:0:
256,128,4561,1,8,0:0:0:0:
256,128,4775,1,0,0:0:0:0:
256,128,4989,1,8,0:0:0:0:
256,128,5203,1,0,0:0:0:0:
256,128,5525,1,0,0:0:0:0:
256,128,5953,1,8,0:0:0:0:
256,128,6918,5,0,0:0:0:0:
256,128,7346,1,8,0:0:0:0:
256,128,7560,1,0,0:0:0:0:
256,128,7668,1,0,0:0:0:0:
256,128,7882,1,8,0:0:0:0:
256,128,7989,1,8,0:0:0:0:
256,128,8203,1,0,0:0:0:0:
256,128,8632,1,0,0:0:0:0:
256,128,8846,1,0,0:0:0:0:
256,128,8953,1,0,0:0:0:0:
256,128,9060,1,0,0:0:0:0:
256,128,9275,1,0,0:0:0:0:
256,128,9382,1,0,0:0:0:0:
256,128,9596,1,0,0:0:0:0:
256,128,9703,1,0,0:0:0:0:
256,128,9918,1,8,0:0:0:0:
256,128,10346,1,0,0:0:0:0:
256,128,10560,1,8,0:0:0:0:
256,128,10668,1,8,0:0:0:0:
256,128,10775,1,8,0:0:0:0:
256,128,10989,1,0,0:0:0:0:
256,128,11096,1,0,0:0:0:0:
256,128,11310,1,8,0:0:0:0:
256,128,11418,1,8,0:0:0:0:
256,128,11632,1,0,0:0:0:0:
256,128,11846,1,8,0:0:0:0:
256,128,12060,1,0,0:0:0:0:
256,128,12382,1,0,0:0:0:0:
256,128,12810,5,8,0:0:0:0:
256,128,13775,1,12,0:0:0:0:
256,128,13989,1,0,0:0:0:0:
256,128,14096,1,0,0:0:0:0:
256,128,14203,1,0,0:0:0:0:
256,128,14418,1,8,0:0:0:0:
256,128,14525,1,8,0:0:0:0:
256,128,14739,1,0,0:0:0:0:
256,128,14953,1,0,0:0:0:0:
256,128,15168,1,8,0:0:0:0:
256,128,15489,1,0,0:0:0:0:
256,128,15811,1,0,0:0:0:0:
256,128,16025,1,8,0:0:0:0:
256,128,16239,1,8,0:0:0:0:
256,128,16346,1,8,0:0:0:0:
256,128,16561,1,8,0:0:0:0:
256,128,16668,1,0,0:0:0:0:
256,128,17525,1,0,0:0:0:0:
256,128,17632,1,0,0:0:0:0:
256,128,17846,1,8,0:0:0:0:
256,128,17953,1,8,0:0:0:0:
256,128,18168,1,0,0:0:0:0:
256,128,18382,1,0,0:0:0:0:
256,128,18596,1,8,0:0:0:0:
256,128,18918,1,0,0:0:0:0:
256,128,19239,1,8,0:0:0:0:
256,128,19453,1,0,0:0:0:0:
256,128,19668,1,8,0:0:0:0:
256,128,20632,1,0,0:0:0:0:
256,128,20953,1,0,0:0:0:0:
256,128,21061,1,0,0:0:0:0:
256,128,21275,1,8,0:0:0:0:
256,128,21382,1,8,0:0:0:0:
256,128,21596,1,0,0:0:0:0:
256,128,21811,1,0,0:0:0:0:
256,128,22025,1,8,0:0:0:0:
256,128,22346,1,0,0:0:0:0:
256,128,22668,1,0,0:0:0:0:
256,128,22882,1,8,0:0:0:0:
256,128,23096,1,8,0:0:0:0:
256,128,23203,1,8,0:0:0:0:
256,128,23418,1,8,0:0:0:0:
256,128,23525,1,0,0:0:0:0:
256,128,24382,1,0,0:0:0:0:
256,128,24489,1,0,0:0:0:0:
256,128,24703,1,8,0:0:0:0:
256,128,24811,1,8,0:0:0:0:
256,128,25025,1,0,0:0:0:0:
256,128,25239,1,0,0:0:0:0:
256,128,25453,1,8,0:0:0:0:
256,128,25775,1,0,0:0:0:0:
256,128,26096,1,8,0:0:0:0:
256,128,26311,1,0,0:0:0:0:
256,128,26525,1,8,0:0:0:0:
256,128,27489,1,4,0:0:0:0:
256,128,27811,1,8,0:0:0:0:
256,128,27918,1,8,0:0:0:0:
256,128,28132,1,0,0:0:0:0:
256,128,28239,1,8,0:0:0:0:
256,128,28346,1,0,0:0:0:0:
256,128,28668,1,0,0:0:0:0:
256,128,28989,1,8,0:0:0:0:
256,128,29203,1,0,0:0:0:0:
256,128,29525,1,8,0:0:0:0:
256,128,29632,1,8,0:0:0:0:
256,128,29846,1,8,0:0:0:0:
256,128,29953,1,0,0:0:0:0:
256,128,30061,1,8,0:0:0:0:
256,128,30382,1,0,0:0:0:0:
256,128,30703,1,8,0:0:0:0:
256,128,30918,1,0,0:0:0:0:
256,128,31239,1,8,0:0:0:0:
256,128,31346,1,8,0:0:0:0:
256,128,31561,1,0,0:0:0:0:
256,128,31668,1,8,0:0:0:0:
256,128,31775,1,0,0:0:0:0:
256,128,32096,1,0,0:0:0:0:
256,128,32418,1,8,0:0:0:0:
256,128,32632,1,8,0:0:0:0:
256,128,32953,1,0,0:0:0:0:
256,128,33168,1,8,0:0:0:0:
256,128,33382,1,0,0:0:0:0:
256,128,34346,1,0,0:0:0:0:
256,128,34668,1,8,0:0:0:0:
256,128,34775,1,8,0:0:0:0:
256,128,34989,1,0,0:0:0:0:
256,128,35096,1,8,0:0:0:0:
256,128,35203,1,0,0:0:0:0:
256,128,35525,1,0,0:0:0:0:
256,128,35846,1,8,0:0:0:0:
256,128,36061,1,0,0:0:0:0:
256,128,36382,1,8,0:0:0:0:
256,128,36489,1,8,0:0:0:0:
256,128,36703,1,8,0:0:0:0:
256,128,36811,1,0,0:0:0:0:
256,128,36918,1,8,0:0:0:0:
256,128,37239,1,0,0:0:0:0:
256,128,37561,1,8,0:0:0:0:
256,128,37775,1,0,0:0:0:0:
256,128,38096,1,8,0:0:0:0:
256,128,38203,1,8,0:0:0:0:
256,128,38418,1,0,0:0:0:0:
256,128,38525,1,8,0:0:0:0:
256,128,38632,1,0,0:0:0:0:
256,128,38953,1,0,0:0:0:0:
256,128,39275,1,8,0:0:0:0:
256,128,39489,1,8,0:0:0:0:
256,128,39811,1,0,0:0:0:0:
256,128,40025,1,8,0:0:0:0:
256,128,40239,1,0,0:0:0:0:
256,128,40775,1,8,0:0:0:0:
256,128,40989,1,0,0:0:0:0:
256,96,41203,1,12,0:0:0:0:
256,96,41739,1,8,0:0:0:0:
256,96,41953,1,0,0:0:0:0:
256,96,42275,1,8,0:0:0:0:
256,96,42382,1,8,0:0:0:0:
256,96,42489,1,8,0:0:0:0:
256,96,42703,1,0,0:0:0:0:
256,96,42918,1,0,0:0:0:0:
256,96,43346,1,0,0:0:0:0:
256,96,43453,1,8,0:0:0:0:
256,96,43668,1,8,0:0:0:0:
256,96,44096,1,8,0:0:0:0:
256,96,44418,1,8,0:0:0:0:
256,96,44632,1,0,0:0:0:0:
256,96,45061,1,0,0:0:0:0:
256,96,45168,1,8,0:0:0:0:
256,96,45382,1,0,0:0:0:0:
256,128,45703,1,8,0:0:0:0:
256,128,45811,1,8,0:0:0:0:
256,128,45918,1,8,0:0:0:0:
256,128,46132,1,0,0:0:0:0:
256,128,46346,5,0,0:0:0:0:
256,128,46668,5,0,0:0:0:0:
256,128,47096,1,8,0:0:0:0:
256,128,47311,1,0,0:0:0:0:
256,128,47418,1,0,0:0:0:0:
256,128,47632,1,8,0:0:0:0:
256,128,47846,5,0,0:0:0:0:
256,128,47953,1,0,0:0:0:0:
256,128,48061,1,8,0:0:0:0:
256,128,48489,1,0,0:0:0:0:
256,128,48703,1,0,0:0:0:0:
256,128,48811,1,0,0:0:0:0:
256,128,48918,1,8,0:0:0:0:
256,128,49346,1,0,0:0:0:0:
256,128,49561,1,0,0:0:0:0:
256,128,49668,1,0,0:0:0:0:
256,128,49775,1,8,0:0:0:0:
256,128,49989,1,8,0:0:0:0:
256,128,50203,1,0,0:0:0:0:
256,128,50525,1,8,0:0:0:0:
256,128,50739,1,0,0:0:0:0:
256,128,50953,1,8,0:0:0:0:
256,128,51168,1,8,0:0:0:0:
256,128,51382,1,0,0:0:0:0:
256,128,51918,1,8,0:0:0:0:
256,128,52132,1,0,0:0:0:0:
256,128,52346,1,8,0:0:0:0:
256,128,52453,1,8,0:0:0:0:
256,128,52561,1,8,0:0:0:0:
256,128,52775,1,8,0:0:0:0:
256,128,52989,1,0,0:0:0:0:
256,128,53096,1,0,0:0:0:0:
256,128,53203,1,8,0:0:0:0:
256,128,53525,1,8,0:0:0:0:
256,128,53953,1,0,0:0:0:0:
256,128,54918,1,8,0:0:0:0:
256,128,55132,1,0,0:0:0:0:
256,128,55346,1,8,0:0:0:0:
256,128,55561,1,0,0:0:0:0:
256,128,55775,1,8,0:0:0:0:
256,128,55882,1,8,0:0:0:0:
256,128,55989,1,8,0:0:0:0:
256,128,56203,1,8,0:0:0:0:
256,128,56418,1,0,0:0:0:0:
256,128,56632,1,8,0:0:0:0:
256,128,56846,1,0,0:0:0:0:
256,128,57061,1,8,0:0:0:0:
256,128,57275,1,0,0:0:0:0:
256,128,57489,1,0,0:0:0:0:
256,128,57596,1,0,0:0:0:0:
256,128,57703,1,0,0:0:0:0:
256,128,57918,1,8,0:0:0:0:
256,128,58132,1,0,0:0:0:0:
256,128,58346,1,8,0:0:0:0:
256,128,58561,1,0,0:0:0:0:
256,128,58668,1,0,0:0:0:0:
256,128,58882,1,8,0:0:0:0:
256,128,58989,1,8,0:0:0:0:
256,128,59096,1,8,0:0:0:0:
256,128,59311,1,0,0:0:0:0:
256,128,59418,1,0,0:0:0:0:
256,128,59632,1,0,0:0:0:0:
256,128,59846,1,8,0:0:0:0:
256,128,60061,1,0,0:0:0:0:
256,128,60382,1,8,0:0:0:0:
256,128,60596,1,0,0:0:0:0:
256,128,60811,1,0,0:0:0:0:
256,128,61346,1,8,0:0:0:0:
256,128,62203,1,0,0:0:0:0:
256,128,62418,1,8,0:0:0:0:
256,128,62632,1,0,0:0:0:0:
256,128,62739,1,0,0:0:0:0:
256,128,62846,1,0,0:0:0:0:
256,128,63061,1,0,0:0:0:0:
256,128,63275,1,0,0:0:0:0:
256,128,63382,1,8,0:0:0:0:
256,128,63918,1,0,0:0:0:0:
256,128,64132,1,8,0:0:0:0:
256,128,64346,1,8,0:0:0:0:
256,128,64560,1,8,0:0:0:0:
256,128,64668,1,8,0:0:0:0:
256,128,64882,1,0,0:0:0:0:
256,128,65203,1,0,0:0:0:0:
256,128,65311,1,0,0:0:0:0:
256,128,65525,1,0,0:0:0:0:
256,128,65632,1,8,0:0:0:0:
256,128,65846,1,8,0:0:0:0:
256,128,66061,1,8,0:0:0:0:
256,128,66275,1,0,0:0:0:0:
256,128,66382,1,8,0:0:0:0:
256,128,66596,1,8,0:0:0:0:
256,128,66811,1,8,0:0:0:0:
256,128,66918,1,8,0:0:0:0:
256,128,67239,1,0,0:0:0:0:
256,128,67561,1,8,0:0:0:0:
256,128,67989,1,0,0:0:0:0:
256,128,68096,1,0,0:0:0:0:
256,128,68203,1,0,0:0:0:0:
256,128,68418,1,0,0:0:0:0:
256,128,68632,1,0,0:0:0:0:
256,128,69061,1,0,0:0:0:0:
256,128,69275,1,8,0:0:0:0:
256,128,69382,1,8,0:0:0:0:
256,128,69596,1,0,0:0:0:0:
256,128,69918,1,0,0:0:0:0:
256,128,70132,1,8,0:0:0:0:
256,128,70346,1,8,0:0:0:0:
256,128,70453,1,8,0:0:0:0:
256,128,70668,1,0,0:0:0:0:
256,128,70882,1,8,0:0:0:0:
256,128,71096,1,0,0:0:0:0:
256,128,71203,1,8,0:0:0:0:
256,128,71846,1,0,0:0:0:0:
256,128,71953,1,0,0:0:0:0:
256,128,72061,1,0,0:0:0:0:
256,128,72275,1,0,0:0:0:0:
256,128,72489,1,8,0:0:0:0:
256,128,72596,1,0,0:0:0:0:
256,128,72918,1,0,0:0:0:0:
256,128,73025,1,8,0:0:0:0:
256,128,73132,1,0,0:0:0:0:
256,128,73346,1,8,0:0:0:0:
256,128,73453,1,8,0:0:0:0:
256,128,73561,1,8,0:0:0:0:
256,128,73775,1,0,0:0:0:0:
256,128,73989,1,0,0:0:0:0:
256,128,74096,1,8,0:0:0:0:
256,128,74525,1,0,0:0:0:0:
256,128,75061,1,0,0:0:0:0:
256,128,75275,1,0,0:0:0:0:
