osu file format v14

[General]
AudioFilename: audio.ogg
AudioLeadIn: 0
PreviewTime: 13775
Countdown: 0
SampleSet: Normal
StackLeniency: 0.7
Mode: 1
LetterboxInBreaks: 0
WidescreenStoryboard: 1

[Editor]
Bookmarks: 622,7479,9193,12622,14336,18193,28050,41764,51514
DistanceSpacing: 1.2
BeatDivisor: 4
GridSize: 32
TimelineZoom: 1.4

[Metadata]
Title:Rude Buster
TitleUnicode:Rude Buster
Artist:Toby Fox
ArtistUnicode:Toby Fox
Creator:_Vex
Version:Kantan
Source:DELTARUNE
Tags:Battle Theme delta rune official soundtrack ost video game videogame 8-4 kris ralsei susie refi reficul mid midnaait vatron vxtron suhle _shl01 electronic instrumental chiptune midi orchestral Chapter 1 one
BeatmapID:2581678
BeatmapSetID:1241797

[Difficulty]
HPDrainRate:9
CircleSize:5
OverallDifficulty:3
ApproachRate:5
SliderMultiplier:1.4
SliderTickRate:1

[Events]
//Background and Video events
0,0,"cropped-1920-1080-971721.jpg",0,0
//Break Periods
//Storyboard Layer 0 (Background)
//Storyboard Layer 1 (Fail)
//Storyboard Layer 2 (Pass)
//Storyboard Layer 3 (Foreground)
//Storyboard Layer 4 (Overlay)
//Storyboard Sound Samples

[TimingPoints]
61,428.571428571429,4,1,0,60,1,0
48061,-100,4,1,0,60,0,1
53953,-100,4,1,0,60,0,0
54918,-100,4,1,0,60,0,1
61346,-100,4,1,0,60,0,0
65203,-100,4,1,0,60,0,1
66918,-100,4,1,0,60,0,0
72061,-100,4,1,0,60,0,1
75489,-100,4,1,0,60,0,0

[HitObjects]
256,96,61,5,12,0:0:0:0:
256,96,1346,1,8,0:0:0:0:
256,96,1775,1,0,0:0:0:0:
256,96,2203,1,0,0:0:0:0:
256,96,3061,1,8,0:0:0:0:
256,96,3489,1,0,0:0:0:0:
256,96,3918,1,8,0:0:0:0:
256,96,4775,1,8,0:0:0:0:
256,96,5203,1,0,0:0:0:0:
256,96,5525,1,0,0:0:0:0:
256,96,5953,1,8,0:0:0:0:
256,96,6918,5,12,0:0:0:0:
256,96,8203,1,8,0:0:0:0:
256,96,8632,1,0,0:0:0:0:
256,96,9060,1,0,0:0:0:0:
256,96,9918,1,8,0:0:0:0:
256,96,10346,1,0,0:0:0:0:
256,96,10775,1,8,0:0:0:0:
256,96,11632,1,8,0:0:0:0:
256,96,12060,1,0,0:0:0:0:
256,96,12382,1,0,0:0:0:0:
256,96,12811,5,8,0:0:0:0:
256,96,13775,5,4,0:0:0:0:
256,96,14953,1,8,0:0:0:0:
256,96,15489,1,0,0:0:0:0:
256,96,16346,1,0,0:0:0:0:
256,96,16668,1,0,0:0:0:0:
256,96,17632,1,0,0:0:0:0:
256,96,18382,1,0,0:0:0:0:
256,96,18918,1,8,0:0:0:0:
256,96,19239,1,0,0:0:0:0:
256,96,19668,1,8,0:0:0:0:
256,96,20632,1,0,0:0:0:0:
256,96,21811,1,8,0:0:0:0:
256,96,22346,1,0,0:0:0:0:
256,96,23203,1,0,0:0:0:0:
256,96,23525,1,0,0:0:0:0:
256,96,24489,1,0,0:0:0:0:
256,96,25239,1,0,0:0:0:0:
256,96,25775,1,8,0:0:0:0:
256,96,26096,1,0,0:0:0:0:
256,96,26525,1,8,0:0:0:0:
256,96,27489,1,4,0:0:0:0:
256,96,27918,5,8,0:0:0:0:
256,96,28346,1,8,0:0:0:0:
256,96,29203,1,0,0:0:0:0:
256,96,29632,1,8,0:0:0:0:
256,96,30061,1,0,0:0:0:0:
256,96,30918,1,0,0:0:0:0:
256,96,31346,1,8,0:0:0:0:
256,96,31775,1,8,0:0:0:0:
256,96,32632,1,0,0:0:0:0:
256,96,33382,1,8,0:0:0:0:
256,96,34775,1,8,0:0:0:0:
256,96,35203,1,8,0:0:0:0:
256,96,36061,1,0,0:0:0:0:
256,96,36489,1,8,0:0:0:0:
256,96,36918,1,0,0:0:0:0:
256,96,37775,1,0,0:0:0:0:
256,96,38203,1,8,0:0:0:0:
256,96,38632,1,8,0:0:0:0:
256,96,39489,1,0,0:0:0:0:
256,96,40239,1,0,0:0:0:0:
256,96,40775,1,0,0:0:0:0:
256,96,41203,1,12,0:0:0:0:
256,160,42489,1,8,0:0:0:0:
256,160,42918,1,0,0:0:0:0:
256,160,43668,1,0,0:0:0:0:
256,160,44203,1,0,0:0:0:0:
256,160,44632,1,8,0:0:0:0:
256,160,45382,1,0,0:0:0:0:
256,160,45918,1,8,0:0:0:0:
256,160,46346,5,0,0:0:0:0:
256,160,46668,1,0,0:0:0:0:
256,160,47096,1,8,0:0:0:0:
256,160,47632,1,0,0:0:0:0:
256,96,48061,5,0,0:0:0:0:
256,96,48918,1,8,0:0:0:0:
256,96,49775,1,8,0:0:0:0:
256,96,50203,1,0,0:0:0:0:
256,96,50525,1,8,0:0:0:0:
256,96,50953,1,0,0:0:0:0:
256,96,51382,1,8,0:0:0:0:
256,96,52346,1,0,0:0:0:0:
256,96,52775,1,0,0:0:0:0:
256,96,53096,1,8,0:0:0:0:
256,96,54918,1,8,0:0:0:0:
256,96,55775,1,8,0:0:0:0:
256,96,56203,1,0,0:0:0:0:
256,96,56632,1,0,0:0:0:0:
256,96,57489,1,8,0:0:0:0:
256,96,58346,1,8,0:0:0:0:
256,96,58668,1,0,0:0:0:0:
256,96,59096,1,8,0:0:0:0:
256,96,60061,1,0,0:0:0:0:
256,96,60382,1,8,0:0:0:0:
256,96,60811,1,0,0:0:0:0:
256,96,62203,1,0,0:0:0:0:
256,96,62632,1,8,0:0:0:0:
256,96,63275,1,8,0:0:0:0:
256,96,63918,1,8,0:0:0:0:
256,96,64346,1,8,0:0:0:0:
256,96,65203,1,0,0:0:0:0:
256,96,65632,1,0,0:0:0:0:
256,96,66061,1,8,0:0:0:0:
256,96,66918,1,8,0:0:0:0:
256,96,67561,1,8,0:0:0:0:
256,96,69061,1,0,0:0:0:0:
256,96,69489,1,8,0:0:0:0:
256,96,69918,1,8,0:0:0:0:
256,96,70346,1,0,0:0:0:0:
256,96,71203,1,8,0:0:0:0:
256,96,72061,1,0,0:0:0:0:
256,96,72489,1,0,0:0:0:0:
256,96,72918,1,8,0:0:0:0:
256,96,73775,1,0,0:0:0:0:
256,96,74096,1,8,0:0:0:0:
256,96,74525,1,0,0:0:0:0:
256,96,75061,1,0,0:0:0:0:
