osu file format v14

[General]
AudioFilename: audio.ogg
AudioLeadIn: 0
PreviewTime: 13775
Countdown: 0
SampleSet: Normal
StackLeniency: 0.7
Mode: 1
LetterboxInBreaks: 0
WidescreenStoryboard: 0

[Editor]
Bookmarks: 622,7479,9193,12622,14336,18193,28050,41764,51514
DistanceSpacing: 1.2
BeatDivisor: 4
GridSize: 32
TimelineZoom: 2.2

[Metadata]
Title:Rude Buster
TitleUnicode:Rude Buster
Artist:Toby Fox
ArtistUnicode:Toby Fox
Creator:_Vex
Version:Determined Oni
Source:DELTARUNE
Tags:Battle Theme delta rune official soundtrack ost video game videogame 8-4 kris ralsei susie refi reficul mid midnaait vatron vxtron suhle _shl01 electronic instrumental chiptune midi orchestral Chapter 1 one
BeatmapID:2581676
BeatmapSetID:1241797

[Difficulty]
HPDrainRate:6.2
CircleSize:5
OverallDifficulty:6.5
ApproachRate:5
SliderMultiplier:1.4
SliderTickRate:1

[Events]
//Background and Video events
0,0,"cropped-1920-1080-971721.jpg",0,0
//Break Periods
//Storyboard Layer 0 (Background)
//Storyboard Layer 1 (Fail)
//Storyboard Layer 2 (Pass)
//Storyboard Layer 3 (Foreground)
//Storyboard Layer 4 (Overlay)
//Storyboard Sound Samples

[TimingPoints]
61,428.571428571429,4,1,0,60,1,0
61,-90.9090909090909,4,1,0,60,0,0
48061,-90.9090909090909,4,1,0,60,0,1
53953,-90.9090909090909,4,1,0,60,0,0
54918,-90.9090909090909,4,1,0,60,0,1
61346,-90.9090909090909,4,1,0,60,0,0
65203,-90.9090909090909,4,1,0,60,0,1
66918,-90.9090909090909,4,1,0,60,0,0
72061,-90.9090909090909,4,1,0,60,0,1
75489,-90.9090909090909,4,1,0,60,0,0

[HitObjects]
256,96,61,5,4,0:0:0:0:
256,96,275,1,8,0:0:0:0:
256,96,382,1,8,0:0:0:0:
256,96,489,1,0,0:0:0:0:
256,96,596,1,8,0:0:0:0:
256,96,703,1,8,0:0:0:0:
256,96,811,1,0,0:0:0:0:
256,96,1025,1,8,0:0:0:0:
256,96,1132,1,0,0:0:0:0:
256,96,1239,1,0,0:0:0:0:
256,96,1346,1,8,0:0:0:0:
256,96,1561,1,8,0:0:0:0:
256,96,1668,1,8,0:0:0:0:
256,96,1775,1,0,0:0:0:0:
256,96,1989,1,8,0:0:0:0:
256,96,2096,1,0,0:0:0:0:
256,96,2203,1,0,0:0:0:0:
256,96,2311,1,8,0:0:0:0:
256,96,2418,1,8,0:0:0:0:
256,96,2525,1,0,0:0:0:0:
256,96,2739,1,8,0:0:0:0:
256,96,2846,1,0,0:0:0:0:
256,96,2953,1,8,0:0:0:0:
256,96,3061,1,0,0:0:0:0:
256,96,3275,1,8,0:0:0:0:
256,96,3382,1,0,0:0:0:0:
256,96,3489,1,0,0:0:0:0:
256,96,3703,1,8,0:0:0:0:
256,96,3811,1,8,0:0:0:0:
256,96,3918,1,0,0:0:0:0:
256,96,4025,1,8,0:0:0:0:
256,96,4132,1,8,0:0:0:0:
256,96,4239,1,0,0:0:0:0:
256,96,4453,1,8,0:0:0:0:
256,96,4561,1,0,0:0:0:0:
256,96,4668,1,0,0:0:0:0:
256,96,4775,1,8,0:0:0:0:
256,96,4989,1,8,0:0:0:0:
256,96,5096,1,8,0:0:0:0:
256,96,5203,1,0,0:0:0:0:
256,96,5418,1,8,0:0:0:0:
256,96,5525,1,0,0:0:0:0:
256,96,5846,1,0,0:0:0:0:
256,96,5953,1,8,0:0:0:0:
256,96,6168,1,8,0:0:0:0:
256,96,6275,1,8,0:0:0:0:
256,96,6382,1,0,0:0:0:0:
256,96,6489,1,8,0:0:0:0:
256,96,6596,1,0,0:0:0:0:
256,96,6703,1,8,0:0:0:0:
256,96,6811,1,8,0:0:0:0:
256,96,6918,1,0,0:0:0:0:
256,96,7132,1,8,0:0:0:0:
256,96,7239,1,8,0:0:0:0:
256,96,7346,1,0,0:0:0:0:
256,96,7453,1,8,0:0:0:0:
256,96,7561,1,8,0:0:0:0:
256,96,7668,1,0,0:0:0:0:
256,96,7882,1,8,0:0:0:0:
256,96,7989,1,0,0:0:0:0:
256,96,8096,1,0,0:0:0:0:
256,96,8203,1,8,0:0:0:0:
256,96,8418,1,8,0:0:0:0:
256,96,8632,1,0,0:0:0:0:
256,96,8846,1,8,0:0:0:0:
256,96,8953,1,0,0:0:0:0:
256,96,9061,1,0,0:0:0:0:
256,96,9168,1,8,0:0:0:0:
256,96,9275,1,0,0:0:0:0:
256,96,9382,1,0,0:0:0:0:
256,96,9596,1,8,0:0:0:0:
256,96,9703,1,0,0:0:0:0:
256,96,9811,1,8,0:0:0:0:
256,96,9918,1,0,0:0:0:0:
256,96,10132,1,8,0:0:0:0:
256,96,10346,1,0,0:0:0:0:
256,96,10561,1,8,0:0:0:0:
256,96,10668,1,8,0:0:0:0:
256,96,10775,1,0,0:0:0:0:
256,96,10882,1,8,0:0:0:0:
256,96,10989,1,8,0:0:0:0:
256,96,11096,1,0,0:0:0:0:
256,96,11311,1,8,0:0:0:0:
256,96,11418,1,0,0:0:0:0:
256,96,11525,1,0,0:0:0:0:
256,96,11632,1,8,0:0:0:0:
256,96,11846,1,8,0:0:0:0:
256,96,12061,1,0,0:0:0:0:
256,96,12275,1,8,0:0:0:0:
256,96,12382,1,0,0:0:0:0:
256,96,12703,1,0,0:0:0:0:
256,96,12811,1,8,0:0:0:0:
256,96,13025,1,8,0:0:0:0:
256,96,13132,1,0,0:0:0:0:
256,96,13239,1,0,0:0:0:0:
256,96,13346,1,8,0:0:0:0:
256,96,13453,1,0,0:0:0:0:
256,96,13561,1,8,0:0:0:0:
256,96,13668,1,8,0:0:0:0:
256,96,13775,1,4,0:0:0:0:
256,96,13989,1,0,0:0:0:0:
256,96,14096,1,0,0:0:0:0:
256,96,14203,1,8,0:0:0:0:
256,96,14311,1,0,0:0:0:0:
256,96,14418,1,8,0:0:0:0:
256,96,14525,1,8,0:0:0:0:
256,96,14739,1,0,0:0:0:0:
256,96,14846,1,8,0:0:0:0:
256,96,14953,1,0,0:0:0:0:
256,96,15061,1,0,0:0:0:0:
256,96,15168,1,8,0:0:0:0:
256,96,15382,1,0,0:0:0:0:
256,96,15489,1,8,0:0:0:0:
256,96,15703,1,0,0:0:0:0:
256,96,15811,1,8,0:0:0:0:
256,96,16025,1,8,0:0:0:0:
256,96,16132,1,0,0:0:0:0:
256,96,16239,1,8,0:0:0:0:
256,96,16346,1,8,0:0:0:0:
256,96,16561,1,8,0:0:0:0:
256,96,16668,1,0,0:0:0:0:
256,96,16775,1,8,0:0:0:0:
256,96,16882,1,0,0:0:0:0:
256,96,16989,1,8,0:0:0:0:
256,96,17096,1,8,0:0:0:0:
256,96,17203,1,0,0:0:0:0:
256,96,17418,1,0,0:0:0:0:
256,96,17525,1,0,0:0:0:0:
256,96,17632,1,8,0:0:0:0:
256,96,17739,1,0,0:0:0:0:
256,96,17846,1,8,0:0:0:0:
256,96,17953,1,8,0:0:0:0:
256,96,18168,1,0,0:0:0:0:
256,96,18275,1,8,0:0:0:0:
256,96,18382,1,0,0:0:0:0:
256,96,18489,1,8,0:0:0:0:
256,96,18596,1,0,0:0:0:0:
256,96,18703,1,0,0:0:0:0:
256,96,18811,1,0,0:0:0:0:
256,96,18918,1,8,0:0:0:0:
256,96,19132,1,0,0:0:0:0:
256,96,19239,1,8,0:0:0:0:
256,96,19453,1,0,0:0:0:0:
256,96,19668,1,8,0:0:0:0:
256,96,19882,1,8,0:0:0:0:
256,96,19989,1,8,0:0:0:0:
256,96,20096,1,0,0:0:0:0:
256,96,20203,1,8,0:0:0:0:
256,96,20311,1,0,0:0:0:0:
256,96,20418,1,8,0:0:0:0:
256,96,20525,1,8,0:0:0:0:
256,96,20632,1,0,0:0:0:0:
256,96,20846,1,0,0:0:0:0:
256,96,20953,1,0,0:0:0:0:
256,96,21061,1,8,0:0:0:0:
256,96,21168,1,0,0:0:0:0:
256,96,21275,1,8,0:0:0:0:
256,96,21382,1,8,0:0:0:0:
256,96,21596,1,8,0:0:0:0:
256,96,21703,1,0,0:0:0:0:
256,96,21811,1,0,0:0:0:0:
256,96,21918,1,8,0:0:0:0:
256,96,22025,1,0,0:0:0:0:
256,96,22132,1,8,0:0:0:0:
256,96,22239,1,8,0:0:0:0:
256,96,22346,1,0,0:0:0:0:
256,96,22561,1,0,0:0:0:0:
256,96,22669,1,8,0:0:0:0:
256,96,22883,1,8,0:0:0:0:
256,96,22990,1,0,0:0:0:0:
256,96,23097,1,8,0:0:0:0:
256,96,23204,1,8,0:0:0:0:
256,96,23419,1,8,0:0:0:0:
256,96,23526,1,0,0:0:0:0:
256,96,23632,1,8,0:0:0:0:
256,96,23739,1,0,0:0:0:0:
256,96,23846,1,8,0:0:0:0:
256,96,23953,1,8,0:0:0:0:
256,96,24061,1,0,0:0:0:0:
256,96,24275,1,0,0:0:0:0:
256,96,24382,1,0,0:0:0:0:
256,96,24489,1,8,0:0:0:0:
256,96,24596,1,0,0:0:0:0:
256,96,24703,1,8,0:0:0:0:
256,96,24811,1,8,0:0:0:0:
256,96,25025,1,8,0:0:0:0:
256,96,25132,1,0,0:0:0:0:
256,96,25239,1,8,0:0:0:0:
256,96,25346,1,8,0:0:0:0:
256,96,25453,1,8,0:0:0:0:
256,96,25561,1,0,0:0:0:0:
256,96,25668,1,0,0:0:0:0:
256,96,25775,1,8,0:0:0:0:
256,96,25989,1,0,0:0:0:0:
256,96,26096,1,8,0:0:0:0:
256,96,26311,1,0,0:0:0:0:
256,96,26525,1,8,0:0:0:0:
256,96,26739,1,8,0:0:0:0:
256,96,26846,1,0,0:0:0:0:
256,96,26953,1,0,0:0:0:0:
256,96,27061,1,8,0:0:0:0:
256,96,27168,1,0,0:0:0:0:
256,96,27275,1,8,0:0:0:0:
256,96,27382,1,8,0:0:0:0:
256,96,27489,1,4,0:0:0:0:
256,96,27703,1,0,0:0:0:0:
256,96,27811,1,8,0:0:0:0:
256,96,27918,1,8,0:0:0:0:
256,96,28025,1,0,0:0:0:0:
256,96,28132,1,8,0:0:0:0:
256,96,28239,1,0,0:0:0:0:
256,96,28346,1,8,0:0:0:0:
256,96,28561,1,8,0:0:0:0:
256,96,28668,1,0,0:0:0:0:
256,96,28882,1,8,0:0:0:0:
256,96,28989,1,8,0:0:0:0:
256,96,29096,1,0,0:0:0:0:
256,96,29203,1,0,0:0:0:0:
256,96,29418,1,0,0:0:0:0:
256,96,29525,1,8,0:0:0:0:
256,96,29632,1,8,0:0:0:0:
256,96,29739,1,0,0:0:0:0:
256,96,29846,1,8,0:0:0:0:
256,96,29953,1,0,0:0:0:0:
256,96,30061,1,8,0:0:0:0:
256,96,30275,1,0,0:0:0:0:
256,96,30382,1,8,0:0:0:0:
256,96,30596,1,8,0:0:0:0:
256,96,30703,1,8,0:0:0:0:
256,96,30811,1,0,0:0:0:0:
256,96,30918,1,0,0:0:0:0:
256,96,31132,1,0,0:0:0:0:
256,96,31239,1,8,0:0:0:0:
256,96,31346,1,8,0:0:0:0:
256,96,31453,1,0,0:0:0:0:
256,96,31561,1,8,0:0:0:0:
256,96,31668,1,0,0:0:0:0:
256,96,31775,1,8,0:0:0:0:
256,96,31989,1,8,0:0:0:0:
256,96,32096,1,0,0:0:0:0:
256,96,32311,1,0,0:0:0:0:
256,96,32418,1,8,0:0:0:0:
256,96,32632,1,8,0:0:0:0:
256,96,32846,1,0,0:0:0:0:
256,96,32953,1,8,0:0:0:0:
256,96,33061,1,8,0:0:0:0:
256,96,33168,1,8,0:0:0:0:
256,96,33275,1,0,0:0:0:0:
256,96,33382,1,8,0:0:0:0:
256,96,33596,1,8,0:0:0:0:
256,96,33703,1,8,0:0:0:0:
256,96,33811,1,0,0:0:0:0:
256,96,33918,1,0,0:0:0:0:
256,96,34132,1,8,0:0:0:0:
256,96,34346,1,0,0:0:0:0:
256,96,34561,1,0,0:0:0:0:
256,96,34668,1,8,0:0:0:0:
256,96,34775,1,8,0:0:0:0:
256,96,34882,1,0,0:0:0:0:
256,96,34989,1,8,0:0:0:0:
256,96,35096,1,0,0:0:0:0:
256,96,35203,1,8,0:0:0:0:
256,96,35418,1,8,0:0:0:0:
256,96,35525,1,0,0:0:0:0:
256,96,35739,1,8,0:0:0:0:
256,96,35846,1,8,0:0:0:0:
256,96,35953,1,8,0:0:0:0:
256,96,36061,1,0,0:0:0:0:
256,96,36275,1,0,0:0:0:0:
256,96,36382,1,8,0:0:0:0:
256,96,36489,1,8,0:0:0:0:
256,96,36596,1,0,0:0:0:0:
256,96,36703,1,8,0:0:0:0:
256,96,36811,1,0,0:0:0:0:
256,96,36918,1,8,0:0:0:0:
256,96,37132,1,0,0:0:0:0:
256,96,37239,1,8,0:0:0:0:
256,96,37453,1,8,0:0:0:0:
256,96,37561,1,0,0:0:0:0:
256,96,37668,1,8,0:0:0:0:
256,96,37775,1,0,0:0:0:0:
256,96,37989,1,0,0:0:0:0:
256,96,38096,1,8,0:0:0:0:
256,96,38203,1,8,0:0:0:0:
256,96,38311,1,0,0:0:0:0:
256,96,38418,1,8,0:0:0:0:
256,96,38525,1,0,0:0:0:0:
256,96,38632,1,8,0:0:0:0:
256,96,38846,1,8,0:0:0:0:
256,96,38953,1,0,0:0:0:0:
256,96,39168,1,0,0:0:0:0:
256,96,39275,1,8,0:0:0:0:
256,96,39382,1,8,0:0:0:0:
256,96,39489,1,0,0:0:0:0:
256,96,39703,1,0,0:0:0:0:
256,96,39811,1,8,0:0:0:0:
256,96,39918,1,8,0:0:0:0:
256,96,40025,1,8,0:0:0:0:
256,96,40132,1,0,0:0:0:0:
256,96,40239,1,8,0:0:0:0:
256,96,40346,1,0,0:0:0:0:
256,96,40453,1,0,0:0:0:0:
256,96,40561,1,8,0:0:0:0:
256,96,40668,1,8,0:0:0:0:
256,96,40775,1,0,0:0:0:0:
256,96,40882,1,8,0:0:0:0:
256,96,40989,1,8,0:0:0:0:
256,96,41096,1,8,0:0:0:0:
256,96,41203,1,4,0:0:0:0:
256,96,41418,1,8,0:0:0:0:
256,96,41525,1,8,0:0:0:0:
256,96,41632,1,0,0:0:0:0:
256,96,41739,1,8,0:0:0:0:
256,96,41846,1,8,0:0:0:0:
256,96,41953,1,0,0:0:0:0:
256,96,42168,1,8,0:0:0:0:
256,96,42275,1,0,0:0:0:0:
256,96,42382,1,0,0:0:0:0:
256,96,42489,1,8,0:0:0:0:
256,96,42703,1,0,0:0:0:0:
256,96,42918,1,0,0:0:0:0:
256,96,43132,1,8,0:0:0:0:
256,96,43239,1,0,0:0:0:0:
256,96,43346,1,0,0:0:0:0:
256,96,43453,1,8,0:0:0:0:
256,96,43561,1,0,0:0:0:0:
256,96,43668,1,0,0:0:0:0:
256,96,43882,1,8,0:0:0:0:
256,96,43989,1,0,0:0:0:0:
256,96,44096,1,0,0:0:0:0:
256,96,44203,1,8,0:0:0:0:
256,96,44311,1,8,0:0:0:0:
256,96,44364,1,8,0:0:0:0:
256,96,44418,1,0,0:0:0:0:
256,96,44632,1,0,0:0:0:0:
256,96,44846,1,8,0:0:0:0:
256,96,44953,1,8,0:0:0:0:
256,96,45061,1,0,0:0:0:0:
256,96,45168,1,8,0:0:0:0:
256,96,45275,1,8,0:0:0:0:
256,96,45382,1,0,0:0:0:0:
256,96,45596,1,8,0:0:0:0:
256,96,45703,1,0,0:0:0:0:
256,96,45811,1,0,0:0:0:0:
256,96,45918,1,8,0:0:0:0:
256,96,46132,1,0,0:0:0:0:
256,96,46346,1,0,0:0:0:0:
256,96,46561,1,8,0:0:0:0:
256,96,46668,1,0,0:0:0:0:
256,96,46775,1,8,0:0:0:0:
256,96,46882,1,8,0:0:0:0:
256,96,46989,1,0,0:0:0:0:
256,96,47096,1,8,0:0:0:0:
256,96,47311,1,8,0:0:0:0:
256,96,47418,1,0,0:0:0:0:
256,96,47525,1,0,0:0:0:0:
256,96,47632,1,8,0:0:0:0:
256,96,47739,1,0,0:0:0:0:
256,96,47846,1,0,0:0:0:0:
256,96,47953,1,0,0:0:0:0:
256,96,48061,1,8,0:0:0:0:
256,96,48275,1,8,0:0:0:0:
256,96,48382,1,0,0:0:0:0:
256,96,48489,1,0,0:0:0:0:
256,96,48596,1,8,0:0:0:0:
256,96,48703,1,0,0:0:0:0:
256,96,48811,1,8,0:0:0:0:
256,96,48918,1,8,0:0:0:0:
256,96,49025,1,8,0:0:0:0:
256,96,49132,1,0,0:0:0:0:
256,96,49239,1,0,0:0:0:0:
256,96,49346,1,8,0:0:0:0:
256,96,49561,1,0,0:0:0:0:
256,96,49668,1,0,0:0:0:0:
256,96,49775,1,8,0:0:0:0:
256,96,49989,1,8,0:0:0:0:
256,96,50096,1,0,0:0:0:0:
256,96,50203,1,8,0:0:0:0:
256,96,50257,1,8,0:0:0:0:
256,96,50311,1,0,0:0:0:0:
256,96,50418,1,0,0:0:0:0:
256,96,50525,1,8,0:0:0:0:
256,96,50632,1,0,0:0:0:0:
256,96,50739,1,0,0:0:0:0:
256,96,50846,1,0,0:0:0:0:
256,96,50953,1,8,0:0:0:0:
256,96,51168,1,8,0:0:0:0:
256,96,51382,1,0,0:0:0:0:
256,96,51703,1,0,0:0:0:0:
256,96,51811,1,0,0:0:0:0:
256,96,51918,1,8,0:0:0:0:
256,96,52132,1,0,0:0:0:0:
256,96,52346,1,0,0:0:0:0:
256,96,52453,1,8,0:0:0:0:
256,96,52507,1,8,0:0:0:0:
256,96,52561,1,0,0:0:0:0:
256,96,52668,1,0,0:0:0:0:
256,96,52775,1,8,0:0:0:0:
256,96,52989,1,0,0:0:0:0:
256,96,53096,1,8,0:0:0:0:
256,96,53203,1,8,0:0:0:0:
256,96,53311,1,0,0:0:0:0:
256,96,53418,1,8,0:0:0:0:
256,96,53525,1,0,0:0:0:0:
256,96,53632,1,0,0:0:0:0:
256,96,53953,1,0,0:0:0:0:
256,96,54168,1,0,0:0:0:0:
256,96,54275,1,8,0:0:0:0:
256,96,54382,1,0,0:0:0:0:
256,96,54489,1,8,0:0:0:0:
256,96,54596,1,0,0:0:0:0:
256,96,54703,1,0,0:0:0:0:
256,96,54918,1,8,0:0:0:0:
256,96,55025,1,8,0:0:0:0:
256,96,55132,1,0,0:0:0:0:
256,96,55239,1,8,0:0:0:0:
256,96,55346,1,8,0:0:0:0:
256,96,55453,1,0,0:0:0:0:
256,96,55561,1,0,0:0:0:0:
256,96,55668,1,0,0:0:0:0:
256,96,55775,1,8,0:0:0:0:
256,96,55882,1,8,0:0:0:0:
256,96,55989,1,0,0:0:0:0:
256,96,56096,1,8,0:0:0:0:
256,96,56203,1,8,0:0:0:0:
256,96,56311,1,8,0:0:0:0:
256,96,56418,1,0,0:0:0:0:
256,96,56525,1,8,0:0:0:0:
256,96,56632,1,8,0:0:0:0:
256,96,56739,1,0,0:0:0:0:
256,96,56846,1,0,0:0:0:0:
256,96,56953,1,8,0:0:0:0:
256,96,57061,1,8,0:0:0:0:
256,96,57168,1,0,0:0:0:0:
256,96,57275,1,0,0:0:0:0:
256,96,57382,1,0,0:0:0:0:
256,96,57489,1,8,0:0:0:0:
256,96,57596,1,8,0:0:0:0:
256,96,57703,1,8,0:0:0:0:
256,96,57811,1,8,0:0:0:0:
256,96,57918,1,0,0:0:0:0:
256,96,58025,1,0,0:0:0:0:
256,96,58132,1,0,0:0:0:0:
256,96,58239,1,0,0:0:0:0:
256,96,58346,1,8,0:0:0:0:
256,96,58453,1,0,0:0:0:0:
256,96,58561,1,8,0:0:0:0:
256,96,58668,1,8,0:0:0:0:
256,96,58775,1,0,0:0:0:0:
256,96,58882,1,0,0:0:0:0:
256,96,58989,1,8,0:0:0:0:
256,96,59096,1,8,0:0:0:0:
256,96,59203,1,0,0:0:0:0:
256,96,59311,1,8,0:0:0:0:
256,96,59418,1,8,0:0:0:0:
256,96,59525,1,0,0:0:0:0:
256,96,59632,1,8,0:0:0:0:
256,96,59846,1,8,0:0:0:0:
256,96,60061,1,0,0:0:0:0:
256,96,60275,1,0,0:0:0:0:
256,96,60382,1,8,0:0:0:0:
256,96,60489,1,0,0:0:0:0:
256,96,60596,1,8,0:0:0:0:
256,96,60703,1,8,0:0:0:0:
256,96,60811,1,0,0:0:0:0:
256,96,61025,1,0,0:0:0:0:
256,96,61132,1,0,0:0:0:0:
256,96,61239,1,0,0:0:0:0:
256,96,61346,1,8,0:0:0:0:
256,96,61561,1,8,0:0:0:0:
256,96,61668,1,8,0:0:0:0:
256,96,61775,1,0,0:0:0:0:
256,96,61989,1,8,0:0:0:0:
256,96,62096,1,0,0:0:0:0:
256,96,62203,1,0,0:0:0:0:
256,96,62311,1,0,0:0:0:0:
256,96,62418,1,8,0:0:0:0:
256,96,62525,1,0,0:0:0:0:
256,96,62632,1,0,0:0:0:0:
256,96,62686,1,8,0:0:0:0:
256,96,62739,1,0,0:0:0:0:
256,96,62846,1,8,0:0:0:0:
256,96,62953,1,0,0:0:0:0:
256,96,63168,1,0,0:0:0:0:
256,96,63275,1,8,0:0:0:0:
256,96,63382,1,8,0:0:0:0:
256,96,63489,1,0,0:0:0:0:
256,96,63703,1,8,0:0:0:0:
256,96,63811,1,0,0:0:0:0:
256,96,63918,1,0,0:0:0:0:
256,96,64132,1,8,0:0:0:0:
256,96,64239,1,0,0:0:0:0:
256,96,64346,1,8,0:0:0:0:
256,96,64400,1,0,0:0:0:0:
256,96,64453,1,8,0:0:0:0:
256,96,64561,1,8,0:0:0:0:
256,96,64668,1,0,0:0:0:0:
256,96,64882,1,0,0:0:0:0:
256,96,64989,1,8,0:0:0:0:
256,96,65203,1,8,0:0:0:0:
256,96,65311,1,0,0:0:0:0:
256,96,65418,1,0,0:0:0:0:
256,96,65525,1,8,0:0:0:0:
256,96,65632,1,0,0:0:0:0:
256,96,65739,1,0,0:0:0:0:
256,96,65846,1,0,0:0:0:0:
256,96,65953,1,0,0:0:0:0:
256,96,66061,1,8,0:0:0:0:
256,96,66168,1,8,0:0:0:0:
256,96,66275,1,0,0:0:0:0:
256,96,66382,1,8,0:0:0:0:
256,96,66489,1,0,0:0:0:0:
256,96,66596,1,8,0:0:0:0:
256,96,66703,1,8,0:0:0:0:
256,96,66811,1,0,0:0:0:0:
256,96,66918,1,8,0:0:0:0:
256,96,67132,1,0,0:0:0:0:
256,96,67239,1,0,0:0:0:0:
256,96,67346,1,8,0:0:0:0:
256,96,67561,1,0,0:0:0:0:
256,96,67668,1,8,0:0:0:0:
256,96,67882,1,8,0:0:0:0:
256,96,67989,1,0,0:0:0:0:
256,96,68043,1,0,0:0:0:0:
256,96,68096,1,8,0:0:0:0:
256,96,68150,1,8,0:0:0:0:
256,96,68203,1,0,0:0:0:0:
256,96,68311,1,8,0:0:0:0:
256,96,68418,1,0,0:0:0:0:
256,96,68525,1,0,0:0:0:0:
256,96,68632,1,0,0:0:0:0:
256,96,68846,1,0,0:0:0:0:
256,96,68953,1,0,0:0:0:0:
256,96,69061,1,0,0:0:0:0:
256,96,69168,1,0,0:0:0:0:
256,96,69275,1,8,0:0:0:0:
256,96,69382,1,8,0:0:0:0:
256,96,69596,1,8,0:0:0:0:
256,96,69703,1,0,0:0:0:0:
256,96,69918,1,8,0:0:0:0:
256,96,70025,1,0,0:0:0:0:
256,96,70132,1,8,0:0:0:0:
256,96,70239,1,8,0:0:0:0:
256,96,70346,1,8,0:0:0:0:
256,96,70453,1,0,0:0:0:0:
256,96,70561,1,0,0:0:0:0:
256,96,70668,1,8,0:0:0:0:
256,96,70882,1,8,0:0:0:0:
256,96,71096,1,0,0:0:0:0:
256,96,71150,1,8,0:0:0:0:
256,96,71203,1,0,0:0:0:0:
256,96,71311,1,8,0:0:0:0:
256,96,71418,1,0,0:0:0:0:
256,96,71525,1,0,0:0:0:0:
256,96,71632,1,8,0:0:0:0:
256,96,71846,1,0,0:0:0:0:
256,96,71953,1,0,0:0:0:0:
256,96,72061,1,8,0:0:0:0:
256,96,72168,1,0,0:0:0:0:
256,96,72275,1,0,0:0:0:0:
256,96,72382,1,8,0:0:0:0:
256,96,72489,1,8,0:0:0:0:
256,96,72596,1,0,0:0:0:0:
256,96,72703,1,0,0:0:0:0:
256,96,72811,1,8,0:0:0:0:
256,96,72918,1,8,0:0:0:0:
256,96,73025,1,8,0:0:0:0:
256,96,73132,1,0,0:0:0:0:
256,96,73239,1,8,0:0:0:0:
256,96,73346,1,8,0:0:0:0:
256,96,73453,1,0,0:0:0:0:
256,96,73561,1,0,0:0:0:0:
256,96,73668,1,8,0:0:0:0:
256,96,73775,1,0,0:0:0:0:
256,96,73989,1,0,0:0:0:0:
256,96,74096,1,8,0:0:0:0:
256,96,74311,1,0,0:0:0:0:
256,96,74525,1,0,0:0:0:0:
256,96,74739,1,0,0:0:0:0:
256,96,74846,1,0,0:0:0:0:
256,96,74953,1,0,0:0:0:0:
256,96,75061,1,8,0:0:0:0:
256,96,75275,1,0,0:0:0:0:
