osu file format v14

[General]
AudioFilename: audio.mp3
AudioLeadIn: 0
PreviewTime: 514
Countdown: 1
SampleSet: Soft
StackLeniency: 0.7
Mode: 0
LetterboxInBreaks: 0
WidescreenStoryboard: 1

[Editor]
Bookmarks: 27960,41674,48532
DistanceSpacing: 1.2
BeatDivisor: 4
GridSize: 32
TimelineZoom: 1.2

[Metadata]
Title:Rude Buster
TitleUnicode:Rude Buster
Artist:Toby Fox
ArtistUnicode:Toby Fox
Creator:Hobbes2
Version:Normal
Source:DELTARUNE
Tags:Zetera Undertale Battle Theme delta rune official soundtrack ost video game
BeatmapID:1845650
BeatmapSetID:881601

[Difficulty]
HPDrainRate:3
CircleSize:3
OverallDifficulty:3
ApproachRate:4
SliderMultiplier:1.1
SliderTickRate:0.5

[Events]
//Background and Video events
0,0,"DELTARUNE.jpg",0,0
//Break Periods
//Storyboard Layer 0 (Background)
//Storyboard Layer 1 (Fail)
//Storyboard Layer 2 (Pass)
//Storyboard Layer 3 (Foreground)
//Storyboard Sound Samples

[TimingPoints]
622,428.571428571429,4,2,0,70,1,0
41764,-100,4,2,0,50,0,0
48622,-100,4,2,0,70,0,0

[Colours]
Combo1 : 66,66,255
Combo2 : 255,121,255
Combo3 : 79,167,255
Combo4 : 91,255,133

[HitObjects]
37,99,622,6,0,P|101:69|153:57,1,110,6|8,0:2|0:2,0:0:0:0:
211,114,1372,2,0,P|279:104|346:93,1,137.5,2|8,0:2|0:2,0:0:0:0:
444,165,2336,2,0,L|441:274,1,110,2|8,0:2|0:2,0:0:0:0:
360,315,3086,2,0,P|294:281|209:280,1,137.5,2|8,0:2|0:2,0:0:0:0:
129,340,4050,5,2,0:2:0:0:
51,246,4479,1,8,0:2:0:0:
107,175,4800,2,0,L|84:31,1,137.5,2|8,0:2|0:2,0:0:0:0:
205,28,5764,2,0,P|281:15|308:13,1,82.4999999999999,6|6,0:2|0:2,0:0:0:0:
367,103,6514,2,0,B|333:152|333:152|351:227,1,137.5,6|8,0:2|0:2,0:0:0:0:
381,280,7264,1,0,3:2:0:0:
381,280,7479,6,0,L|496:260,1,110,2|8,0:2|0:2,0:0:0:0:
481,170,8229,2,0,P|481:101|493:33,1,137.5,2|8,0:2|0:2,0:0:0:0:
372,43,9193,2,0,P|306:44|246:48,1,110,2|8,0:2|0:2,0:0:0:0:
197,111,9943,2,0,P|130:98|64:79,1,137.5,2|8,0:2|0:2,0:0:0:0:
34,131,10693,1,0,3:2:0:0:
34,131,10907,6,0,P|54:200|57:255,1,110,2|8,0:2|0:2,0:0:0:0:
126,297,11657,2,0,L|261:273,1,137.5,2|8,0:2|0:2,0:0:0:0:
356,198,12622,2,0,P|330:141|317:123,1,82.4999999999999,6|6,0:2|0:2,0:0:0:0:
357,10,13372,2,0,P|417:11|504:27,1,137.5,6|8,0:2|0:2,0:0:0:0:
498,84,14122,1,0,3:2:0:0:
498,84,14336,6,0,B|469:141|469:141|505:290,1,192.5,4|2,0:2|0:2,0:0:0:0:
411,349,15514,2,0,P|384:341|357:334,1,54.9999999999999,2|2,3:2|0:2,0:0:0:0:
297,267,16050,2,0,P|257:278|216:283,1,82.4999999999999,2|2,0:2|3:2,0:0:0:0:
164,252,16586,1,2,3:2:0:0:
164,252,16800,2,0,L|178:104,1,137.5,2|8,0:2|0:2,0:0:0:0:
73,51,17764,6,0,P|27:135|31:230,1,192.5,2|2,0:0|0:2,0:0:0:0:
104,327,18943,2,0,P|142:320|182:316,1,54.9999999999999,2|2,3:2|0:2,0:0:0:0:
243,349,19479,2,0,P|262:300|291:260,1,82.4999999999999,6|6,0:2|0:2,0:0:0:0:
323,234,20014,1,2,3:2:0:0:
323,234,20229,2,0,L|298:81,1,137.5,6|8,0:2|0:2,0:0:0:0:
396,23,21193,6,0,P|466:34|480:159,1,192.5,2|2,0:0|0:2,0:0:0:0:
429,242,22372,2,0,P|412:294|408:317,1,54.9999999999999,2|2,3:2|0:2,0:0:0:0:
353,364,22907,2,0,P|286:349|218:344,1,137.5,2|2,0:2|3:2,0:0:0:0:
145,289,23764,2,0,P|134:235|127:180,1,110,2|8,0:2|0:2,0:0:0:0:
248,193,24622,6,0,P|302:192|365:75,1,192.5,2|2,0:0|0:2,0:0:0:0:
259,28,25800,2,0,P|221:34|189:40,1,54.9999999999999,2|2,3:2|0:2,0:0:0:0:
130,88,26336,2,0,P|119:150|112:192,1,82.4999999999999,6|6,0:2|0:2,0:0:0:0:
133,227,26872,1,2,3:2:0:0:
133,227,27086,2,0,B|181:258|181:258|277:224,1,137.5,6|8,0:2|0:2,0:0:0:0:
312,338,28050,5,4,0:2:0:0:
399,360,28372,2,0,P|409:321|429:284,1,82.4999999999999,2|2,0:2|0:2,0:0:0:0:
486,265,28907,2,0,L|479:161,1,82.4999999999999,12|12,3:2|0:2,0:0:0:0:
390,61,29764,1,4,0:2:0:0:
315,113,30086,2,0,P|271:109|228:107,1,82.4999999999999,2|2,0:2|0:2,0:0:0:0:
176,130,30622,2,0,L|195:236,1,82.4999999999999,12|12,0:2|0:2,0:0:0:0:
93,327,31479,5,4,0:2:0:0:
39,254,31800,2,0,P|32:185|28:147,1,82.4999999999999,2|2,0:2|0:2,0:0:0:0:
48,113,32336,2,0,P|122:104|141:98,1,82.4999999999999,12|12,0:2|0:2,0:0:0:0:
206,53,32979,1,2,0:2:0:0:
206,53,33193,6,0,P|261:58|305:78,1,82.4999999999999,6|6,0:2|0:2,0:0:0:0:
315,120,33729,1,2,3:2:0:0:
315,120,33943,2,0,P|307:188|300:256,1,137.5,6|8,3:2|0:2,0:0:0:0:
217,345,34907,5,4,0:2:0:0:
301,379,35229,2,0,P|368:364|436:356,1,137.5,2|12,0:2|0:2,0:0:0:0:
484,278,36086,2,0,P|478:226|466:137,1,137.5,12|4,0:2|0:2,0:0:0:0:
395,84,36943,2,0,B|345:58|345:58|261:91,1,137.5,2|12,0:2|0:2,0:0:0:0:
213,159,37800,1,12,0:2:0:0:
89,72,38336,5,4,0:2:0:0:
29,140,38657,2,0,P|28:203|29:291,1,137.5,2|12,0:2|0:2,0:0:0:0:
105,326,39514,1,12,0:2:0:0:
178,272,39836,1,0,3:0:0:0:
178,271,40050,6,0,P|244:256|313:259,1,137.5,6|2,0:2|3:2,0:0:0:0:
354,304,40800,2,0,L|348:152,1,137.5,6|10,3:2|0:2,0:0:0:0:
325,47,41764,6,0,P|281:38|208:30,1,110,6|8,0:2|0:2,0:0:0:0:
141,81,42514,2,0,L|137:218,1,137.5,2|8,0:2|0:2,0:0:0:0:
228,298,43479,2,0,P|271:306|345:315,1,110,2|8,0:2|0:2,0:0:0:0:
412,264,44229,2,0,L|415:126,1,137.5,2|8,0:2|0:2,0:0:0:0:
332,37,45193,6,0,P|299:82|281:134,1,110,2|8,0:2|0:2,0:0:0:0:
299,223,45943,2,0,P|348:259|379:344,1,137.5,2|8,0:2|0:2,0:0:0:0:
265,371,46907,2,0,L|159:363,1,82.5,6|6,0:2|0:2,0:0:0:0:
81,299,47657,2,0,P|67:188|57:140,1,137.5,14|8,0:2|0:2,0:0:0:0:
21,118,48407,1,2,3:2:0:0:
21,118,48622,6,0,P|109:98|153:91,1,110,4|8,0:2|0:2,0:0:0:0:
200,192,49479,2,0,P|288:212|332:219,1,110,2|8,0:2|0:2,0:0:0:0:
359,183,50122,1,2,3:2:0:0:
358,182,50336,2,0,P|381:94|470:72,1,192.5,2|2,0:2|0:2,0:0:0:0:
495,189,51514,2,0,P|481:243|471:297,1,110,2|2,3:2|3:2,0:0:0:0:
336,366,52479,6,0,L|227:349,1,110,8|2,0:2|0:2,0:0:0:0:
148,257,53336,1,8,0:2:0:0:
254,199,53764,2,0,P|310:190|359:187,1,82.5,4|4,0:0|0:0,0:0:0:0:
439,250,54514,2,0,P|436:194|445:97,1,137.5,6|8,0:2|0:2,0:0:0:0:
346,38,55479,6,0,L|263:33,1,82.5,2|2,0:2|3:2,0:0:0:0:
225,80,56014,1,0,3:0:0:0:
150,132,56336,2,0,P|89:109|20:104,1,110,2|10,0:2|0:2,0:0:0:0:
9,152,56979,1,2,3:2:0:0:
9,152,57193,2,0,L|4:234,1,82.5,2|2,0:2|3:2,0:0:0:0:
51,273,57728,1,0,3:0:0:0:
116,335,58050,2,0,P|170:326|221:306,1,110,2|8,0:2|0:2,0:0:0:0:
269,270,58693,1,2,3:2:0:0:
269,270,58907,6,0,P|274:215|284:161,1,110,2|8,0:2|0:2,0:0:0:0:
347,96,59657,2,0,P|408:104|440:186,1,137.5,2|8,0:2|0:2,0:0:0:0:
407,282,60622,2,0,L|320:264,1,82.5,6|6,0:2|0:2,0:0:0:0:
234,344,61372,2,0,P|170:321|96:308,1,137.5,6|8,0:2|0:2,0:0:0:0:
30,210,62336,5,2,0:0:0:0:
91,106,62764,1,8,0:2:0:0:
183,184,63193,2,0,P|186:237|189:289,2,82.5,2|2|2,0:2|3:2|3:2,0:0:0:0:
216,133,64050,1,0,0:0:0:0:
315,201,64479,1,8,0:2:0:0:
405,120,64907,2,0,P|474:107|494:97,1,82.5,2|2,0:2|3:2,0:0:0:0:
480,41,65443,1,2,0:2:0:0:
396,5,65764,6,0,P|339:0|217:40,1,165,2|2,0:2|3:2,0:0:0:0:
213,84,66622,2,0,P|156:89|34:49,1,165,2|2,0:2|3:2,0:0:0:0:
8,19,67479,2,0,P|8:88|3:114,2,82.5,6|6|6,0:2|0:2|0:2,0:0:0:0:
98,176,68764,1,8,0:2:0:0:
183,261,69193,6,0,P|228:240|374:233,1,192.5,2|2,0:0|0:2,0:0:0:0:
414,271,70157,1,2,3:2:0:0:
462,194,70479,2,0,P|470:159|473:131,1,55,10|2,0:2|3:2,0:0:0:0:
437,90,70907,2,0,P|390:72|344:57,1,82.5,2|2,0:2|3:2,0:0:0:0:
257,126,71657,2,0,P|211:122|112:127,1,137.5,2|8,0:2|0:2,0:0:0:0:
24,200,72622,6,0,P|21:249|95:330,1,165,2|2,0:2|3:2,0:0:0:0:
144,365,73479,2,0,P|193:368|274:294,1,165,2|2,0:2|3:2,0:0:0:0:
258,235,74336,2,0,P|255:162|257:134,1,82.5,6|6,0:2|0:2,0:0:0:0:
289,102,74872,1,2,3:2:0:0:
289,102,75086,2,0,L|437:82,1,137.5,6|8,0:2|0:2,0:0:0:0:
477,192,76050,5,4,0:2:0:0:
