osu file format v14

[General]
AudioFilename: audio.mp3
AudioLeadIn: 0
PreviewTime: 514
Countdown: 1
SampleSet: Soft
StackLeniency: 0.7
Mode: 0
LetterboxInBreaks: 0
WidescreenStoryboard: 1

[Editor]
Bookmarks: 27960,41674,48532
DistanceSpacing: 1.2
BeatDivisor: 4
GridSize: 32
TimelineZoom: 2

[Metadata]
Title:Rude Buster
TitleUnicode:Rude Buster
Artist:Toby Fox
ArtistUnicode:Toby Fox
Creator:Hobbes2
Version:Insane
Source:DELTARUNE
Tags:Zetera Undertale Battle Theme delta rune official soundtrack ost video game
BeatmapID:1848332
BeatmapSetID:881601

[Difficulty]
HPDrainRate:5
CircleSize:3
OverallDifficulty:7.7
ApproachRate:9
SliderMultiplier:2.4
SliderTickRate:1

[Events]
//Background and Video events
0,0,"DELTARUNE.jpg",0,0
//Break Periods
//Storyboard Layer 0 (Background)
//Storyboard Layer 1 (Fail)
//Storyboard Layer 2 (Pass)
//Storyboard Layer 3 (Foreground)
//Storyboard Sound Samples

[TimingPoints]
622,428.571428571429,4,2,0,70,1,0
41764,-125,4,2,0,50,0,0
48622,-100,4,2,0,70,0,0

[Colours]
Combo1 : 66,66,255
Combo2 : 255,121,255
Combo3 : 79,167,255
Combo4 : 91,255,133

[HitObjects]
14,97,622,6,0,P|104:82|145:85,1,120,6|0,0:2|3:2,0:0:0:0:
187,154,943,2,0,P|189:204|190:245,1,60,0|8,3:2|0:2,0:0:0:0:
264,262,1157,2,0,P|262:312|261:353,1,60,0|0,3:2|3:2,0:0:0:0:
339,368,1372,1,2,0:2:0:0:
473,248,1586,1,0,3:2:0:0:
468,218,1693,1,0,3:2:0:0:
463,188,1800,1,0,3:2:0:0:
460,158,1907,2,0,L|296:132,1,120,8|0,0:2|3:2,0:0:0:0:
282,70,2229,1,0,3:2:0:0:
211,125,2336,6,0,P|197:207|186:282,1,120,2|0,0:2|3:2,0:0:0:0:
240,319,2657,1,0,3:2:0:0:
59,327,2872,1,0,3:2:0:0:
326,384,3086,6,0,P|408:353|488:342,1,120,2|0,0:2|3:2,0:0:0:0:
477,265,3407,1,0,3:2:0:0:
471,235,3514,1,0,3:2:0:0:
471,204,3622,2,0,L|415:179,1,60,8|0,0:2|0:0,0:0:0:0:
390,93,3836,2,0,L|446:68,1,60,0|0,3:0|3:0,0:0:0:0:
301,17,4050,6,0,P|259:117|232:156,1,120,2|0,0:2|3:2,0:0:0:0:
162,122,4372,2,0,L|98:111,1,60,0|8,3:2|0:2,0:0:0:0:
58,190,4586,2,0,L|-1:200,1,60,0|0,3:2|3:2,0:0:0:0:
18,287,4800,1,2,0:2:0:0:
182,358,5014,1,0,3:2:0:0:
209,345,5122,1,0,3:2:0:0:
236,332,5229,1,0,3:2:0:0:
263,318,5336,2,0,L|405:342,1,120,8|0,0:2|3:2,0:0:0:0:
466,366,5657,1,0,3:2:0:0:
504,284,5764,6,0,P|507:210|509:122,1,120,6|0,0:2|3:2,0:0:0:0:
473,80,6086,2,0,P|490:27|501:3,2,60,6|8|0,0:2|0:2|3:2,0:0:0:0:
395,125,6407,1,0,3:2:0:0:
325,68,6514,2,0,P|241:57|184:58,1,120,6|0,0:2|3:2,0:0:0:0:
139,118,6836,1,0,3:2:0:0:
109,116,6943,1,0,3:2:0:0:
81,104,7050,2,0,P|52:162|43:186,1,60,8|0,0:2|3:0,0:0:0:0:
105,230,7264,2,0,P|134:288|143:312,1,60,0|0,3:2|3:2,0:0:0:0:
255,376,7479,6,0,L|242:256,1,120,2|0,0:2|3:2,0:0:0:0:
296,184,7800,2,0,L|369:176,1,60,0|8,3:2|0:2,0:0:0:0:
388,93,8014,2,0,L|315:85,1,60,0|0,3:2|3:2,0:0:0:0:
255,32,8229,1,2,0:2:0:0:
75,46,8443,1,0,3:2:0:0:
55,67,8550,1,0,3:2:0:0:
43,94,8657,1,0,3:2:0:0:
30,121,8764,2,0,P|34:250|37:296,1,120,8|0,0:2|3:2,0:0:0:0:
93,309,9086,1,0,3:2:0:0:
165,255,9193,6,0,P|220:255|284:272,1,120,2|0,0:2|3:2,0:0:0:0:
339,340,9514,1,0,3:2:0:0:
479,226,9729,1,0,3:2:0:0:
365,86,9943,2,0,P|305:86|247:102,1,120,2|0,0:2|3:2,0:0:0:0:
183,165,10264,1,0,3:2:0:0:
153,171,10372,1,0,3:2:0:0:
122,165,10479,2,0,P|60:152|52:152,1,60,8|0,0:2|0:0,0:0:0:0:
39,65,10693,2,0,P|101:52|109:52,1,60,0|0,3:2|3:2,0:0:0:0:
220,77,10907,6,0,L|359:54,1,120,2|0,0:2|3:2,0:0:0:0:
416,103,11229,2,0,P|427:157|433:180,1,60,0|8,3:2|0:2,0:0:0:0:
486,274,11443,2,0,P|493:245|499:216,1,60,0|0,3:2|3:2,0:0:0:0:
363,231,11657,1,2,0:2:0:0:
222,344,11872,1,0,3:2:0:0:
193,336,11979,1,0,3:2:0:0:
164,328,12086,1,0,3:2:0:0:
134,320,12193,2,0,L|122:185,1,120,8|0,0:2|3:2,0:0:0:0:
57,139,12514,1,0,3:2:0:0:
116,70,12622,6,0,P|208:82|266:82,1,120,6|0,0:2|3:2,0:0:0:0:
324,81,12943,2,0,P|358:31|383:13,2,60,6|8|0,0:2|0:2|3:2,0:0:0:0:
385,146,13264,1,0,3:2:0:0:
316,205,13372,2,0,P|307:281|296:357,1,120,6|0,0:2|3:2,0:0:0:0:
220,364,13693,1,0,3:2:0:0:
200,343,13800,1,0,3:2:0:0:
175,327,13907,1,8,0:2:0:0:
147,316,14014,1,0,3:2:0:0:
117,311,14121,1,0,3:2:0:0:
87,313,14228,1,0,3:2:0:0:
58,321,14336,6,0,P|43:226|29:161,1,120,4|2,0:2|3:2,0:0:0:0:
83,125,14657,1,2,3:2:0:0:
101,101,14764,2,0,L|170:113,1,60,10|2,0:2|3:2,0:0:0:0:
233,165,14979,1,2,3:2:0:0:
305,111,15086,1,2,0:2:0:0:
467,34,15300,1,2,3:2:0:0:
395,198,15514,1,2,3:2:0:0:
228,42,15729,2,0,P|156:40|83:39,1,120,2|0,0:2|3:2,0:0:0:0:
38,95,16050,6,0,P|16:174|17:251,1,120,2|0,0:2|3:2,0:0:0:0:
72,280,16372,1,2,3:2:0:0:
237,210,16586,1,2,3:2:0:0:
303,350,16800,1,2,0:2:0:0:
326,369,16907,2,0,P|352:318|375:290,1,60,2|0,0:2|3:0,0:0:0:0:
476,318,17122,1,2,3:2:0:0:
446,312,17229,2,0,P|439:252|434:126,1,180,2|0,3:2|3:0,0:0:0:0:
275,48,17764,6,0,L|264:203,1,120,2|2,0:0|3:2,0:0:0:0:
199,229,18086,1,2,3:2:0:0:
174,212,18193,2,0,P|109:202|89:200,1,60,10|2,0:2|3:2,0:0:0:0:
33,240,18407,1,2,3:2:0:0:
10,326,18514,1,2,0:2:0:0:
186,364,18729,1,2,3:2:0:0:
40,147,18943,1,2,3:2:0:0:
184,254,19157,2,0,P|265:233|329:221,1,120,2|0,0:2|3:0,0:0:0:0:
381,266,19479,6,0,P|413:158|426:105,1,120,6|0,0:2|3:0,0:0:0:0:
376,69,19800,2,0,P|285:45|280:45,1,60,6|8,0:2|0:2,0:0:0:0:
194,151,20014,2,0,P|285:127|290:127,1,60,2|0,3:2|3:0,0:0:0:0:
73,62,20229,2,0,L|94:183,1,120,6|0,0:2|3:0,0:0:0:0:
61,264,20550,1,0,3:0:0:0:
77,288,20657,1,0,3:0:0:0:
98,310,20764,1,8,0:2:0:0:
122,328,20871,1,0,3:0:0:0:
148,342,20978,1,0,3:0:0:0:
177,351,21085,1,0,3:0:0:0:
207,355,21193,6,0,P|317:329|366:322,1,120,2|2,0:0|3:2,0:0:0:0:
409,354,21514,1,2,3:2:0:0:
438,366,21622,2,0,P|451:295|451:288,1,60,10|2,0:2|3:2,0:0:0:0:
414,225,21836,1,2,3:2:0:0:
467,152,21943,1,2,0:2:0:0:
297,91,22157,1,2,3:2:0:0:
461,16,22372,1,2,3:2:0:0:
315,200,22586,2,0,P|220:190|166:189,1,120,2|0,0:2|3:0,0:0:0:0:
115,230,22907,6,0,L|104:381,1,120,2|0,0:2|3:0,0:0:0:0:
194,370,23229,1,2,3:2:0:0:
368,328,23443,1,2,3:2:0:0:
269,177,23657,1,2,0:2:0:0:
290,198,23764,2,0,P|314:133|319:124,1,60,2|0,0:2|3:0,0:0:0:0:
396,32,23979,1,2,3:2:0:0:
390,62,24086,2,0,P|331:51|204:25,1,180,2|0,3:2|3:0,0:0:0:0:
65,129,24622,6,0,P|83:217|91:253,1,120,2|2,0:0|3:2,0:0:0:0:
152,310,24943,1,2,3:2:0:0:
174,331,25050,2,0,L|233:312,1,60,10|2,0:2|3:2,0:0:0:0:
295,249,25264,1,2,3:2:0:0:
296,158,25372,1,2,0:2:0:0:
437,269,25586,1,2,3:2:0:0:
388,95,25800,1,2,3:2:0:0:
303,278,26014,2,0,B|149:284,1,120,2|0,0:2|3:0,0:0:0:0:
97,251,26336,6,0,P|80:178|96:114,1,120,6|0,0:2|3:0,0:0:0:0:
151,71,26657,2,0,L|255:51,1,60,6|8,0:2|0:2,0:0:0:0:
342,162,26872,2,0,L|238:142,1,60,2|0,3:2|3:0,0:0:0:0:
340,23,27086,2,0,P|423:18|485:12,1,120,6|0,0:2|3:0,0:0:0:0:
508,90,27407,1,0,3:0:0:0:
503,119,27514,1,0,3:0:0:0:
498,148,27622,1,8,0:2:0:0:
493,177,27729,1,0,3:0:0:0:
489,206,27836,1,0,3:0:0:0:
485,235,27943,1,0,3:0:0:0:
481,264,28050,6,0,P|405:281|363:288,1,120,4|0,0:2|3:0,0:0:0:0:
296,349,28372,1,2,0:2:0:0:
231,285,28479,2,0,L|228:199,2,60,10|2|2,3:2|0:2|0:2,0:0:0:0:
168,349,28800,1,2,3:2:0:0:
108,281,28907,6,0,P|93:203|81:131,1,120,12|0,3:2|3:0,0:0:0:0:
193,16,29229,2,0,P|183:75|172:134,1,120,12|8,0:2|0:2,0:0:0:0:
86,163,29550,1,0,0:0:0:0:
248,239,29764,6,0,L|405:225,1,120,4|0,0:2|3:0,0:0:0:0:
427,296,30086,1,2,0:2:0:0:
495,238,30193,2,0,P|517:281|528:310,2,60,10|2|2,3:2|0:2|0:2,0:0:0:0:
494,148,30514,1,2,3:2:0:0:
432,80,30622,6,0,P|373:69|316:51,1,120,12|0,0:2|3:0,0:0:0:0:
135,143,30943,2,0,P|194:132|252:115,1,120,12|8,0:2|0:2,0:0:0:0:
316,51,31264,1,0,3:0:0:0:
353,227,31479,6,0,L|334:368,1,120,4|0,0:2|3:0,0:0:0:0:
247,335,31800,1,2,0:2:0:0:
149,325,31907,2,0,P|120:335|92:347,2,60,10|2|2,3:2|0:2|0:2,0:0:0:0:
182,241,32229,1,2,3:2:0:0:
238,170,32336,2,0,P|215:115|191:60,1,120,12|0,0:2|3:0,0:0:0:0:
358,0,32657,2,0,P|333:54|311:110,1,120,12|8,0:2|0:2,0:0:0:0:
238,170,32979,1,2,0:2:0:0:
327,326,33193,6,0,P|407:312|461:245,1,120,6|0,0:2|3:0,0:0:0:0:
445,199,33514,2,0,P|439:146|436:115,1,60,6|8,0:2|0:2,0:0:0:0:
368,81,33729,2,0,P|374:28|377:-3,1,60,2|0,3:2|3:0,0:0:0:0:
285,7,33943,2,0,P|173:14|174:192,1,300,6|8,3:2|0:2,0:0:0:0:
316,252,34693,1,0,3:0:0:0:
167,352,34907,6,0,P|65:336|19:325,1,120,4|0,0:2|3:0,0:0:0:0:
12,249,35229,1,2,0:2:0:0:
53,169,35336,1,10,3:2:0:0:
7,91,35443,1,2,0:2:0:0:
62,20,35550,2,0,P|91:14|121:10,1,60,2|2,0:2|3:2,0:0:0:0:
204,124,35764,6,0,P|259:102|316:83,1,120,12|0,0:2|3:0,0:0:0:0:
479,263,36086,2,0,P|423:240|366:221,1,120,12|8,0:2|0:2,0:0:0:0:
281,250,36407,2,0,P|277:300|277:323,1,60,0|0,3:0|3:0,0:0:0:0:
170,370,36622,6,0,L|152:230,1,120,4|0,0:2|3:0,0:0:0:0:
93,184,36943,1,2,0:2:0:0:
109,95,37050,1,10,3:2:0:0:
166,26,37157,1,2,0:2:0:0:
255,16,37264,2,0,P|298:13|326:12,1,60,2|2,0:2|3:2,0:0:0:0:
432,84,37479,6,0,L|413:231,1,120,12|0,0:2|3:0,0:0:0:0:
358,374,37800,2,0,L|343:255,1,120,12|8,0:2|0:2,0:0:0:0:
281,188,38122,2,0,P|210:188|185:191,1,60,0|0,3:0|3:0,0:0:0:0:
58,290,38336,6,0,P|117:276|176:265,1,120,4|0,0:2|3:0,0:0:0:0:
250,315,38657,1,2,0:2:0:0:
339,318,38764,1,10,3:2:0:0:
412,265,38872,1,2,0:2:0:0:
444,181,38979,2,0,P|446:128|439:100,1,60,2|2,0:2|3:2,0:0:0:0:
340,28,39193,6,0,P|280:33|221:45,1,120,12|0,0:2|3:0,0:0:0:0:
50,100,39514,2,0,P|110:106|169:118,1,120,12|8,0:2|0:2,0:0:0:0:
239,175,39836,2,0,L|233:244,1,60,0|0,3:0|3:0,0:0:0:0:
308,337,40050,6,0,P|366:322|424:308,1,120,6|0,0:2|3:0,0:0:0:0:
463,226,40372,1,6,0:2:0:0:
360,78,40586,1,2,3:2:0:0:
205,173,40800,2,0,P|196:262|187:352,1,180,6|0,3:2|3:0,0:0:0:0:
100,328,41229,1,0,3:0:0:0:
71,343,41336,2,0,P|18:351|0:355,1,60,10|0,0:2|3:0,0:0:0:0:
1,227,41550,2,0,P|54:235|72:239,1,60,2|0,3:2|3:0,0:0:0:0:
32,103,41764,5,6,0:2:0:0:
113,51,41979,1,0,3:0:0:0:
136,54,42086,1,0,3:0:0:0:
159,60,42193,2,0,P|190:54|216:52,2,48,8|0|0,0:2|3:0|3:0,0:0:0:0:
193,142,42514,2,0,P|240:139|288:139,1,96,2|0,0:2|3:0,0:0:0:0:
305,157,42836,1,0,3:0:0:0:
318,176,42943,1,0,3:0:0:0:
326,198,43050,1,8,0:2:0:0:
413,249,43264,1,0,3:0:0:0:
459,152,43479,6,0,L|446:40,1,96,2|0,0:2|3:0,0:0:0:0:
424,51,43800,1,0,3:0:0:0:
400,45,43907,1,8,0:2:0:0:
376,39,44014,1,0,3:0:0:0:
352,33,44122,1,0,3:0:0:0:
328,30,44229,2,0,P|246:44|192:57,1,96,2|8,0:2|3:2,0:0:0:0:
216,63,44550,1,0,3:0:0:0:
196,76,44657,1,0,3:0:0:0:
174,85,44764,2,0,L|118:81,1,48,8|8,0:2|0:2,0:0:0:0:
73,155,44979,2,0,L|17:151,1,48,8|0,0:2|0:0,0:0:0:0:
5,236,45193,5,2,0:2:0:0:
80,315,45407,1,0,3:0:0:0:
101,303,45514,1,0,3:0:0:0:
125,294,45622,2,0,P|172:303|192:307,2,48,8|0|0,0:2|3:0|3:0,0:0:0:0:
166,215,45943,2,0,P|232:204|278:200,1,96,2|0,0:2|3:0,0:0:0:0:
281,213,46264,1,0,3:0:0:0:
294,233,46372,1,0,3:0:0:0:
303,254,46479,1,8,0:2:0:0:
393,191,46693,1,0,3:0:0:0:
464,261,46907,6,0,P|478:323|480:368,1,96,6|8,0:2|0:2,0:0:0:0:
456,362,47229,2,0,L|387:369,1,48,6|8,0:2|0:2,0:0:0:0:
305,316,47550,1,0,3:0:0:0:
294,336,47657,2,0,P|214:327|165:322,2,96,14|8|0,0:2|0:2|3:0,0:0:0:0:
302,358,48193,1,8,0:2:0:0:
364,251,48407,5,2,3:2:0:0:
371,203,48514,1,2,3:2:0:0:
380,143,48622,2,0,P|297:114|211:94,1,120,4|0,0:2|3:0,0:0:0:0:
194,159,48943,1,0,3:0:0:0:
180,185,49050,2,0,P|100:173|90:172,1,60,8|0,0:2|3:0,0:0:0:0:
30,220,49264,5,2,3:2:0:0:
14,309,49372,1,2,0:2:0:0:
84,364,49479,2,0,P|164:343|224:330,1,120,2|0,0:2|3:0,0:0:0:0:
290,335,49800,2,0,L|304:259,1,60,0|8,3:0|0:2,0:0:0:0:
383,115,50122,5,2,3:2:0:0:
443,48,50229,1,2,3:2:0:0:
493,122,50336,2,0,P|499:186|500:262,1,120,2|2,0:2|3:2,0:0:0:0:
439,308,50657,2,0,P|360:299|352:300,1,60,2|10,3:2|0:2,0:0:0:0:
309,355,50872,2,0,P|279:357|250:364,1,60,2|0,3:2|3:0,0:0:0:0:
164,336,51086,1,2,0:2:0:0:
27,219,51300,1,2,3:2:0:0:
184,132,51514,1,2,3:2:0:0:
56,320,51729,1,2,0:2:0:0:
124,55,51943,6,0,P|236:54|273:160,1,240,2|0,3:2|3:0,0:0:0:0:
226,238,52479,2,0,P|215:290|207:323,1,60,8|0,0:2|3:0,0:0:0:0:
314,367,52693,2,0,P|307:338|302:309,1,60,2|0,3:2|0:0,0:0:0:0:
357,237,52907,2,0,P|422:223|479:218,1,120,2|2,0:2|3:2,0:0:0:0:
496,129,53229,1,0,3:0:0:0:
489,100,53336,2,0,P|424:86|367:81,1,120,8|2,0:2|3:2,0:0:0:0:
287,114,53657,1,2,3:2:0:0:
220,174,53764,6,0,L|230:330,1,120,4|0,0:0|3:0,0:0:0:0:
149,339,54086,2,0,P|114:358|69:390,2,60,4|0|0,0:0|0:2|3:0,0:0:0:0:
111,257,54407,1,0,3:0:0:0:
51,188,54514,2,0,P|58:129|68:70,2,120,6|2|2,0:2|3:2|3:2,0:0:0:0:
231,174,55157,2,0,P|322:155|388:145,1,120,2|0,3:2|3:0,0:0:0:0:
429,192,55479,6,0,L|440:267,2,60,2|0|0,0:2|0:0|3:0,0:0:0:0:
350,235,55800,2,0,L|339:310,2,60,2|8|0,3:2|0:0|3:0,0:0:0:0:
261,248,56122,2,0,L|225:314,1,60,2|0,3:2|0:0,0:0:0:0:
151,340,56336,5,2,0:2:0:0:
144,280,56443,1,2,3:2:0:0:
138,220,56550,1,2,3:2:0:0:
132,160,56657,1,2,3:2:0:0:
181,85,56764,5,10,0:2:0:0:
241,92,56871,1,2,0:2:0:0:
301,98,56978,1,2,3:2:0:0:
361,104,57085,1,2,3:2:0:0:
431,160,57193,6,0,L|419:253,1,60,2|0,0:2|0:0,0:0:0:0:
338,267,57407,1,0,3:0:0:0:
314,285,57514,2,0,L|326:378,1,60,2|8,3:2|0:2,0:0:0:0:
426,376,57729,1,0,3:0:0:0:
448,356,57836,2,0,L|541:344,1,60,2|0,3:2|0:0,0:0:0:0:
450,255,58050,5,2,0:2:0:0:
457,195,58157,1,2,3:2:0:0:
463,135,58264,1,2,3:2:0:0:
469,75,58371,1,2,3:2:0:0:
420,0,58478,5,8,0:2:0:0:
360,7,58585,1,2,0:2:0:0:
300,13,58692,1,2,3:2:0:0:
240,19,58799,1,2,3:2:0:0:
197,98,58907,6,0,P|132:86|66:71,1,120,2|2,0:2|3:2,0:0:0:0:
5,127,59229,1,0,3:0:0:0:
53,202,59336,2,0,P|93:195|146:192,1,60,8|2,0:2|3:2,0:0:0:0:
216,283,59550,1,2,3:2:0:0:
192,265,59657,2,0,P|263:232|346:200,1,120,2|2,0:2|3:2,0:0:0:0:
375,268,59979,2,0,P|426:255|457:252,1,60,2|0,3:2|3:0,0:0:0:0:
492,134,60193,2,0,P|441:121|410:118,1,60,8|0,0:2|0:0,0:0:0:0:
370,56,60407,2,0,P|319:69|288:72,1,60,2|0,3:2|3:0,0:0:0:0:
223,92,60622,6,0,P|212:166|205:234,1,120,6|0,0:2|3:0,0:0:0:0:
149,279,60943,2,0,P|159:324|166:379,2,60,6|8|2,0:2|0:2|3:2,0:0:0:0:
65,245,61264,1,0,3:0:0:0:
31,160,61372,6,0,P|82:72|261:107,1,300,6|8,0:2|0:2,0:0:0:0:
339,259,62122,1,0,3:0:0:0:
368,255,62229,1,0,3:0:0:0:
397,251,62336,6,0,P|465:257|536:270,1,120,0|0,0:0|3:0,0:0:0:0:
371,371,62764,1,8,0:2:0:0:
229,259,62979,1,2,3:2:0:0:
76,354,63193,2,0,P|65:264|51:211,1,120,2|2,0:2|3:2,0:0:0:0:
10,159,63514,2,0,P|21:69|35:16,1,120,2|0,3:2|0:0,0:0:0:0:
115,16,63836,1,2,3:2:0:0:
195,55,63943,1,2,3:2:0:0:
279,23,64050,6,0,P|346:35|407:50,1,120,0|0,0:0|3:0,0:0:0:0:
458,216,64479,1,8,0:2:0:0:
287,159,64693,1,2,3:2:0:0:
114,209,64907,2,0,P|105:270|91:353,1,120,2|2,0:2|3:2,0:0:0:0:
175,370,65229,2,0,P|222:353|250:350,1,60,2|8,3:2|0:2,0:0:0:0:
321,359,65443,2,0,P|391:365|480:373,1,120,2|0,0:2|3:0,0:0:0:0:
490,294,65764,6,0,P|490:231|489:211,1,60,2|0,0:2|0:0,0:0:0:0:
396,176,65979,1,0,3:0:0:0:
425,169,66086,2,0,P|393:114|382:97,1,60,2|8,3:2|0:2,0:0:0:0:
284,113,66300,1,0,3:0:0:0:
306,93,66407,2,0,P|251:61|233:52,1,60,2|0,3:2|0:0,0:0:0:0:
131,89,66622,5,2,0:2:0:0:
118,147,66729,1,0,3:0:0:0:
106,205,66836,1,0,3:0:0:0:
94,263,66943,2,0,P|50:273|9:284,2,60,2|8|2,3:2|0:2|0:2,0:0:0:0:
169,311,67264,5,2,3:2:0:0:
256,336,67372,1,2,3:2:0:0:
340,304,67479,6,0,L|326:153,1,120,6|0,0:2|3:0,0:0:0:0:
421,27,67800,2,0,L|410:147,1,120,6|0,0:2|0:0,0:0:0:0:
241,198,68122,2,0,P|153:204|85:148,1,180,6|0,0:2|3:2,0:0:0:0:
71,59,68550,2,0,P|118:30|149:13,1,60,0|0,0:0|0:0,0:0:0:0:
207,55,68764,1,8,0:2:0:0:
236,48,68872,1,0,0:0:0:0:
265,41,68979,1,0,0:0:0:0:
294,34,69086,1,0,0:0:0:0:
323,27,69193,6,0,P|413:48|475:66,1,120,0|0,0:0|3:0,0:0:0:0:
449,149,69514,1,2,3:2:0:0:
443,177,69622,2,0,P|441:207|437:237,1,60,10|2,0:2|3:2,0:0:0:0:
371,298,69836,1,2,3:2:0:0:
286,266,69943,1,2,0:2:0:0:
127,351,70157,2,0,P|37:314|-20:302,1,120,2|0,3:2|3:0,0:0:0:0:
23,218,70479,2,0,P|35:177|45:143,1,60,10|0,0:2|0:0,0:0:0:0:
99,56,70693,2,0,P|107:85|116:114,1,60,2|0,3:2|3:0,0:0:0:0:
181,176,70907,5,2,0:2:0:0:
239,162,71014,1,2,0:2:0:0:
297,148,71122,1,2,3:2:0:0:
355,134,71229,1,2,3:2:0:0:
341,313,71443,1,2,3:2:0:0:
166,357,71657,2,0,P|155:232|86:51,1,300,2|8,0:2|0:2,0:0:0:0:
269,17,72407,1,2,3:2:0:0:
339,72,72514,1,2,3:2:0:0:
423,39,72622,6,0,P|476:26|515:20,2,60,2|0|0,0:2|0:0|3:0,0:0:0:0:
483,153,72943,2,0,P|454:145|424:139,2,60,2|8|0,3:2|0:2|3:0,0:0:0:0:
355,225,73264,2,0,P|279:238|272:240,1,60,2|0,3:2|0:0,0:0:0:0:
228,295,73479,5,2,0:2:0:0:
168,299,73586,1,0,3:0:0:0:
108,303,73693,1,0,3:0:0:0:
48,310,73800,2,0,P|39:234|41:211,1,60,2|8,3:2|0:2,0:0:0:0:
106,153,74014,1,0,0:0:0:0:
137,158,74122,5,2,3:2:0:0:
132,68,74229,1,0,3:0:0:0:
213,29,74336,6,0,P|323:0|369:-7,1,120,6|0,0:2|3:0,0:0:0:0:
411,34,74657,2,0,P|420:63|427:92,1,60,6|8,0:2|0:2,0:0:0:0:
352,170,74872,2,0,P|342:198|336:228,1,60,2|0,3:2|3:0,0:0:0:0:
254,336,75086,6,0,P|155:344|65:184,1,300,6|8,0:2|0:2,0:0:0:0:
174,44,75836,1,0,3:0:0:0:
249,137,76050,5,4,0:2:0:0:
