osu file format v14

[General]
AudioFilename: audio.mp3
AudioLeadIn: 0
PreviewTime: 514
Countdown: 1
SampleSet: Soft
StackLeniency: 0.7
Mode: 0
LetterboxInBreaks: 0
WidescreenStoryboard: 1

[Editor]
Bookmarks: 27960,41674,48532,65720
DistanceSpacing: 1.2
BeatDivisor: 4
GridSize: 32
TimelineZoom: 2

[Metadata]
Title:Rude Buster
TitleUnicode:Rude Buster
Artist:Toby Fox
ArtistUnicode:Toby Fox
Creator:Hobbes2
Version:Hard
Source:DELTARUNE
Tags:Zetera Undertale Battle Theme delta rune official soundtrack ost video game
BeatmapID:1847155
BeatmapSetID:881601

[Difficulty]
HPDrainRate:5
CircleSize:3.5
OverallDifficulty:6
ApproachRate:7
SliderMultiplier:1.5
SliderTickRate:1

[Events]
//Background and Video events
0,0,"DELTARUNE.jpg",0,0
//Break Periods
2,41964,47507
//Storyboard Layer 0 (Background)
//Storyboard Layer 1 (Fail)
//Storyboard Layer 2 (Pass)
//Storyboard Layer 3 (Foreground)
//Storyboard Sound Samples

[TimingPoints]
622,428.571428571429,4,2,0,70,1,0
41764,-100,4,2,0,50,0,0
48622,-100,4,2,0,70,0,0

[Colours]
Combo1 : 66,66,255
Combo2 : 255,121,255
Combo3 : 79,167,255
Combo4 : 91,255,133

[HitObjects]
34,54,622,6,0,P|104:29|178:31,1,150,6|8,0:2|0:2,0:0:0:0:
250,146,1372,2,0,L|243:269,1,112.5,2|0,0:2|3:2,0:0:0:0:
298,329,1907,2,0,P|344:327|382:324,1,75,8|0,0:2|3:2,0:0:0:0:
390,310,2229,1,0,3:2:0:0:
406,295,2336,6,0,B|394:244|394:244|413:148,1,150,2|8,0:2|0:2,0:0:0:0:
376,18,3086,2,0,P|339:50|277:66,1,112.5,2|0,0:2|3:2,0:0:0:0:
195,30,3622,2,0,P|144:27|102:24,1,75,8|0,0:2|3:0,0:0:0:0:
98,27,3943,1,0,3:0:0:0:
75,27,4050,6,0,L|61:189,1,150,2|8,0:2|0:2,0:0:0:0:
125,295,4800,2,0,P|181:264|234:242,1,112.5,2|0,0:2|3:2,0:0:0:0:
298,298,5336,1,8,0:2:0:0:
355,229,5550,1,0,3:2:0:0:
343,211,5657,1,0,3:2:0:0:
329,192,5764,6,0,P|326:154|328:117,1,75,6|0,0:2|3:2,0:0:0:0:
345,103,6086,2,0,P|347:65|345:28,1,75,6|0,0:2|3:2,0:0:0:0:
256,10,6514,2,0,L|135:4,1,112.5,6|0,0:2|3:2,0:0:0:0:
86,77,7050,1,8,0:2:0:0:
142,146,7264,1,0,3:2:0:0:
140,168,7372,1,0,3:2:0:0:
138,190,7479,5,2,0:2:0:0:
197,257,7693,2,0,P|255:237|304:223,1,112.5,0|0,3:2|3:2,0:0:0:0:
356,296,8229,2,0,P|414:316|463:330,1,112.5,2|0,0:2|3:2,0:0:0:0:
507,251,8764,2,0,P|497:204|489:170,1,75,8|0,0:2|3:2,0:0:0:0:
477,159,9086,1,0,3:2:0:0:
456,149,9193,5,2,0:2:0:0:
378,103,9407,2,0,P|350:169|335:232,1,112.5,0|0,3:2|3:2,0:0:0:0:
254,237,9943,2,0,P|238:183|215:131,1,112.5,2|0,0:2|3:2,0:0:0:0:
132,95,10479,1,8,0:2:0:0:
72,162,10693,1,0,3:2:0:0:
69,184,10800,1,0,3:2:0:0:
66,206,10907,5,2,0:2:0:0:
119,278,11122,2,0,L|238:286,1,112.5,0|0,3:2|3:2,0:0:0:0:
274,206,11657,2,0,L|393:198,1,112.5,2|0,0:2|3:2,0:0:0:0:
453,258,12193,2,0,P|437:314|430:342,1,75,8|0,0:2|3:2,0:0:0:0:
417,347,12514,1,0,3:2:0:0:
397,356,12622,6,0,P|330:353|294:354,1,75,6|0,0:2|3:2,0:0:0:0:
299,349,12943,2,0,P|232:352|196:351,1,75,6|0,0:2|3:2,0:0:0:0:
149,300,13372,2,0,P|168:235|86:141,1,187.5,6|8,0:2|0:2,0:0:0:0:
30,88,14122,1,0,3:2:0:0:
94,21,14336,5,4,0:2:0:0:
174,60,14550,2,0,P|267:61|307:46,1,112.5,2|2,3:2|3:2,0:0:0:0:
306,49,14979,1,2,3:2:0:0:
327,44,15086,2,0,L|405:34,1,75,2|2,0:2|3:2,0:0:0:0:
433,118,15514,2,0,L|511:128,1,75,2|2,3:2|0:2,0:0:0:0:
467,256,16050,6,0,P|416:232|361:221,1,112.5,2|2,0:2|3:2,0:0:0:0:
278,258,16586,1,2,3:2:0:0:
199,301,16800,1,2,0:2:0:0:
178,310,16907,2,0,P|121:296|74:292,1,75,2|2,0:2|3:2,0:0:0:0:
84,302,17229,2,0,L|79:178,1,112.5,2|0,3:2|3:0,0:0:0:0:
142,125,17764,5,2,0:0:0:0:
216,176,17979,2,0,P|272:267|285:295,1,112.5,2|2,3:2|3:2,0:0:0:0:
287,290,18408,1,2,3:2:0:0:
308,295,18515,2,0,L|386:305,1,75,2|2,0:2|3:2,0:0:0:0:
441,236,18943,2,0,L|431:158,1,75,2|2,3:2|0:2,0:0:0:0:
347,55,19479,6,0,P|271:42|260:39,1,75,6|0,0:2|3:0,0:0:0:0:
251,36,19800,1,6,0:2:0:0:
188,100,20014,1,2,3:2:0:0:
99,80,20229,2,0,P|85:156|67:244,1,150,6|0,0:2|3:0,0:0:0:0:
68,249,20764,2,0,P|120:267|157:288,1,75,8|0,0:2|3:0,0:0:0:0:
154,291,21086,1,0,3:0:0:0:
163,311,21193,5,2,0:0:0:0:
234,365,21407,2,0,P|305:354|372:344,1,112.5,2|2,3:2|3:2,0:0:0:0:
366,355,21836,1,2,3:2:0:0:
386,363,21943,2,0,P|399:317|413:280,1,75,2|2,0:2|3:2,0:0:0:0:
345,226,22372,2,0,P|332:180|318:143,1,75,2|2,3:2|0:2,0:0:0:0:
208,225,22907,6,0,L|88:205,1,112.5,2|2,0:2|3:2,0:0:0:0:
36,139,23443,1,2,3:2:0:0:
108,85,23657,1,2,0:2:0:0:
128,94,23764,2,0,P|197:93|236:82,1,75,2|2,0:2|3:2,0:0:0:0:
222,80,24086,2,0,P|285:81|341:84,1,112.5,2|0,3:2|3:0,0:0:0:0:
396,148,24622,5,2,0:0:0:0:
340,219,24836,2,0,L|357:365,1,112.5,2|2,3:2|3:2,0:0:0:0:
348,352,25264,1,2,3:2:0:0:
327,361,25372,2,0,L|246:355,1,75,2|2,0:2|3:2,0:0:0:0:
162,366,25800,2,0,L|81:360,1,75,2|2,3:2|0:2,0:0:0:0:
4,253,26336,6,0,P|10:189|21:146,1,75,6|0,0:2|3:0,0:0:0:0:
24,159,26657,1,6,0:2:0:0:
90,98,26872,1,2,3:2:0:0:
151,163,27086,2,0,P|219:154|308:116,1,150,6|0,0:2|3:0,0:0:0:0:
310,108,27622,2,0,P|336:155|349:190,1,75,8|0,0:2|3:0,0:0:0:0:
310,258,28050,5,4,0:2:0:0:
203,341,28372,2,0,L|145:332,4,37.5,2|10|2|2|2,0:2|3:2|0:2|0:2|3:2,0:0:0:0:
213,360,28907,2,0,P|275:353|317:353,1,75,12|0,3:2|3:0,0:0:0:0:
306,365,29229,2,0,P|362:361|418:355,1,112.5,12|0,0:2|0:0,0:0:0:0:
471,282,29764,5,4,0:2:0:0:
400,166,30086,2,0,L|458:157,4,37.5,2|10|2|2|2,0:2|3:2|0:2|0:2|3:2,0:0:0:0:
390,185,30621,2,0,P|328:178|286:178,1,75,12|0,0:2|3:0,0:0:0:0:
295,187,30943,2,0,P|291:243|285:299,1,112.5,12|0,0:2|3:0,0:0:0:0:
211,351,31479,5,4,0:2:0:0:
94,283,31800,2,0,L|75:325,4,37.5,2|10|2|2|2,0:2|3:2|0:2|0:2|3:2,0:0:0:0:
87,261,32336,2,0,P|72:189|67:169,1,75,12|0,0:2|3:0,0:0:0:0:
60,167,32657,2,0,P|98:152|173:125,1,112.5,12|2,0:2|0:2,0:0:0:0:
239,179,33193,6,0,P|276:179|313:181,1,75,6|0,0:2|3:0,0:0:0:0:
329,197,33514,2,0,L|338:285,1,75,6|2,0:2|3:2,0:0:0:0:
411,322,33943,2,0,P|431:269|484:132,1,187.5,6|8,3:2|0:2,0:0:0:0:
324,52,34907,5,4,0:2:0:0:
224,143,35229,2,0,P|219:109|220:83,4,37.5,2|10|2|2|2,0:2|3:2|0:2|0:2|3:2,0:0:0:0:
233,163,35764,2,0,P|168:159|132:156,1,75,12|0,0:2|3:0,0:0:0:0:
146,177,36086,2,0,P|81:181|45:184,1,75,12|8,0:2|0:2,0:0:0:0:
52,194,36407,1,0,3:0:0:0:
5,116,36622,5,4,0:2:0:0:
116,39,36943,2,0,P|160:26|178:21,4,37.5,2|10|2|2|2,0:2|3:2|0:2|0:2|3:2,0:0:0:0:
108,60,37479,2,0,P|119:105|130:154,1,75,12|0,0:2|3:0,0:0:0:0:
143,145,37800,2,0,L|137:232,1,75,12|8,0:2|0:2,0:0:0:0:
128,240,38122,1,0,3:0:0:0:
183,310,38336,5,4,0:2:0:0:
304,367,38657,2,0,L|351:359,4,37.5,2|10|2|2|2,0:2|3:2|0:2|0:2|3:2,0:0:0:0:
277,369,39193,2,0,P|289:319|303:268,1,75,12|0,0:2|3:0,0:0:0:0:
306,272,39514,2,0,P|294:222|280:171,1,75,12|8,0:2|0:2,0:0:0:0:
274,176,39836,1,0,3:0:0:0:
349,126,40050,6,0,P|407:140|448:151,1,75,6|0,0:2|3:0,0:0:0:0:
428,165,40372,2,0,P|486:151|527:140,1,75,6|2,0:2|3:2,0:0:0:0:
495,57,40800,2,0,P|436:24|357:15,1,112.5,6|0,3:2|3:0,0:0:0:0:
309,49,41336,1,10,0:2:0:0:
223,22,41550,1,2,3:2:0:0:
205,35,41657,1,0,3:0:0:0:
187,49,41764,5,6,0:2:0:0:
68,116,48407,5,2,3:2:0:0:
73,137,48514,1,2,3:2:0:0:
76,159,48622,1,4,0:2:0:0:
120,236,48836,2,0,P|174:226|214:222,1,75,0|8,3:0|3:2,0:0:0:0:
282,205,49264,5,2,3:2:0:0:
286,227,49372,1,2,0:2:0:0:
289,249,49479,1,2,0:2:0:0:
350,314,49693,2,0,P|398:306|431:302,1,75,0|8,3:0|0:2,0:0:0:0:
469,224,50122,5,2,3:2:0:0:
473,201,50229,1,2,3:2:0:0:
476,178,50336,2,0,P|465:113|460:86,1,75,2|2,0:2|3:2,0:0:0:0:
448,86,50657,2,0,P|411:85|374:87,1,75,2|2,3:2|3:2,0:0:0:0:
295,131,51086,1,2,0:2:0:0:
233,65,51300,1,2,3:2:0:0:
158,114,51514,2,0,P|153:168|149:213,1,75,2|2,3:2|0:2,0:0:0:0:
152,278,51943,6,0,P|85:336|1:304,1,187.5,2|8,3:2|0:2,0:0:0:0:
8,214,52693,1,2,3:2:0:0:
25,125,52907,2,0,P|20:93|17:78,2,37.5,2|2|2,0:2|3:2|3:2,0:0:0:0:
115,125,53336,2,0,P|171:115|217:108,1,75,8|2,0:2|3:2,0:0:0:0:
207,124,53657,1,2,3:2:0:0:
226,134,53764,6,0,P|300:142|349:160,1,112.5,4|4,0:0|0:0,0:0:0:0:
403,320,54514,2,0,P|453:301|485:296,2,75,6|2|2,0:2|3:2|3:2,0:0:0:0:
330,373,55157,2,0,P|293:365|256:356,1,75,2|0,3:2|3:0,0:0:0:0:
235,349,55479,6,0,P|175:324|143:317,1,75,2|0,0:2|3:0,0:0:0:0:
143,321,55800,2,0,P|123:352|112:372,4,37.5,2|8|0|2|0,3:2|0:0|3:0|3:2|0:0,0:0:0:0:
138,298,56336,2,0,P|131:239|130:198,1,75,2|2,0:2|3:2,0:0:0:0:
198,165,56764,2,0,P|205:106|206:65,1,75,10|2,0:2|3:2,0:0:0:0:
220,73,57086,1,2,3:2:0:0:
234,56,57193,6,0,P|294:81|326:88,1,75,2|0,0:2|3:0,0:0:0:0:
326,84,57514,2,0,P|346:53|357:33,4,37.5,2|8|0|2|0,3:2|0:2|3:0|3:2|0:0,0:0:0:0:
331,107,58050,2,0,P|338:166|339:207,1,75,2|2,0:2|3:2,0:0:0:0:
402,245,58479,2,0,P|395:304|394:345,1,75,8|2,0:2|3:2,0:0:0:0:
381,337,58800,1,2,3:2:0:0:
358,332,58907,6,0,P|321:323|284:317,1,75,2|2,0:2|3:2,0:0:0:0:
198,346,59336,2,0,P|154:362|149:365,2,37.5,8|2|2,0:2|3:2|3:2,0:0:0:0:
198,323,59657,2,0,L|181:213,1,75,2|2,0:2|3:2,0:0:0:0:
172,231,59979,1,2,3:2:0:0:
201,146,60193,1,8,0:2:0:0:
287,169,60407,1,2,3:2:0:0:
316,84,60622,6,0,P|381:72|407:68,1,75,6|0,0:2|3:0,0:0:0:0:
408,82,60943,2,0,P|414:99|425:166,1,75,6|2,0:2|3:2,0:0:0:0:
373,228,61372,2,0,P|298:204|187:261,1,187.5,6|8,0:2|0:2,0:0:0:0:
153,320,62122,1,0,3:0:0:0:
70,283,62336,6,0,L|56:188,1,75,2|0,0:0|3:0,0:0:0:0:
120,143,62764,2,0,L|134:48,1,75,8|2,0:2|3:2,0:0:0:0:
211,28,63193,2,0,P|292:17|304:18,1,75,2|2,0:2|3:2,0:0:0:0:
302,30,63514,2,0,L|299:149,1,112.5,2|2,3:2|3:2,0:0:0:0:
307,163,63943,1,2,3:2:0:0:
314,184,64050,5,0,0:0:0:0:
402,167,64264,1,0,3:0:0:0:
447,244,64479,2,0,P|421:309|410:340,1,75,8|2,0:2|3:2,0:0:0:0:
344,362,64907,2,0,P|284:355|264:355,1,75,2|2,0:2|3:2,0:0:0:0:
247,361,65229,1,2,3:2:0:0:
175,305,65443,2,0,L|163:215,1,75,2|0,0:2|3:0,0:0:0:0:
149,214,65764,6,0,L|161:124,1,75,2|0,0:2|3:0,0:0:0:0:
166,118,66086,2,0,P|99:108|74:100,1,75,2|0,3:2|3:0,0:0:0:0:
71,98,66407,1,2,3:2:0:0:
128,28,66622,2,0,P|101:3|90:-2,2,37.5,2|0|0,0:2|3:0|3:0,0:0:0:0:
149,21,66943,2,0,P|190:15|224:12,1,75,2|2,3:2|0:2,0:0:0:0:
243,22,67264,1,2,3:2:0:0:
299,92,67479,6,0,P|316:138|332:184,1,75,6|0,0:2|3:0,0:0:0:0:
321,184,67800,2,0,P|310:245|303:279,1,75,6|0,0:2|0:0,0:0:0:0:
307,280,68122,2,0,P|399:325|459:241,1,225,6|8,0:2|3:2,0:0:0:0:
424,157,68979,1,0,3:0:0:0:
361,90,69193,6,0,P|324:92|288:100,1,75,2|0,0:0|3:0,0:0:0:0:
271,115,69514,1,2,3:2:0:0:
257,132,69622,2,0,L|196:130,3,37.5,10|2|2|2,0:2|3:2|3:2|0:2,0:0:0:0:
138,92,70157,2,0,P|79:84|16:78,1,112.5,2|10,3:2|0:2,0:0:0:0:
20,168,70693,1,2,3:2:0:0:
26,257,70907,6,0,P|6:287|-2:303,2,37.5,2|2|2,0:2|0:2|3:2,0:0:0:0:
47,251,71229,2,0,P|104:248|153:245,1,75,2|2,3:2|3:2,0:0:0:0:
183,312,71657,2,0,B|232:335|232:335|351:269,1,187.5,2|8,0:2|0:2,0:0:0:0:
355,180,72407,1,2,3:2:0:0:
423,121,72622,6,0,P|456:126|480:134,2,37.5,2|0|0,0:2|0:0|3:0,0:0:0:0:
407,105,72943,2,0,P|343:67|321:58,1,75,2|0,3:2|3:0,0:0:0:0:
320,66,73264,1,2,3:2:0:0:
233,40,73479,2,0,P|238:7|246:-17,2,37.5,2|0|0,0:2|3:0|3:0,0:0:0:0:
217,56,73800,2,0,P|179:120|170:142,1,75,2|0,3:2|0:0,0:0:0:0:
178,143,74121,1,2,3:2:0:0:
149,229,74336,6,0,P|113:221|76:214,1,75,6|0,0:2|3:0,0:0:0:0:
56,225,74657,1,6,0:2:0:0:
23,309,74872,1,2,3:2:0:0:
97,358,75086,2,0,P|181:350|288:354,1,187.5,6|8,0:2|0:2,0:0:0:0:
367,318,75836,1,0,3:0:0:0:
335,233,76050,5,4,0:2:0:0:
