osu file format v14

[General]
AudioFilename: audio.mp3
AudioLeadIn: 0
PreviewTime: 514
Countdown: 1
SampleSet: Soft
StackLeniency: 0.7
Mode: 0
LetterboxInBreaks: 0
WidescreenStoryboard: 0

[Editor]
Bookmarks: 27960,41674,48532
DistanceSpacing: 1.2
BeatDivisor: 4
GridSize: 32
TimelineZoom: 2.5

[Metadata]
Title:Rude Buster
TitleUnicode:Rude Buster
Artist:Toby Fox
ArtistUnicode:Toby Fox
Creator:Hobbes2
Version:Extra
Source:DELTARUNE
Tags:Zetera Undertale Battle Theme delta rune official soundtrack ost video game
BeatmapID:1843231
BeatmapSetID:881601

[Difficulty]
HPDrainRate:4
CircleSize:3.7
OverallDifficulty:8.3
ApproachRate:9.2
SliderMultiplier:3
SliderTickRate:1

[Events]
//Background and Video events
0,0,"DELTARUNE.jpg",0,0
//Break Periods
//Storyboard Layer 0 (Background)
//Storyboard Layer 1 (Fail)
//Storyboard Layer 2 (Pass)
//Storyboard Layer 3 (Foreground)
//Storyboard Sound Samples

[TimingPoints]
622,428.571428571429,4,2,0,70,1,0
41764,-125,4,2,0,50,0,0
48622,-100,4,2,0,70,0,0

[Colours]
Combo1 : 66,66,255
Combo2 : 255,121,255
Combo3 : 79,167,255
Combo4 : 91,255,133

[HitObjects]
201,37,622,6,0,P|174:107|163:181,1,150,6|0,0:2|3:0,0:0:0:0:
196,256,943,1,0,3:2:0:0:
336,145,1050,1,8,0:2:0:0:
258,113,1157,2,0,P|248:149|242:186,1,75,0|0,3:2|3:2,0:0:0:0:
446,280,1372,6,0,P|388:234|315:236,1,150,2|0,0:2|3:0,0:0:0:0:
261,298,1693,1,0,3:2:0:0:
286,376,1800,1,0,3:2:0:0:
163,365,1907,2,0,P|101:356|83:355,1,75,8|0,0:2|0:0,0:0:0:0:
17,212,2122,2,0,P|79:203|97:202,1,75,0|0,3:2|3:2,0:0:0:0:
219,25,2335,6,0,B|189:67|189:67|209:163,1,150,2|0,0:2|3:2,0:0:0:0:
225,196,2657,1,0,3:2:0:0:
372,133,2764,1,8,0:2:0:0:
353,101,2872,2,0,P|286:90|255:88,1,75,0|0,3:2|3:2,0:0:0:0:
333,233,3086,6,0,P|404:208|479:198,1,150,2|0,0:2|3:2,0:0:0:0:
492,233,3407,1,0,3:2:0:0:
500,269,3514,1,0,3:2:0:0:
461,349,3622,2,0,L|373:370,1,75,8|0,0:2|0:0,0:0:0:0:
250,297,3836,2,0,L|323:315,1,75,0|0,3:0|3:0,0:0:0:0:
171,377,4049,6,0,L|156:227,1,150,2|0,0:2|3:0,0:0:0:0:
96,169,4372,1,0,3:2:0:0:
286,125,4479,1,8,0:2:0:0:
249,199,4586,2,0,P|221:173|205:140,1,75,0|0,3:2|3:2,0:0:0:0:
408,26,4800,6,0,P|428:97|436:172,1,150,2|0,0:2|3:0,0:0:0:0:
382,235,5122,1,0,3:2:0:0:
424,305,5229,1,0,3:2:0:0:
310,357,5336,2,0,P|237:336|220:329,1,75,8|0,0:2|0:0,0:0:0:0:
192,147,5550,2,0,P|265:168|282:175,1,75,0|0,3:2|3:2,0:0:0:0:
70,197,5764,6,0,P|42:130|73:64,1,150,6|0,0:2|3:2,0:0:0:0:
136,249,6086,2,0,P|69:280|3:246,1,150,6|0,0:2|3:0,0:0:0:0:
70,197,6407,1,0,3:2:0:0:
231,363,6514,2,0,B|324:375|324:375|366:339,1,150,6|0,0:2|3:2,0:0:0:0:
333,267,6836,1,0,3:2:0:0:
369,196,6943,1,0,3:2:0:0:
448,182,7050,5,8,0:2:0:0:
455,203,7157,1,0,3:0:0:0:
487,278,7264,1,0,3:2:0:0:
480,298,7371,1,0,3:2:0:0:
387,334,7479,6,0,P|316:309|243:290,1,150,2|0,0:2|3:0,0:0:0:0:
179,342,7800,1,0,3:2:0:0:
49,172,7907,1,8,0:2:0:0:
125,202,8014,2,0,P|129:239|128:277,1,75,0|0,3:2|3:2,0:0:0:0:
235,119,8229,6,0,P|306:93|370:54,1,150,2|0,0:2|3:0,0:0:0:0:
432,107,8550,1,0,3:2:0:0:
500,61,8657,1,0,3:2:0:0:
508,176,8764,2,0,P|490:210|477:245,1,75,8|0,0:2|0:0,0:0:0:0:
372,379,8979,2,0,P|358:343|341:310,1,75,0|0,3:2|3:2,0:0:0:0:
204,103,9193,6,0,B|174:145|174:145|194:241,1,150,2|0,0:2|3:0,0:0:0:0:
223,264,9514,1,0,3:2:0:0:
71,336,9622,1,8,0:2:0:0:
87,302,9729,2,0,P|125:303|159:318,1,75,0|0,3:2|3:2,0:0:0:0:
300,384,9943,6,0,P|372:361|436:323,1,150,2|0,0:2|3:2,0:0:0:0:
448,288,10264,1,0,3:2:0:0:
441,250,10372,1,0,3:2:0:0:
486,167,10479,2,0,B|496:125|496:125|483:95,1,75,8|0,0:2|0:0,0:0:0:0:
398,12,10693,2,0,B|388:54|388:54|401:84,1,75,0|0,3:2|3:2,0:0:0:0:
202,100,10907,6,0,P|267:138|320:191,1,150,2|0,0:2|3:2,0:0:0:0:
290,269,11229,1,0,3:2:0:0:
455,328,11336,1,8,0:2:0:0:
388,376,11443,2,0,L|313:369,1,75,0|0,3:2|3:2,0:0:0:0:
111,328,11657,6,0,P|46:270|68:189,1,150,2|0,0:2|3:2,0:0:0:0:
105,150,11979,1,0,3:2:0:0:
185,133,12086,1,0,3:2:0:0:
93,46,12193,2,0,P|57:37|20:34,1,75,8|0,0:2|0:0,0:0:0:0:
204,154,12407,2,0,P|240:144|277:141,1,75,0|0,3:2|3:2,0:0:0:0:
401,338,12622,6,0,L|419:189,1,150,6|0,0:2|3:2,0:0:0:0:
478,369,12943,2,0,L|496:220,1,150,6|0,0:2|3:0,0:0:0:0:
486,138,13264,1,0,3:2:0:0:
328,122,13372,2,0,P|253:120|180:104,1,150,6|0,0:2|3:2,0:0:0:0:
161,28,13693,1,0,3:2:0:0:
87,0,13800,1,0,3:2:0:0:
22,46,13907,5,8,0:2:0:0:
24,68,14014,1,0,3:2:0:0:
79,131,14122,1,0,3:2:0:0:
76,153,14229,1,0,3:2:0:0:
10,225,14336,6,0,B|55:263|55:263|197:224,1,150,4|2,0:2|3:2,0:0:0:0:
157,213,14657,1,2,3:2:0:0:
195,178,14764,1,10,0:2:0:0:
269,163,14872,1,2,3:2:0:0:
351,215,14979,1,2,3:2:0:0:
358,334,15086,6,0,P|313:348|278:352,1,75,2|0,0:2|0:0,0:0:0:0:
207,142,15300,2,0,P|179:116|156:87,1,75,2|0,3:2|3:2,0:0:0:0:
257,259,15514,2,0,P|211:247|179:233,1,75,2|8,3:2|0:2,0:0:0:0:
445,369,15729,2,0,P|472:287|501:225,1,150,2|0,0:2|3:2,0:0:0:0:
332,74,16050,6,0,P|362:142|385:213,1,150,2|0,0:2|3:2,0:0:0:0:
325,270,16372,2,0,P|254:277|213:279,1,75,2|8,3:2|0:2,0:0:0:0:
173,307,16586,2,0,P|169:344|165:381,1,75,2|0,3:2|3:0,0:0:0:0:
71,232,16800,1,2,0:2:0:0:
126,171,16907,2,0,P|187:160|210:161,1,75,2|0,0:2|3:0,0:0:0:0:
2,6,17122,1,2,3:2:0:0:
57,67,17229,2,0,P|118:78|221:72,1,150,2|0,3:2|0:0,0:0:0:0:
329,20,17550,1,0,3:0:0:0:
311,53,17657,1,0,3:0:0:0:
305,90,17764,6,0,L|320:271,1,150,2|2,0:0|3:2,0:0:0:0:
297,262,18086,1,2,3:2:0:0:
251,288,18193,1,10,0:2:0:0:
176,283,18300,1,2,3:2:0:0:
112,209,18407,1,2,3:2:0:0:
142,93,18514,6,0,P|196:71|252:72,1,75,2|0,0:2|0:0,0:0:0:0:
357,256,18729,2,0,P|388:276|412:304,1,75,2|0,3:2|3:0,0:0:0:0:
271,146,18943,2,0,P|309:148|344:160,1,75,2|8,3:2|0:2,0:0:0:0:
15,149,19157,2,0,P|41:78|77:12,1,150,2|0,0:2|3:0,0:0:0:0:
146,346,19479,6,0,B|197:371|197:371|292:329,1,150,6|0,0:2|3:0,0:0:0:0:
290,103,19800,2,0,B|269:142|269:142|278:171,1,75,6|8,0:2|0:2,0:0:0:0:
418,266,20014,2,0,B|439:227|439:227|429:197,1,75,2|0,3:2|3:0,0:0:0:0:
218,225,20229,2,0,P|297:250|358:196,1,150,6|0,0:2|3:0,0:0:0:0:
371,137,20550,1,0,3:0:0:0:
339,63,20657,1,0,3:0:0:0:
267,26,20764,5,8,0:2:0:0:
248,37,20872,1,0,3:0:0:0:
186,91,20979,1,0,3:0:0:0:
166,80,21085,1,0,3:0:0:0:
67,22,21193,6,0,P|85:119|82:199,1,150,2|2,0:0|3:2,0:0:0:0:
79,199,21514,1,2,3:2:0:0:
84,251,21622,1,10,0:2:0:0:
126,313,21729,1,2,3:2:0:0:
219,341,21836,1,2,3:2:0:0:
320,277,21943,6,0,P|309:193|301:169,1,75,2|0,0:2|0:0,0:0:0:0:
424,33,22157,2,0,P|391:16|356:4,1,75,2|0,3:2|3:0,0:0:0:0:
404,169,22372,2,0,P|384:138|360:109,1,75,2|8,3:2|0:2,0:0:0:0:
154,372,22586,2,0,P|199:312|223:241,1,150,2|0,0:2|3:0,0:0:0:0:
69,42,22907,6,0,P|93:112|137:172,1,150,2|0,0:2|3:0,0:0:0:0:
235,63,23229,2,0,P|218:97|212:134,1,75,2|8,3:2|0:2,0:0:0:0:
289,161,23443,2,0,P|305:127|312:90,1,75,2|0,3:2|3:0,0:0:0:0:
175,247,23657,1,2,0:2:0:0:
224,312,23764,2,0,L|330:291,1,75,2|0,0:2|3:0,0:0:0:0:
137,167,23979,1,2,3:2:0:0:
94,232,24086,2,0,P|92:317|101:389,1,150,2|0,3:2|0:0,0:0:0:0:
201,350,24407,1,0,3:0:0:0:
239,350,24514,1,0,3:0:0:0:
277,350,24622,6,0,P|383:325|456:308,1,150,2|2,0:0|3:2,0:0:0:0:
401,294,24943,1,2,3:2:0:0:
371,250,25050,1,10,0:2:0:0:
358,176,25157,1,2,3:2:0:0:
395,86,25264,1,2,3:2:0:0:
501,27,25372,6,0,P|485:106|480:133,1,75,2|0,0:2|0:0,0:0:0:0:
267,138,25586,2,0,P|231:149|195:161,1,75,2|0,3:2|3:0,0:0:0:0:
399,114,25800,2,0,P|373:141|349:170,1,75,2|8,3:2|0:2,0:0:0:0:
10,126,26014,2,0,P|75:162|124:218,1,150,2|0,0:2|3:0,0:0:0:0:
347,267,26336,6,0,B|296:242|296:242|201:284,1,150,6|0,0:2|3:0,0:0:0:0:
422,305,26657,2,0,B|435:264|435:264|422:234,1,75,6|8,0:2|0:2,0:0:0:0:
283,89,26872,2,0,B|270:130|270:130|282:159,1,75,2|0,3:2|3:0,0:0:0:0:
487,187,27086,2,0,P|424:153|358:184,1,150,6|0,0:2|3:0,0:0:0:0:
328,259,27406,1,0,3:0:0:0:
257,299,27513,1,0,3:0:0:0:
177,286,27622,5,8,0:2:0:0:
172,264,27729,1,0,3:0:0:0:
92,343,27836,1,0,3:0:0:0:
97,320,27943,1,0,3:0:0:0:
15,302,28050,1,4,0:2:0:0:
79,121,28372,5,2,0:2:0:0:
140,66,28479,1,10,3:2:0:0:
207,113,28586,1,2,0:2:0:0:
268,58,28693,1,2,0:2:0:0:
335,105,28800,1,2,3:2:0:0:
455,57,28907,6,0,P|419:121|418:196,1,150,12|0,3:2|3:0,0:0:0:0:
450,355,29229,2,0,P|411:291|348:254,1,150,12|8,0:2|0:0,0:0:0:0:
255,186,29550,2,0,P|292:184|328:173,1,75,0|0,0:0|0:0,0:0:0:0:
343,92,29764,1,4,0:2:0:0:
147,287,30086,5,2,0:2:0:0:
90,226,30193,1,10,3:2:0:0:
149,169,30300,1,2,0:2:0:0:
92,108,30407,1,2,0:2:0:0:
151,51,30514,1,2,3:2:0:0:
49,13,30622,6,0,P|175:15|241:3,1,150,12|0,0:2|3:0,0:0:0:0:
341,162,30943,2,0,P|307:98|236:84,1,150,12|8,0:2|0:0,0:0:0:0:
301,244,31264,2,0,P|339:245|376:244,1,75,0|0,3:0|3:0,0:0:0:0:
435,185,31479,1,4,0:2:0:0:
236,352,31800,5,2,0:2:0:0:
159,320,31907,1,10,3:2:0:0:
200,248,32014,1,2,0:2:0:0:
123,216,32121,1,2,0:2:0:0:
164,144,32229,1,2,3:2:0:0:
90,70,32336,6,0,B|138:34|138:34|225:55,1,150,12|0,0:2|3:0,0:0:0:0:
400,141,32657,2,0,B|352:105|352:105|265:127,1,150,12|8,0:2|0:2,0:0:0:0:
197,175,32979,2,0,P|186:211|186:248,1,75,2|0,0:2|0:0,0:0:0:0:
356,343,33193,6,0,P|348:268|334:194,1,150,6|0,0:2|3:0,0:0:0:0:
406,66,33514,2,0,P|402:103|399:140,1,75,6|8,0:2|0:2,0:0:0:0:
502,242,33729,2,0,P|499:204|495:167,1,75,2|0,3:2|3:0,0:0:0:0:
330,29,33943,6,0,P|255:24|180:25,1,150,6|0,3:2|3:0,0:0:0:0:
108,65,34264,1,0,3:0:0:0:
87,97,34372,1,0,3:0:0:0:
8,71,34479,1,8,0:2:0:0:
60,227,34693,1,0,3:0:0:0:
68,263,34800,1,0,3:0:0:0:
73,300,34907,1,4,0:2:0:0:
337,355,35229,5,2,0:2:0:0:
408,314,35336,1,10,3:2:0:0:
339,268,35443,1,2,0:2:0:0:
410,227,35550,1,2,0:2:0:0:
341,181,35657,1,2,3:2:0:0:
434,98,35764,6,0,P|359:93|287:71,1,150,12|0,0:2|3:0,0:0:0:0:
166,264,36086,2,8,P|208:202|263:151,1,150,12|8,0:2|0:2,0:0:0:0:
180,18,36407,2,0,P|200:50|210:86,1,75,0|0,3:0|0:0,0:0:0:0:
142,135,36622,1,4,0:2:0:0:
34,291,36943,5,2,0:2:0:0:
97,343,37050,1,10,3:2:0:0:
122,264,37157,1,2,0:2:0:0:
185,316,37264,1,2,0:2:0:0:
210,237,37372,1,0,0:0:0:0:
305,344,37479,6,0,P|303:218|315:152,1,150,12|0,0:2|0:0,0:0:0:0:
156,52,37800,2,0,P|220:86|234:157,1,150,12|8,0:2|0:2,0:0:0:0:
101,237,38122,2,0,P|133:217|170:211,1,75,0|0,3:0|0:0,0:0:0:0:
218,277,38336,1,4,0:2:0:0:
409,363,38657,5,2,0:2:0:0:
442,287,38764,1,10,3:2:0:0:
359,297,38872,1,2,0:2:0:0:
392,221,38979,1,2,0:2:0:0:
309,231,39086,1,2,3:2:0:0:
446,137,39193,6,0,P|441:211|441:286,1,150,12|0,0:2|3:0,0:0:0:0:
297,365,39514,2,0,P|222:360|147:360,1,150,12|8,0:2|0:2,0:0:0:0:
85,304,39836,2,0,P|75:221|71:184,1,75,0|0,3:0|3:0,0:0:0:0:
171,75,40050,6,0,B|196:126|196:126|154:221,1,150,6|0,0:2|3:0,0:0:0:0:
133,0,40371,2,0,B|174:-13|174:-13|204:0,1,75,6|8,0:2|0:2,0:0:0:0:
349,139,40586,2,0,B|308:152|308:152|279:140,1,75,2|0,3:2|3:0,0:0:0:0:
423,43,40800,2,0,P|433:169|440:219,1,150,6|0,3:2|3:0,0:0:0:0:
491,254,41122,1,0,3:0:0:0:
507,334,41229,1,0,3:0:0:0:
432,369,41336,2,0,P|367:371|321:374,1,75,10|0,0:2|3:0,0:0:0:0:
226,280,41550,2,0,P|291:282|337:285,1,75,2|0,3:2|3:0,0:0:0:0:
133,364,41764,6,0,P|126:281|116:227,1,120,6|0,0:2|3:0,0:0:0:0:
93,211,42086,1,0,3:0:0:0:
57,189,42193,1,8,0:2:0:0:
10,126,42300,1,0,3:0:0:0:
46,104,42407,1,0,3:0:0:0:
93,41,42514,6,0,L|243:26,1,120,2|0,0:2|3:0,0:0:0:0:
235,64,42836,1,0,3:0:0:0:
267,90,42943,1,0,3:0:0:0:
347,41,43050,2,0,L|466:52,1,120,8|0,0:2|3:0,0:0:0:0:
205,311,43479,6,0,P|178:245|165:186,1,120,2|0,0:2|3:0,0:0:0:0:
186,160,43800,1,0,3:0:0:0:
207,124,43907,1,8,0:2:0:0:
234,51,44014,1,0,3:0:0:0:
218,12,44121,1,0,3:0:0:0:
140,24,44229,6,0,P|116:79|101:137,1,120,2|8,0:2|3:2,0:0:0:0:
87,176,44550,1,0,3:0:0:0:
83,217,44657,1,0,3:0:0:0:
97,293,44764,2,0,P|151:303|181:301,1,60,8|8,0:2|0:2,0:0:0:0:
248,362,44979,2,0,P|219:370|190:373,1,60,8|0,0:2|0:0,0:0:0:0:
340,376,45193,6,0,B|325:335|325:335|343:260,1,120,2|0,0:2|3:0,0:0:0:0:
376,234,45514,1,0,3:0:0:0:
417,228,45622,1,8,0:2:0:0:
444,155,45729,1,0,3:0:0:0:
403,149,45835,1,0,3:0:0:0:
344,98,45943,6,0,P|266:88|170:88,1,120,2|0,0:2|3:0,0:0:0:0:
197,118,46264,1,0,3:0:0:0:
169,150,46372,1,0,3:0:0:0:
119,74,46479,2,0,P|59:78|-1:86,1,120,8|0,0:2|0:0,0:0:0:0:
293,294,46907,6,0,P|361:322|422:289,1,120,6|8,0:2|0:2,0:0:0:0:
242,229,47229,2,0,P|214:297|240:361,1,120,6|0,0:2|3:0,0:0:0:0:
255,363,47550,1,0,3:0:0:0:
355,243,47657,2,0,L|346:109,1,120,14|8,0:2|0:2,0:0:0:0:
276,87,47979,2,0,P|284:39|288:3,1,60,0|0,3:0|0:0,0:0:0:0:
362,18,48193,1,8,0:2:0:0:
147,61,48407,5,2,3:2:0:0:
118,133,48514,1,2,3:2:0:0:
85,205,48622,6,0,P|62:303|52:396,1,150,4|0,0:2|0:0,0:0:0:0:
168,297,48943,2,0,P|149:329|136:365,2,75,0|8|0,3:0|0:2|3:0,0:0:0:0:
328,308,49264,1,2,3:2:0:0:
242,261,49372,1,2,0:2:0:0:
332,225,49479,6,0,P|442:238|512:248,1,150,2|0,0:2|3:0,0:0:0:0:
490,161,49800,2,0,P|504:89|509:53,1,75,0|8,3:0|0:2,0:0:0:0:
342,51,50122,1,2,3:2:0:0:
288,150,50229,1,2,3:2:0:0:
234,50,50336,6,0,B|190:20|190:20|67:64,1,150,2|2,0:2|3:2,0:0:0:0:
46,116,50657,1,2,3:2:0:0:
43,198,50764,2,0,L|57:242,2,37.5,10|2|2,0:2|0:2|3:2,0:0:0:0:
219,225,51086,6,0,P|208:260|207:298,1,75,2|0,0:2|0:0,0:0:0:0:
288,313,51300,2,0,P|299:277|300:239,1,75,2|0,3:2|3:0,0:0:0:0:
129,286,51514,2,0,B|122:325|122:325|144:363,1,75,2|8,3:2|0:2,0:0:0:0:
378,252,51729,2,0,B|385:213|385:213|363:175,1,75,2|0,0:2|3:0,0:0:0:0:
182,193,51943,6,0,P|54:173|25:77,1,225,2|0,3:2|3:0,0:0:0:0:
66,23,52372,1,0,3:0:0:0:
185,80,52479,2,0,P|221:73|258:66,1,75,8|0,0:2|3:0,0:0:0:0:
346,5,52693,2,0,P|382:12|419:18,1,75,2|0,3:2|0:0,0:0:0:0:
477,76,52907,1,2,0:2:0:0:
415,130,53014,2,0,P|410:158|411:184,2,37.5,2|2|2,3:2|0:2|3:2,0:0:0:0:
480,315,53336,6,0,P|413:281|340:264,1,150,8|0,0:2|0:0,0:0:0:0:
274,314,53657,1,2,3:2:0:0:
168,365,53764,2,0,P|193:269|161:191,1,150,4|0,0:0|3:0,0:0:0:0:
21,363,54086,2,0,P|88:335|111:266,1,150,4|0,0:0|0:0,0:0:0:0:
29,277,54407,1,0,3:0:0:0:
119,165,54514,2,0,P|193:173|266:190,1,150,6|2,0:2|3:2,0:0:0:0:
310,260,54836,1,0,3:0:0:0:
395,195,54943,2,0,B|405:158|405:158|389:97,1,75,2|8,3:2|0:2,0:0:0:0:
312,28,55157,2,0,P|237:36|164:53,1,150,2|0,3:2|3:0,0:0:0:0:
69,95,55479,5,2,0:2:0:0:
57,130,55586,1,0,0:0:0:0:
93,124,55693,1,0,3:0:0:0:
20,98,55800,5,2,3:2:0:0:
35,175,55907,1,8,0:0:0:0:
110,199,56014,1,0,3:0:0:0:
167,146,56121,1,2,3:2:0:0:
149,69,56228,1,0,0:0:0:0:
77,44,56336,6,0,P|39:44|2:51,1,75,2|2,0:2|3:2,0:0:0:0:
244,14,56550,2,0,P|281:14|318:21,1,75,2|2,3:2|3:2,0:0:0:0:
421,130,56764,2,0,B|432:173|432:173|423:202,1,75,10|2,0:2|0:2,0:0:0:0:
273,293,56979,2,0,B|262:250|262:250|270:220,1,75,2|2,3:2|3:2,0:0:0:0:
408,237,57193,5,2,0:2:0:0:
420,272,57300,1,0,0:0:0:0:
384,266,57407,1,0,3:0:0:0:
457,240,57514,5,2,3:2:0:0:
442,317,57621,1,8,0:2:0:0:
367,341,57728,1,0,3:0:0:0:
310,288,57835,1,2,3:2:0:0:
328,211,57942,1,0,0:0:0:0:
403,187,58050,6,0,L|479:205,1,75,2|2,0:2|3:2,0:0:0:0:
410,35,58264,2,0,L|334:53,1,75,2|2,3:2|3:2,0:0:0:0:
227,164,58479,2,0,P|219:200|222:237,1,75,8|2,0:2|0:2,0:0:0:0:
143,83,58693,2,0,P|146:45|138:9,1,75,2|2,3:2|3:2,0:0:0:0:
17,126,58907,6,0,P|35:198|50:272,1,150,2|2,0:2|3:2,0:0:0:0:
8,352,59229,2,0,P|65:373|104:386,1,75,0|8,3:2|0:0,0:0:0:0:
147,267,59443,1,2,3:2:0:0:
222,237,59550,1,2,3:2:0:0:
282,346,59657,6,0,P|297:272|315:199,1,150,2|2,0:2|3:2,0:0:0:0:
408,132,59979,2,0,P|445:123|482:118,1,75,2|0,3:2|0:0,0:0:0:0:
412,36,60193,2,0,P|375:27|338:22,1,75,8|0,0:2|0:0,0:0:0:0:
274,111,60407,2,0,P|236:115|200:124,1,75,2|0,3:2|3:0,0:0:0:0:
81,291,60622,6,0,P|109:224|179:205,1,150,6|0,0:2|3:0,0:0:0:0:
43,362,60943,2,0,P|13:339|0:305,2,75,6|8|0,0:2|0:2|0:0,0:0:0:0:
125,363,61264,1,0,3:0:0:0:
12,221,61372,6,0,P|54:160|120:126,1,150,6|0,0:2|3:0,0:0:0:0:
202,125,61693,1,0,3:0:0:0:
278,157,61800,1,0,3:0:0:0:
333,217,61907,5,8,0:2:0:0:
326,253,62014,1,0,3:0:0:0:
248,300,62122,1,0,3:0:0:0:
240,264,62229,1,0,3:0:0:0:
314,362,62336,6,0,P|416:322|487:319,1,150,0|0,0:0|3:0,0:0:0:0:
495,142,62764,2,0,P|461:125|426:111,1,75,8|0,0:2|3:0,0:0:0:0:
403,19,62979,2,0,P|365:21|328:26,1,75,2|0,3:2|0:0,0:0:0:0:
254,77,63192,2,0,P|224:99|203:115,2,37.5,2|2|2,0:2|0:2|3:2,0:0:0:0:
308,148,63407,1,2,3:2:0:0:
241,208,63514,2,0,B|193:229|193:229|31:194,1,150,2|0,3:2|0:0,0:0:0:0:
15,48,63836,1,2,3:2:0:0:
71,121,63943,1,2,3:2:0:0:
97,208,64050,6,0,L|76:381,1,150,0|0,0:0|3:0,0:0:0:0:
247,177,64479,2,0,B|285:163|285:163|318:173,1,75,8|0,0:2|3:0,0:0:0:0:
412,319,64693,2,0,B|374:333|374:333|340:322,1,75,2|0,3:2|0:0,0:0:0:0:
390,120,64907,2,0,L|402:84,2,37.5,2|0|2,0:2|0:0|3:2,0:0:0:0:
447,179,65122,1,2,3:2:0:0:
508,123,65229,2,0,P|506:95|494:21,1,75,2|8,3:2|0:2,0:0:0:0:
337,13,65443,2,0,P|253:0|146:6,1,150,2|0,0:2|3:0,0:0:0:0:
123,52,65764,5,2,0:2:0:0:
117,74,65872,1,0,0:0:0:0:
113,96,65979,1,0,3:0:0:0:
179,144,66086,5,2,3:2:0:0:
189,180,66193,1,8,0:2:0:0:
189,217,66300,1,0,3:0:0:0:
126,270,66407,5,2,3:2:0:0:
52,232,66514,1,0,0:0:0:0:
100,135,66622,6,0,P|137:129|174:126,1,75,2|0,0:2|0:0,0:0:0:0:
299,245,66836,1,0,3:0:0:0:
216,226,66943,2,0,P|234:193|263:169,1,75,2|8,3:2|0:2,0:0:0:0:
403,281,67157,1,2,0:2:0:0:
371,286,67264,5,2,3:2:0:0:
371,203,67372,1,2,3:2:0:0:
378,121,67479,6,0,P|439:81|508:105,1,150,6|0,0:2|3:0,0:0:0:0:
281,132,67800,2,0,P|312:64|367:14,1,150,6|0,0:2|0:0,0:0:0:0:
202,180,68122,2,0,P|198:142|201:105,1,75,6|0,0:2|3:2,0:0:0:0:
31,94,68443,1,0,3:2:0:0:
78,161,68550,2,0,L|63:208,3,37.5,0|0|0|0,3:0|0:0|0:0|0:0,0:0:0:0:
80,235,68764,6,0,P|118:229|155:225,1,75,8|0,3:2|3:0,0:0:0:0:
261,359,68979,2,0,P|224:355|187:350,1,75,0|0,3:0|3:0,0:0:0:0:
252,94,69193,6,0,P|264:168|267:243,1,150,0|0,0:0|3:0,0:0:0:0:
291,260,69514,1,2,3:2:0:0:
342,271,69622,1,10,0:2:0:0:
413,247,69729,1,2,3:2:0:0:
456,159,69836,1,2,3:2:0:0:
393,56,69943,2,0,P|356:48|319:42,1,75,2|0,0:2|0:0,0:0:0:0:
134,91,70157,2,0,P|175:29|245:5,1,150,2|0,3:2|3:0,0:0:0:0:
323,125,70479,2,0,B|343:158|343:158|339:194,1,75,10|0,0:2|0:0,0:0:0:0:
210,304,70693,2,0,B|189:270|189:270|193:234,1,75,2|0,3:2|3:0,0:0:0:0:
420,294,70907,5,2,0:2:0:0:
495,328,71014,1,2,0:2:0:0:
426,375,71122,1,2,3:2:0:0:
402,296,71229,6,0,P|422:209|433:182,1,75,2|8,3:2|0:2,0:0:0:0:
489,120,71443,2,0,P|469:33|458:6,1,75,2|0,3:2|3:0,0:0:0:0:
302,172,71657,2,0,P|150:160|75:55,1,225,2|0,0:2|3:0,0:0:0:0:
123,34,72086,1,0,3:0:0:0:
25,88,72193,2,0,P|5:162|2:183,1,75,8|0,0:2|0:0,0:0:0:0:
54,318,72407,1,2,3:2:0:0:
102,251,72514,1,2,3:2:0:0:
162,307,72622,6,0,P|234:323|263:323,1,75,2|0,0:2|0:0,0:0:0:0:
267,126,72836,1,0,3:0:0:0:
195,165,72943,2,0,P|203:202|218:237,1,75,2|8,3:2|0:2,0:0:0:0:
395,202,73157,1,0,3:0:0:0:
313,200,73264,2,0,P|302:235|296:272,1,75,2|0,3:2|0:0,0:0:0:0:
386,49,73479,5,2,0:2:0:0:
350,43,73586,1,0,3:0:0:0:
318,62,73693,1,0,3:0:0:0:
254,114,73800,5,2,3:2:0:0:
174,135,73907,1,8,0:2:0:0:
108,85,74014,1,0,0:0:0:0:
178,41,74122,5,0,0:0:0:0:
215,138,74229,1,0,3:0:0:0:
167,231,74336,6,0,P|156:329|156:391,1,150,6|0,0:2|3:0,0:0:0:0:
402,207,74657,2,0,B|363:186|363:186|334:195,1,75,6|8,0:2|0:2,0:0:0:0:
242,335,74871,2,0,B|281:356|281:356|311:346,1,75,2|0,3:2|3:0,0:0:0:0:
278,132,75086,2,0,P|251:213|308:274,1,150,6|0,0:2|3:0,0:0:0:0:
365,257,75407,1,0,3:0:0:0:
414,193,75514,1,0,3:0:0:0:
409,112,75622,2,0,P|334:63|314:54,1,75,8|0,0:2|0:0,0:0:0:0:
173,106,75836,2,0,P|140:125|110:147,1,75,0|0,3:0|3:0,0:0:0:0:
54,257,76049,5,4,0:2:0:0:
