osu file format v14

[General]
AudioFilename: audio.mp3
AudioLeadIn: 0
PreviewTime: 514
Countdown: 1
SampleSet: Soft
StackLeniency: 0.7
Mode: 0
LetterboxInBreaks: 0
WidescreenStoryboard: 1

[Editor]
Bookmarks: 1328,27960,41674,48532
DistanceSpacing: 0.5
BeatDivisor: 4
GridSize: 32
TimelineZoom: 1.4

[Metadata]
Title:Rude Buster
TitleUnicode:Rude Buster
Artist:Toby Fox
ArtistUnicode:Toby Fox
Creator:Hobbes2
Version:Busted
Source:DELTARUNE
Tags:Zetera Undertale Battle Theme delta rune official soundtrack ost video game
BeatmapID:1843236
BeatmapSetID:881601

[Difficulty]
HPDrainRate:4
CircleSize:4
OverallDifficulty:8.6
ApproachRate:9.5
SliderMultiplier:3.4
SliderTickRate:1

[Events]
//Background and Video events
0,0,"DELTARUNE.jpg",0,0
//Break Periods
//Storyboard Layer 0 (Background)
//Storyboard Layer 1 (Fail)
//Storyboard Layer 2 (Pass)
//Storyboard Layer 3 (Foreground)
//Storyboard Sound Samples

[TimingPoints]
622,428.571428571429,4,2,0,70,1,0
622,-100,4,2,0,70,0,0
19479,-76.9230769230769,4,2,0,70,0,0
20550,-100,4,2,0,70,0,0
26336,-76.9230769230769,4,2,0,70,0,0
27407,-100,4,2,0,70,0,0
28907,-76.9230769230769,4,2,0,70,0,0
29550,-100,4,2,0,70,0,0
30622,-76.9230769230769,4,2,0,70,0,0
31157,-100,4,2,0,70,0,0
32336,-76.9230769230769,4,2,0,70,0,0
32872,-100,4,2,0,70,0,0
35764,-76.9230769230769,4,2,0,70,0,0
36407,-100,4,2,0,70,0,0
37479,-76.9230769230769,4,2,0,70,0,0
38122,-100,4,2,0,70,0,0
39193,-76.9230769230769,4,2,0,70,0,0
39836,-100,4,2,0,70,0,0
41764,-133.333333333333,4,2,0,50,0,0
48622,-100,4,2,0,70,0,0
56336,-76.9230769230769,4,2,0,70,0,0
58907,-100,4,2,0,70,0,0
67479,-100,4,2,0,70,0,0

[Colours]
Combo1 : 66,66,255
Combo2 : 255,121,255
Combo3 : 79,167,255
Combo4 : 91,255,133

[HitObjects]
78,108,622,5,6,0:2:0:0:
92,99,836,2,0,P|133:105|175:112,1,85,0|0,3:2|3:2,0:0:0:0:
224,270,1050,1,8,0:2:0:0:
311,299,1157,2,0,P|305:256|298:215,1,85,0|0,3:2|3:2,0:0:0:0:
418,68,1372,2,0,P|411:109|405:152,1,85,2|0,0:2|0:0,0:0:0:0:
451,317,1586,1,0,3:2:0:0:
490,232,1693,1,0,3:2:0:0:
397,245,1800,1,0,3:2:0:0:
428,332,1907,6,0,P|470:339|511:350,1,85,8|0,0:2|0:0,0:0:0:0:
309,211,2122,2,0,P|267:218|226:229,1,85,0|0,3:2|3:2,0:0:0:0:
106,344,2336,5,2,0:2:0:0:
93,354,2550,2,0,L|101:269,1,85,0|0,3:2|3:2,0:0:0:0:
152,130,2764,1,8,0:2:0:0:
171,112,2872,2,0,P|212:118|257:126,1,85,0|0,3:2|3:2,0:0:0:0:
321,290,3086,2,0,P|392:245|486:211,1,170,2|0,0:2|3:2,0:0:0:0:
423,134,3407,1,0,3:2:0:0:
486,65,3514,1,0,3:2:0:0:
383,25,3622,6,0,L|298:16,1,85,8|0,0:2|0:0,0:0:0:0:
194,109,3836,2,0,P|186:150|180:192,1,85,0|0,3:0|3:0,0:0:0:0:
245,360,4050,5,2,0:2:0:0:
257,348,4264,2,0,P|298:341|341:335,1,85,0|0,3:2|3:2,0:0:0:0:
490,172,4479,1,8,0:2:0:0:
448,255,4586,2,0,P|407:248|365:243,1,85,0|0,3:2|3:2,0:0:0:0:
253,166,4800,2,0,P|210:171|169:178,1,85,2|0,0:2|0:0,0:0:0:0:
110,351,5014,1,0,3:2:0:0:
66,267,5122,1,0,3:2:0:0:
159,271,5229,1,0,3:2:0:0:
82,366,5336,6,0,P|44:345|4:330,1,85,8|0,0:2|0:0,0:0:0:0:
9,133,5550,2,0,P|46:112|86:97,1,85,0|0,3:2|3:2,0:0:0:0:
286,247,5764,6,0,P|342:191|309:90,1,170,6|0,0:2|3:2,0:0:0:0:
203,294,6086,2,0,P|231:325|270:340,1,85,6|8,0:2|0:2,0:0:0:0:
361,322,6300,1,0,3:2:0:0:
435,265,6407,1,0,3:2:0:0:
256,163,6514,6,0,L|85:178,1,170,6|0,0:2|3:2,0:0:0:0:
29,252,6836,1,0,3:2:0:0:
71,335,6943,1,0,3:2:0:0:
156,297,7050,6,0,P|198:299|240:304,1,85,8|0,0:2|3:0,0:0:0:0:
448,365,7264,2,0,P|405:367|363:372,1,85,0|0,3:2|3:2,0:0:0:0:
349,170,7479,5,2,0:2:0:0:
359,183,7693,2,0,L|347:269,1,85,0|0,3:2|3:2,0:0:0:0:
288,43,7907,1,8,0:2:0:0:
368,88,8014,2,0,P|408:73|449:62,1,85,0|0,3:2|3:2,0:0:0:0:
224,187,8229,2,0,P|184:172|143:161,1,85,2|0,0:2|0:0,0:0:0:0:
59,328,8443,1,0,3:2:0:0:
37,234,8550,1,0,3:2:0:0:
127,255,8657,1,0,3:2:0:0:
30,344,8764,6,0,L|23:259,1,85,8|0,0:2|0:0,0:0:0:0:
256,154,8979,2,0,L|249:238,1,85,0|0,3:2|3:2,0:0:0:0:
335,346,9193,5,2,0:2:0:0:
346,358,9407,2,0,L|338:273,1,85,0|0,3:2|3:2,0:0:0:0:
287,134,9621,1,8,0:2:0:0:
268,116,9729,2,0,P|227:122|182:130,1,85,0|0,3:2|3:2,0:0:0:0:
17,349,9943,2,0,B|66:324|66:324|190:354,1,170,2|0,0:2|3:2,0:0:0:0:
260,307,10264,1,0,3:2:0:0:
334,364,10372,1,0,3:2:0:0:
427,269,10479,6,0,P|435:227|444:185,1,85,8|0,0:2|0:0,0:0:0:0:
359,101,10693,2,0,P|351:59|342:18,1,85,0|0,3:2|3:2,0:0:0:0:
201,184,10907,5,2,0:2:0:0:
211,197,11122,2,0,P|288:181|326:180,1,85,0|0,3:2|3:2,0:0:0:0:
390,346,11336,1,8,0:2:0:0:
484,357,11443,2,0,L|476:272,1,85,0|0,3:2|3:2,0:0:0:0:
435,164,11657,2,0,L|443:79,1,85,2|0,0:2|0:0,0:0:0:0:
310,16,11872,1,0,3:2:0:0:
257,93,11979,1,0,3:2:0:0:
349,101,12086,1,0,3:2:0:0:
238,114,12193,6,0,P|196:103|154:97,1,85,8|0,0:2|0:0,0:0:0:0:
0,256,12407,2,0,P|41:245|83:239,1,85,0|0,3:2|3:2,0:0:0:0:
361,345,12622,6,0,P|306:286|226:301,1,170,6|0,0:2|3:2,0:0:0:0:
452,360,12943,2,0,P|449:317|433:278,1,85,6|8,0:2|0:2,0:0:0:0:
372,208,13157,1,0,3:2:0:0:
280,187,13264,1,0,3:2:0:0:
453,39,13372,6,0,B|405:6|405:6|295:29,1,170,6|0,0:2|3:2,0:0:0:0:
220,84,13693,1,0,3:2:0:0:
134,46,13800,1,0,3:2:0:0:
31,134,13907,6,0,P|13:206|5:245,1,85,8|0,0:2|3:2,0:0:0:0:
132,365,14122,2,0,P|122:323|111:282,1,85,0|0,3:2|3:2,0:0:0:0:
236,203,14336,6,0,L|405:218,1,170,4|2,0:2|3:2,0:0:0:0:
463,145,14657,1,2,3:2:0:0:
417,53,14764,1,10,0:2:0:0:
282,90,14872,1,2,3:2:0:0:
388,198,14979,1,2,3:2:0:0:
434,34,15086,6,0,P|392:27|349:23,1,85,2|0,0:2|0:0,0:0:0:0:
159,32,15300,2,0,P|116:35|74:42,1,85,2|0,3:2|3:2,0:0:0:0:
141,178,15514,2,0,P|183:181|225:188,1,85,2|8,3:2|0:2,0:0:0:0:
419,363,15729,2,0,P|476:303|469:221,1,170,2|0,0:2|3:2,0:0:0:0:
327,113,16050,6,0,P|246:135|165:163,1,170,2|0,0:2|3:2,0:0:0:0:
21,72,16372,2,0,P|62:81|104:91,1,85,2|8,3:2|0:2,0:0:0:0:
222,255,16586,2,0,P|180:263|139:273,1,85,2|0,3:2|3:0,0:0:0:0:
285,115,16800,5,2,0:2:0:0:
356,175,16907,2,0,P|360:221|357:291,1,85,2|0,0:2|3:0,0:0:0:0:
288,89,17122,5,2,3:2:0:0:
447,111,17229,2,0,P|449:195|458:280,1,170,2|0,3:2|0:0,0:0:0:0:
414,363,17550,1,0,3:0:0:0:
322,345,17657,1,0,3:0:0:0:
194,378,17764,6,0,L|210:198,1,170,2|2,0:0|3:2,0:0:0:0:
169,123,18086,1,2,3:2:0:0:
93,67,18193,1,10,0:2:0:0:
0,156,18300,1,2,3:2:0:0:
109,206,18407,1,2,3:2:0:0:
237,65,18514,6,0,P|278:77|319:90,1,85,2|0,0:2|0:0,0:0:0:0:
365,211,18729,2,0,P|405:199|447:188,1,85,2|0,3:2|3:0,0:0:0:0:
240,264,18943,2,0,P|227:304|215:345,1,85,2|8,3:2|0:2,0:0:0:0:
43,371,19157,2,0,P|28:287|9:204,1,170,2|0,0:2|3:0,0:0:0:0:
240,264,19479,6,0,P|345:260|400:169,1,220.999989883423,6|0,0:2|3:0,0:0:0:0:
135,305,19800,2,0,P|169:347|218:373,1,110.499994941712,6|8,0:2|0:2,0:0:0:0:
508,208,20015,2,0,P|509:153|490:101,1,110.499994941712,2|0,3:2|3:0,0:0:0:0:
200,12,20229,2,0,P|203:117|294:172,1,220.999989883423,6|0,0:2|3:0,0:0:0:0:
380,75,20550,5,0,3:0:0:0:
449,13,20657,1,0,3:0:0:0:
490,101,20764,1,8,0:2:0:0:
421,163,20872,1,0,3:0:0:0:
462,251,20979,1,0,3:0:0:0:
393,313,21086,1,0,3:0:0:0:
297,253,21193,6,0,L|128:276,1,170,2|2,0:0|3:2,0:0:0:0:
37,256,21514,1,2,3:2:0:0:
121,175,21622,1,10,0:2:0:0:
115,52,21729,1,2,3:2:0:0:
0,103,21836,1,2,3:2:0:0:
132,152,21943,6,0,P|172:164|213:174,1,85,2|0,0:2|0:0,0:0:0:0:
413,203,22157,2,0,P|453:190|494:180,1,85,2|0,3:2|3:0,0:0:0:0:
340,66,22372,2,0,P|327:106|317:147,1,85,2|8,3:2|0:2,0:0:0:0:
218,368,22586,2,0,P|199:285|174:203,1,170,2|0,0:2|3:0,0:0:0:0:
2,96,22907,6,0,B|51:117|51:117|192:56,1,170,2|0,0:2|3:0,0:0:0:0:
267,19,23229,2,0,P|309:27|350:38,1,85,2|8,3:2|0:2,0:0:0:0:
441,159,23443,2,0,P|399:167|358:178,1,85,2|0,3:2|3:0,0:0:0:0:
217,354,23657,5,2,0:2:0:0:
304,323,23764,2,0,L|288:240,1,85,2|0,0:2|3:0,0:0:0:0:
203,375,23979,5,2,3:2:0:0:
389,382,24086,2,0,P|440:253|478:211,1,170,2|0,3:2|0:0,0:0:0:0:
484,140,24407,1,0,3:0:0:0:
445,54,24514,1,0,3:0:0:0:
341,135,24622,6,0,L|171:120,1,170,2|2,0:0|3:2,0:0:0:0:
85,155,24943,1,2,3:2:0:0:
0,81,25050,1,10,0:2:0:0:
111,0,25157,1,2,3:2:0:0:
171,120,25264,1,2,3:2:0:0:
83,247,25372,6,0,P|41:241|0:239,1,85,2|0,0:2|0:0,0:0:0:0:
159,379,25586,2,0,P|201:373|242:371,1,85,2|0,3:2|3:0,0:0:0:0:
298,256,25800,2,0,P|304:214|306:173,1,85,2|8,3:2|0:2,0:0:0:0:
461,52,26014,2,0,P|436:133|413:215,1,170,2|0,0:2|3:0,0:0:0:0:
216,107,26336,6,0,P|125:162|121:268,1,220.999989883423,6|0,0:2|3:0,0:0:0:0:
322,91,26657,2,0,P|296:42|253:7,1,110.499994941712,6|8,0:2|0:2,0:0:0:0:
11,289,26872,2,0,P|37:338|80:373,1,110.499994941712,2|0,3:2|3:0,0:0:0:0:
430,231,27086,2,0,B|363:182|363:182|231:224,1,220.999989883423,6|0,0:2|3:0,0:0:0:0:
175,325,27407,5,0,3:0:0:0:
252,377,27514,1,0,3:0:0:0:
314,306,27622,1,8,0:2:0:0:
367,382,27729,1,0,3:0:0:0:
326,281,27836,1,0,3:0:0:0:
432,322,27943,1,0,3:0:0:0:
393,211,28050,6,0,P|300:187|222:167,1,170,4|0,0:2|3:0,0:0:0:0:
133,163,28372,1,2,0:2:0:0:
28,245,28479,1,10,3:2:0:0:
164,238,28586,1,2,0:2:0:0:
48,167,28693,1,2,0:2:0:0:
94,287,28800,1,2,3:2:0:0:
144,143,28907,6,0,B|199:117|199:117|368:169,1,220.999989883423,12|0,3:2|3:0,0:0:0:0:
505,37,29229,2,0,B|443:28|443:28|401:51,1,110.499994941712,12|0,0:2|0:0,0:0:0:0:
354,346,29443,1,8,0:2:0:0:
443,333,29550,6,0,P|431:292|414:253,1,85,0|0,0:0|0:0,0:0:0:0:
243,346,29764,6,0,P|150:322|72:302,1,170,4|0,0:2|3:0,0:0:0:0:
40,217,30086,1,2,0:2:0:0:
106,98,30193,1,10,3:2:0:0:
176,214,30300,1,2,0:2:0:0:
38,138,30407,1,2,0:2:0:0:
174,136,30514,1,2,3:2:0:0:
108,266,30622,6,0,P|264:271|339:354,1,220.999989883423,12|0,0:2|3:0,0:0:0:0:
37,351,30943,2,0,P|0:249|23:197,1,110.499994941712,12|0,0:2|0:0,0:0:0:0:
81,4,31157,1,8,0:2:0:0:
163,50,31264,6,0,P|227:38|253:34,1,85,0|0,3:0|3:0,0:0:0:0:
383,94,31479,6,0,L|359:262,1,170,4|0,0:2|3:0,0:0:0:0:
296,330,31800,1,2,0:2:0:0:
430,323,31907,1,10,3:2:0:0:
274,343,32014,1,2,0:2:0:0:
452,310,32122,1,2,0:2:0:0:
252,356,32229,1,2,3:2:0:0:
367,216,32336,6,0,B|312:190|312:190|158:237,1,220.999989883423,12|0,0:2|3:0,0:0:0:0:
464,286,32657,2,0,P|485:235|482:180,1,110.499994941712,12|0,0:2|0:0,0:0:0:0:
320,9,32872,1,8,0:2:0:0:
245,51,32979,6,0,P|170:43|151:41,1,85,2|0,0:2|0:0,0:0:0:0:
55,114,33193,6,0,P|31:195|15:279,1,170,6|0,0:2|3:0,0:0:0:0:
124,368,33514,2,0,P|194:350|240:348,1,85,6|8,0:2|0:2,0:0:0:0:
261,232,33729,2,0,P|191:214|145:212,1,85,2|0,3:2|3:0,0:0:0:0:
366,384,33943,6,0,P|360:341|357:299,2,85,6|0|0,3:2|0:0|3:0,0:0:0:0:
453,352,34264,1,0,3:0:0:0:
497,268,34372,1,0,3:0:0:0:
423,183,34479,2,0,P|382:176|341:164,1,85,8|0,0:2|0:0,0:0:0:0:
290,45,34693,2,0,P|249:56|207:64,1,85,0|0,3:0|3:0,0:0:0:0:
52,204,34907,6,0,L|219:173,1,170,4|0,0:2|3:0,0:0:0:0:
295,228,35229,1,2,0:2:0:0:
414,294,35336,1,10,3:2:0:0:
298,364,35443,1,2,0:2:0:0:
374,226,35550,1,2,0:2:0:0:
376,362,35657,1,2,3:2:0:0:
239,295,35765,6,0,B|83:300|119:298,1,110.499994941712,12|0,0:2|0:0,0:0:0:0:
397,209,35979,1,0,3:0:0:0:
339,73,36086,2,0,P|235:36|127:14,1,220.999989883423,12|8,0:2|0:2,0:0:0:0:
5,27,36407,5,0,3:0:0:0:
72,90,36514,1,0,3:0:0:0:
60,197,36622,6,0,L|83:365,1,170,4|0,0:2|3:0,0:0:0:0:
165,343,36943,1,2,0:2:0:0:
296,324,37050,1,10,3:2:0:0:
175,262,37157,1,2,0:2:0:0:
240,382,37264,1,2,0:2:0:0:
260,255,37371,1,2,3:2:0:0:
152,363,37479,6,0,P|99:344|36:329,1,110.499994941712,12|0,0:2|0:0,0:0:0:0:
78,50,37693,1,0,3:0:0:0:
177,222,37800,2,0,P|225:123|317:65,1,220.999989883423,12|8,0:2|0:2,0:0:0:0:
443,88,38122,5,0,3:0:0:0:
489,168,38229,1,0,3:0:0:0:
408,215,38336,6,0,L|383:383,1,170,4|0,0:2|3:0,0:0:0:0:
296,351,38657,1,2,0:2:0:0:
264,218,38764,1,10,3:2:0:0:
207,360,38872,1,2,0:2:0:0:
239,227,38979,1,2,0:2:0:0:
321,342,39086,1,2,3:2:0:0:
154,267,39193,6,0,P|101:248|48:233,1,110.499994941712,12|0,0:2|0:0,0:0:0:0:
379,144,39407,1,0,3:0:0:0:
252,10,39514,2,0,B|220:75|220:75|263:217,1,220.999989883423,12|8,0:2|0:2,0:0:0:0:
369,289,39836,6,0,P|370:362|367:396,1,85,0|0,3:0|3:0,0:0:0:0:
465,302,40050,6,0,P|476:217|492:134,1,170,6|0,0:2|3:0,0:0:0:0:
391,18,40372,2,0,P|398:60|403:103,1,85,6|8,0:2|0:2,0:0:0:0:
321,180,40586,2,0,P|307:220|289:259,1,85,2|0,3:2|3:0,0:0:0:0:
121,311,40800,2,0,L|37:297,2,85,6|0|0,3:2|0:0|3:0,0:0:0:0:
181,239,41122,1,0,3:0:0:0:
198,147,41229,1,0,3:0:0:0:
322,197,41336,2,0,P|359:177|400:154,1,85,10|0,0:2|3:0,0:0:0:0:
484,350,41550,2,0,P|446:331|410:310,1,85,2|0,3:2|3:0,0:0:0:0:
275,360,41764,6,0,L|148:345,1,127.500004863739,6|0,0:2|3:0,0:0:0:0:
120,330,42086,1,0,3:0:0:0:
92,314,42193,1,8,0:2:0:0:
146,251,42300,2,0,P|158:189|170:155,1,63.7500024318696,0|0,3:0|3:0,0:0:0:0:
269,110,42514,6,0,P|276:181|277:297,1,127.500004863739,2|0,0:2|3:0,0:0:0:0:
308,246,42836,1,0,3:0:0:0:
338,255,42943,1,0,3:0:0:0:
402,203,43050,2,0,P|404:139|411:75,1,127.500004863739,8|0,0:2|3:0,0:0:0:0:
470,17,43372,1,0,3:0:0:0:
335,50,43479,6,0,L|208:31,1,127.500004863739,2|0,0:2|3:0,0:0:0:0:
185,53,43800,1,0,3:0:0:0:
161,74,43907,1,8,0:2:0:0:
89,31,44014,2,0,P|57:25|26:19,1,63.7500024318696,0|0,3:0|3:0,0:0:0:0:
5,117,44229,6,0,P|33:190|14:265,1,127.500004863739,2|8,0:2|3:2,0:0:0:0:
12,265,44550,1,0,3:0:0:0:
6,296,44657,1,0,3:0:0:0:
70,347,44764,1,8,0:2:0:0:
99,359,44872,2,0,L|146:358,2,31.8750012159348,8|8|8,0:2|0:2|0:2,0:0:0:0:
211,222,45193,6,0,P|269:197|331:183,1,127.500004863739,2|0,0:2|3:0,0:0:0:0:
359,199,45514,1,0,3:0:0:0:
386,215,45622,1,8,0:2:0:0:
426,288,45729,2,0,P|417:353|410:374,1,63.7500024318696,0|0,3:0|3:0,0:0:0:0:
497,247,45943,6,0,B|474:205|474:205|500:118,1,127.500004863739,2|0,0:2|3:0,0:0:0:0:
484,99,46264,1,0,3:0:0:0:
471,69,46372,1,0,3:0:0:0:
400,25,46479,2,0,P|369:21|337:17,1,63.7500024318696,8|0,0:2|0:0,0:0:0:0:
248,103,46693,1,0,3:0:0:0:
186,48,46800,1,0,3:0:0:0:
180,162,46907,6,0,P|256:139|323:133,1,127.500004863739,6|8,0:2|0:2,0:0:0:0:
363,191,47229,1,6,0:2:0:0:
449,278,47336,2,0,P|455:211|458:188,1,63.7500024318696,8|0,0:2|3:0,0:0:0:0:
346,333,47550,1,0,3:0:0:0:
364,343,47657,2,0,P|358:276|355:253,1,63.7500024318696,14|0,0:2|0:0,0:0:0:0:
273,161,47872,2,0,P|270:193|268:225,1,63.7500024318696,8|0,0:2|3:0,0:0:0:0:
194,349,48086,1,0,3:0:0:0:
181,336,48193,2,0,P|187:269|190:246,1,63.7500024318696,8|0,0:2|0:0,0:0:0:0:
156,187,48407,5,2,3:2:0:0:
62,116,48514,1,2,3:2:0:0:
175,41,48622,6,0,P|216:50|257:61,1,85,4|0,0:2|0:0,0:0:0:0:
448,146,48836,1,0,3:0:0:0:
425,239,48943,2,0,P|465:225|507:217,2,85,0|8|0,3:0|0:2|3:0,0:0:0:0:
332,304,49264,5,2,3:2:0:0:
455,378,49372,1,2,0:2:0:0:
250,365,49479,2,0,B|228:313|228:313|255:202,1,170,2|0,0:2|3:0,0:0:0:0:
177,57,49800,2,0,P|180:99|183:142,1,85,0|8,3:0|0:2,0:0:0:0:
171,165,50122,1,2,3:2:0:0:
0,247,50229,1,2,3:2:0:0:
170,326,50336,6,0,P|245:289|326:262,1,170,2|2,0:2|3:2,0:0:0:0:
419,134,50657,2,0,P|425:175|438:216,1,85,2|10,3:2|0:2,0:0:0:0:
452,233,50818,1,2,0:2:0:0:
465,251,50872,2,0,P|458:292|445:333,1,85,2|0,3:2|3:0,0:0:0:0:
317,165,51086,2,0,P|276:153|234:148,1,85,2|0,0:2|0:0,0:0:0:0:
172,276,51300,2,0,P|129:281|89:292,1,85,2|0,3:2|3:0,0:0:0:0:
12,82,51514,1,2,3:2:0:0:
70,8,51622,1,8,0:2:0:0:
116,89,51729,2,0,P|121:131|132:171,1,85,2|0,0:2|3:0,0:0:0:0:
297,363,51943,6,0,P|390:285|352:171,1,255,2|0,3:2|3:0,0:0:0:0:
263,202,52372,1,0,3:0:0:0:
368,74,52479,2,0,P|410:79|451:89,1,85,8|0,0:2|3:0,0:0:0:0:
498,280,52693,2,0,P|455:284|414:294,1,85,2|0,3:2|0:0,0:0:0:0:
222,352,52907,2,0,L|238:252,1,85,2|2,0:2|3:2,0:0:0:0:
239,246,53068,1,2,0:2:0:0:
246,225,53122,2,0,P|300:222|346:209,1,85,2|0,3:2|3:0,0:0:0:0:
466,98,53336,2,0,P|412:95|366:82,1,85,8|0,0:2|0:0,0:0:0:0:
299,25,53550,1,2,3:2:0:0:
208,1,53657,1,2,3:2:0:0:
94,116,53764,6,0,B|155:149|155:149|251:121,1,170,4|0,0:0|3:0,0:0:0:0:
50,32,54086,2,0,P|15:56|-1:94,1,85,4|0,0:0|0:2,0:0:0:0:
27,183,54300,1,0,3:0:0:0:
105,233,54407,1,0,3:0:0:0:
251,120,54514,6,0,L|419:139,1,170,6|2,0:2|3:2,0:0:0:0:
494,196,54836,1,0,3:0:0:0:
431,286,54943,2,0,P|362:303|334:305,1,85,2|8,3:2|0:2,0:0:0:0:
214,230,55157,2,0,P|220:187|232:147,2,85,2|0|0,3:2|3:0|3:0,0:0:0:0:
59,357,55479,5,2,0:2:0:0:
116,283,55586,1,0,0:0:0:0:
197,328,55693,1,0,3:0:0:0:
81,368,55800,5,2,3:2:0:0:
27,271,55907,1,8,0:0:0:0:
43,161,56014,1,0,3:0:0:0:
149,254,56122,1,2,3:2:0:0:
163,94,56229,1,0,0:0:0:0:
332,102,56336,6,0,P|402:80|450:59,1,110.499994941712,2|2,0:2|3:2,0:0:0:0:
512,287,56550,2,0,P|471:274|398:243,1,110.499994941712,2|2,3:2|3:2,0:0:0:0:
286,372,56764,2,0,P|295:275|295:221,1,110.499994941712,10|2,0:2|0:2,0:0:0:0:
241,140,56979,2,0,P|232:43|230:-12,1,110.499994941712,2|2,3:2|3:2,0:0:0:0:
16,72,57193,5,2,0:2:0:0:
49,165,57300,1,0,0:0:0:0:
132,111,57407,1,0,3:0:0:0:
36,57,57514,5,2,3:2:0:0:
26,167,57622,1,8,0:2:0:0:
92,255,57729,1,0,3:0:0:0:
174,139,57836,1,2,3:2:0:0:
212,285,57943,1,0,0:0:0:0:
345,184,58050,6,0,P|325:112|304:56,1,110.499994941712,2|2,0:2|3:2,0:0:0:0:
494,248,58264,2,0,P|480:288|461:372,1,110.499994941712,2|2,3:2|3:2,0:0:0:0:
323,344,58479,2,0,P|229:323|205:320,1,110.499994941712,8|2,0:2|0:2,0:0:0:0:
95,351,58693,2,0,P|53:358|-24:381,1,110.499994941712,2|2,3:2|3:2,0:0:0:0:
92,202,58907,5,2,0:2:0:0:
167,146,59014,1,0,0:0:0:0:
197,233,59122,1,2,3:2:0:0:
72,218,59229,2,0,P|-8:170|-34:162,1,85,0|8,3:0|0:2,0:0:0:0:
105,47,59443,5,2,3:2:0:0:
231,54,59550,1,2,3:2:0:0:
215,209,59657,2,0,P|227:249|238:290,1,85,2|0,0:2|0:0,0:0:0:0:
427,160,59872,5,2,3:2:0:0:
336,44,59979,2,0,P|323:84|312:125,1,85,2|0,3:2|3:0,0:0:0:0:
486,308,60193,2,0,P|419:260|336:268,1,170,8|2,0:2|3:2,0:0:0:0:
296,353,60514,1,0,3:0:0:0:
157,262,60622,6,0,B|132:211|132:211|159:101,1,170,6|0,0:2|3:0,0:0:0:0:
396,15,60943,2,0,P|401:57|406:99,1,85,6|8,0:2|0:2,0:0:0:0:
367,215,61157,1,2,3:2:0:0:
407,299,61264,1,0,3:0:0:0:
240,331,61372,6,0,P|160:302|77:283,1,170,6|0,0:2|3:0,0:0:0:0:
19,209,61693,1,0,3:0:0:0:
72,132,61800,1,0,3:0:0:0:
3,68,61907,1,8,0:2:0:0:
81,17,62014,1,0,3:0:0:0:
157,72,62122,1,0,3:0:0:0:
234,20,62229,1,0,3:0:0:0:
306,105,62336,6,0,L|287:282,1,170,0|0,0:0|3:0,0:0:0:0:
355,337,62657,1,0,3:0:0:0:
453,278,62764,2,0,P|471:204|478:172,1,85,8|0,0:2|3:0,0:0:0:0:
423,114,62979,2,0,P|405:40|398:8,1,85,2|0,3:2|0:0,0:0:0:0:
233,44,63193,6,0,P|273:25|286:20,2,42.5,2|2|2,0:0|0:0|3:2,0:0:0:0:
155,6,63407,1,2,3:2:0:0:
70,77,63514,2,0,P|85:134|92:184,2,85,2|8|0,3:2|0:2|0:0,0:0:0:0:
28,228,63836,1,2,3:2:0:0:
171,191,63943,1,2,3:2:0:0:
100,308,64050,6,0,P|203:330|278:357,1,170,0|0,0:0|3:0,0:0:0:0:
341,298,64372,1,0,3:0:0:0:
261,198,64479,2,0,P|219:205|178:216,1,85,8|0,0:2|3:0,0:0:0:0:
323,97,64693,2,0,P|364:104|405:115,1,85,2|0,3:2|0:0,0:0:0:0:
472,288,64907,5,2,0:0:0:0:
469,309,64961,1,2,0:0:0:0:
466,329,65014,1,2,3:2:0:0:
378,370,65122,1,2,3:2:0:0:
308,285,65229,2,0,P|253:313|213:349,1,85,2|8,3:2|0:2,0:0:0:0:
238,169,65443,2,0,P|320:193|397:228,1,170,2|0,0:2|3:0,0:0:0:0:
186,245,65764,5,2,0:2:0:0:
96,276,65872,1,0,0:0:0:0:
118,186,65979,1,0,3:0:0:0:
201,265,66086,6,0,P|193:333|185:385,1,85,2|8,3:2|0:2,0:0:0:0:
29,213,66300,1,0,3:0:0:0:
120,90,66407,2,0,P|128:158|136:210,1,85,2|0,3:2|0:0,0:0:0:0:
365,246,66622,5,2,0:2:0:0:
282,186,66729,1,0,3:0:0:0:
218,265,66836,1,0,3:0:0:0:
337,346,66943,2,0,P|441:356|472:357,1,85,2|8,3:2|0:2,0:0:0:0:
488,266,67157,5,2,0:2:0:0:
446,145,67264,1,2,3:2:0:0:
508,32,67372,1,2,3:2:0:0:
354,2,67479,6,0,P|240:38|128:69,1,170,6|0,0:2|3:0,0:0:0:0:
16,78,67800,2,0,P|68:119|112:179,1,85,6|8,0:2|3:2,0:0:0:0:
143,384,68014,1,0,0:0:0:0:
0,305,68122,2,0,P|38:287|79:275,1,85,6|0,0:2|3:2,0:0:0:0:
169,210,68336,6,0,P|209:221|248:240,1,85,0|0,0:2|3:2,0:0:0:0:
325,327,68550,1,2,3:2:0:0:
341,329,68604,1,2,0:0:0:0:
357,331,68657,1,2,0:0:0:0:
373,333,68711,1,2,0:0:0:0:
389,334,68764,2,0,P|393:268|398:219,1,85,8|0,3:2|3:0,0:0:0:0:
481,164,68979,2,0,P|478:121|475:79,1,85,0|0,3:2|3:0,0:0:0:0:
319,20,69193,6,0,L|124:9,1,170,0|0,0:0|3:0,0:0:0:0:
85,78,69514,1,2,3:2:0:0:
139,203,69622,1,10,0:2:0:0:
21,140,69729,1,2,3:2:0:0:
168,123,69836,1,2,3:2:0:0:
55,222,69943,2,0,P|48:264|45:306,1,85,2|0,0:2|0:0,0:0:0:0:
232,383,70157,2,0,P|306:345|345:271,1,170,2|0,3:2|3:0,0:0:0:0:
271,149,70479,2,0,L|172:134,1,85,10|0,0:2|0:0,0:0:0:0:
389,11,70693,2,0,L|305:24,1,85,2|0,3:2|3:0,0:0:0:0:
435,217,70907,5,2,0:2:0:0:
480,136,71014,1,2,0:2:0:0:
387,119,71122,1,2,3:2:0:0:
326,238,71229,2,0,P|316:302|311:351,1,85,2|8,3:2|0:2,0:0:0:0:
159,372,71443,2,0,P|153:329|147:288,1,85,2|0,3:2|3:0,0:0:0:0:
52,200,71657,1,2,0:2:0:0:
55,178,71711,1,2,0:2:0:0:
58,157,71764,2,0,B|113:122|113:122|275:172,1,170,2|0,0:2|3:0,0:0:0:0:
273,225,72086,1,0,3:0:0:0:
330,133,72193,2,0,P|347:62|362:27,1,85,8|0,0:2|0:0,0:0:0:0:
457,97,72407,1,2,3:2:0:0:
501,195,72514,1,2,3:2:0:0:
377,267,72622,6,0,P|337:252|295:243,1,85,2|0,0:2|0:0,0:0:0:0:
139,384,72836,1,0,3:0:0:0:
205,267,72943,2,0,P|163:276|123:290,1,85,2|8,3:2|0:2,0:0:0:0:
48,345,73157,5,0,3:0:0:0:
17,238,73264,1,2,3:2:0:0:
115,185,73372,1,0,0:0:0:0:
164,381,73479,6,0,P|205:371|245:357,1,85,2|0,0:2|3:0,0:0:0:0:
307,135,73693,1,0,3:0:0:0:
324,299,73800,2,0,P|333:257|348:218,1,85,2|8,3:2|0:2,0:0:0:0:
232,56,74014,5,0,0:0:0:0:
124,124,74121,1,2,3:2:0:0:
21,46,74229,1,0,3:0:0:0:
24,275,74336,6,0,P|104:247|119:242,1,85,6|0,0:2|2:0,0:0:0:0:
208,211,74550,1,0,3:0:0:0:
267,362,74657,2,0,P|271:320|284:280,1,85,6|8,0:2|0:2,0:0:0:0:
425,177,74872,2,0,P|438:217|442:260,1,85,2|0,3:2|3:0,0:0:0:0:
314,118,75086,6,0,B|272:77|272:77|161:91,1,170,6|0,0:2|3:0,0:0:0:0:
77,132,75407,1,0,3:0:0:0:
2,75,75514,1,0,3:0:0:0:
0,213,75622,2,0,P|8:255|16:297,1,85,8|0,0:2|0:0,0:0:0:0:
133,380,75836,2,0,P|141:338|150:297,1,85,0|0,3:0|3:0,0:0:0:0:
237,218,76050,5,4,0:2:0:0:
