osu file format v14

[General]
AudioFilename: audio.ogg
AudioLeadIn: 0
PreviewTime: 14192
Countdown: 0
SampleSet: Soft
StackLeniency: 0.7
Mode: 3
LetterboxInBreaks: 0
SpecialStyle: 0
WidescreenStoryboard: 1

[Editor]
DistanceSpacing: 1.2
BeatDivisor: 4
GridSize: 32
TimelineZoom: 1.8

[Metadata]
Title:Rude Buster
TitleUnicode:Rude Buster
Artist:Toby Fox
ArtistUnicode:Toby Fox
Creator:Carpihat
Version:AndreyChomik's Normal
Source:DELTARUNE
Tags:8-4 battle theme official soundtrack ost vgm video game music kris ralsei susie electronic instrumental chiptune midi orchestral chapter 1 one [gb]chickengold andreychomik chrisse temmie chang ln hybrid stream jumpstream js release
BeatmapID:4422604
BeatmapSetID:2024432

[Difficulty]
HPDrainRate:7
CircleSize:4
OverallDifficulty:6.9
ApproachRate:5
SliderMultiplier:1.4
SliderTickRate:1

[Events]
//Background and Video events
0,0,"cropped-1920-1080-971721.jpg",0,0
//Break Periods
//Storyboard Layer 0 (Background)
//Storyboard Layer 1 (Fail)
//Storyboard Layer 2 (Pass)
//Storyboard Layer 3 (Foreground)
//Storyboard Layer 4 (Overlay)
//Storyboard Sound Samples

[TimingPoints]
478,428.571428571429,4,2,1,50,1,0
14192,-100,4,2,1,50,0,1
41620,-100,4,2,1,50,0,0
48478,-100,4,2,1,50,0,1
75478,-100,4,2,1,50,0,0

[HitObjects]
448,192,478,5,0,0:0:0:0:
64,192,478,128,0,692:0:0:0:0:
320,192,692,128,0,906:0:0:0:0:
64,192,906,1,0,0:0:0:0:
192,192,906,1,0,0:0:0:0:
448,192,1013,128,0,1228:0:0:0:0:
192,192,1228,128,0,1442:0:0:0:0:
320,192,1442,1,0,0:0:0:0:
64,192,1549,1,0,0:0:0:0:
192,192,1763,128,0,1978:0:0:0:0:
320,192,1763,1,0,0:0:0:0:
448,192,1978,128,0,2192:0:0:0:0:
64,192,2192,128,0,2406:0:0:0:0:
192,192,2406,128,0,2620:0:0:0:0:
448,192,2620,1,0,0:0:0:0:
320,192,2620,1,0,0:0:0:0:
64,192,2728,128,0,2942:0:0:0:0:
320,192,2942,128,0,3156:0:0:0:0:
192,192,3156,1,0,0:0:0:0:
448,192,3263,1,0,0:0:0:0:
192,192,3478,1,0,0:0:0:0:
320,192,3478,128,0,3692:0:0:0:0:
64,192,3692,128,0,3906:0:0:0:0:
192,192,3906,128,0,4120:0:0:0:0:
448,192,4120,128,0,4335:0:0:0:0:
64,192,4335,1,0,0:0:0:0:
192,192,4335,1,0,0:0:0:0:
320,192,4442,128,0,4656:0:0:0:0:
64,192,4656,128,0,4870:0:0:0:0:
448,192,4870,1,0,0:0:0:0:
192,192,4978,1,0,0:0:0:0:
64,192,5192,128,0,5406:0:0:0:0:
448,192,5192,1,0,0:0:0:0:
320,192,5406,128,0,5620:0:0:0:0:
192,192,5620,128,0,5835:0:0:0:0:
320,192,5835,1,0,0:0:0:0:
64,192,5942,1,0,0:0:0:0:
448,192,6049,1,0,0:0:0:0:
320,192,6049,1,0,0:0:0:0:
320,192,6370,128,0,6585:0:0:0:0:
448,192,6370,128,0,6585:0:0:0:0:
64,192,6585,1,0,0:0:0:0:
192,192,6692,1,0,0:0:0:0:
448,192,6906,1,0,0:0:0:0:
64,192,6906,128,0,7120:0:0:0:0:
320,192,7120,1,0,0:0:0:0:
192,192,7335,128,0,7549:0:0:0:0:
448,192,7549,128,0,7763:0:0:0:0:
64,192,7763,1,0,0:0:0:0:
192,192,7763,1,0,0:0:0:0:
320,192,7870,128,0,8085:0:0:0:0:
64,192,8085,128,0,8299:0:0:0:0:
448,192,8299,1,0,0:0:0:0:
192,192,8406,1,0,0:0:0:0:
64,192,8620,128,0,8835:0:0:0:0:
448,192,8620,1,0,0:0:0:0:
320,192,8835,128,0,9049:0:0:0:0:
192,192,9049,128,0,9263:0:0:0:0:
64,192,9263,128,0,9478:0:0:0:0:
448,192,9478,1,0,0:0:0:0:
320,192,9478,1,0,0:0:0:0:
192,192,9585,128,0,9799:0:0:0:0:
448,192,9799,128,0,10013:0:0:0:0:
64,192,10013,1,0,0:0:0:0:
320,192,10120,1,0,0:0:0:0:
64,192,10335,1,0,0:0:0:0:
448,192,10335,128,0,10549:0:0:0:0:
192,192,10549,128,0,10763:0:0:0:0:
64,192,10763,128,0,10978:0:0:0:0:
320,192,10978,128,0,11192:0:0:0:0:
64,192,11192,1,0,0:0:0:0:
192,192,11192,1,0,0:0:0:0:
448,192,11299,128,0,11513:0:0:0:0:
192,192,11513,128,0,11728:0:0:0:0:
320,192,11728,1,0,0:0:0:0:
64,192,11835,1,0,0:0:0:0:
192,192,12049,128,0,12263:0:0:0:0:
320,192,12049,1,0,0:0:0:0:
448,192,12263,128,0,12478:0:0:0:0:
64,192,12478,128,0,12692:0:0:0:0:
448,192,12692,1,0,0:0:0:0:
192,192,12799,1,0,0:0:0:0:
448,192,12906,1,0,0:0:0:0:
320,192,12906,1,0,0:0:0:0:
320,192,13228,128,0,13442:0:0:0:0:
448,192,13228,128,0,13442:0:0:0:0:
192,192,13442,1,0,0:0:0:0:
64,192,13549,1,0,0:0:0:0:
448,192,13763,1,0,0:0:0:0:
192,192,13763,128,0,13978:0:0:0:0:
320,192,13978,1,0,0:0:0:0:
192,192,14192,1,0,0:0:0:0:
448,192,14192,128,0,14406:0:0:0:0:
64,192,14406,1,0,0:0:0:0:
192,192,14513,1,0,0:0:0:0:
320,192,14620,128,0,14835:0:0:0:0:
448,192,14620,1,0,0:0:0:0:
192,192,14835,1,0,0:0:0:0:
64,192,14942,1,0,0:0:0:0:
320,192,15156,128,0,15370:0:0:0:0:
64,192,15370,128,0,15585:0:0:0:0:
448,192,15585,128,0,15799:0:0:0:0:
192,192,15906,128,0,16120:0:0:0:0:
448,192,16120,1,0,0:0:0:0:
64,192,16228,128,0,16442:0:0:0:0:
448,192,16442,128,0,16656:0:0:0:0:
320,192,16656,1,0,0:0:0:0:
64,192,16763,1,0,0:0:0:0:
192,192,16978,1,0,0:0:0:0:
320,192,17085,1,0,0:0:0:0:
448,192,17192,128,0,17406:0:0:0:0:
64,192,17192,1,0,0:0:0:0:
192,192,17406,128,0,17620:0:0:0:0:
448,192,17620,128,0,17835:0:0:0:0:
64,192,17835,1,0,0:0:0:0:
192,192,17942,1,0,0:0:0:0:
320,192,18049,128,0,18263:0:0:0:0:
448,192,18049,1,0,0:0:0:0:
192,192,18263,1,0,0:0:0:0:
64,192,18370,1,0,0:0:0:0:
320,192,18585,128,0,18799:0:0:0:0:
64,192,18799,128,0,19013:0:0:0:0:
448,192,19013,128,0,19228:0:0:0:0:
192,192,19335,128,0,19549:0:0:0:0:
64,192,19335,128,0,19549:0:0:0:0:
448,192,19656,128,0,19870:0:0:0:0:
64,192,19870,128,0,20085:0:0:0:0:
448,192,20085,128,0,20299:0:0:0:0:
320,192,20085,128,0,20299:0:0:0:0:
64,192,20299,1,0,0:0:0:0:
192,192,20406,1,0,0:0:0:0:
320,192,20620,1,0,0:0:0:0:
64,192,20620,128,0,20835:0:0:0:0:
192,192,20835,128,0,21049:0:0:0:0:
448,192,21049,128,0,21263:0:0:0:0:
64,192,21263,1,0,0:0:0:0:
192,192,21370,1,0,0:0:0:0:
448,192,21478,1,0,0:0:0:0:
320,192,21478,128,0,21692:0:0:0:0:
192,192,21692,1,0,0:0:0:0:
64,192,21799,1,0,0:0:0:0:
320,192,22013,128,0,22228:0:0:0:0:
64,192,22228,128,0,22442:0:0:0:0:
448,192,22442,128,0,22656:0:0:0:0:
192,192,22763,128,0,22978:0:0:0:0:
448,192,22978,1,0,0:0:0:0:
64,192,23085,128,0,23299:0:0:0:0:
448,192,23299,128,0,23513:0:0:0:0:
320,192,23513,1,0,0:0:0:0:
192,192,23620,1,0,0:0:0:0:
64,192,23835,1,0,0:0:0:0:
320,192,23942,1,0,0:0:0:0:
448,192,24049,128,0,24263:0:0:0:0:
192,192,24049,1,0,0:0:0:0:
192,192,24263,128,0,24478:0:0:0:0:
448,192,24478,128,0,24692:0:0:0:0:
64,192,24692,1,0,0:0:0:0:
192,192,24799,1,0,0:0:0:0:
320,192,24906,128,0,25120:0:0:0:0:
448,192,24906,1,0,0:0:0:0:
192,192,25120,1,0,0:0:0:0:
64,192,25228,1,0,0:0:0:0:
320,192,25442,128,0,25656:0:0:0:0:
64,192,25656,128,0,25870:0:0:0:0:
448,192,25870,128,0,26085:0:0:0:0:
64,192,26192,128,0,26406:0:0:0:0:
192,192,26192,128,0,26406:0:0:0:0:
448,192,26513,128,0,26728:0:0:0:0:
64,192,26728,128,0,26942:0:0:0:0:
320,192,26942,128,0,27156:0:0:0:0:
448,192,26942,128,0,27156:0:0:0:0:
64,192,27156,1,0,0:0:0:0:
192,192,27263,1,0,0:0:0:0:
64,192,27478,1,0,0:0:0:0:
320,192,27478,128,0,27692:0:0:0:0:
192,192,27692,128,0,27906:0:0:0:0:
448,192,27906,1,0,0:0:0:0:
64,192,27906,128,0,28120:0:0:0:0:
192,192,28228,1,0,0:0:0:0:
320,192,28335,1,0,0:0:0:0:
448,192,28335,128,0,28549:0:0:0:0:
64,192,28549,128,0,28763:0:0:0:0:
192,192,28763,128,0,28978:0:0:0:0:
320,192,28763,128,0,28978:0:0:0:0:
64,192,29085,128,0,29299:0:0:0:0:
448,192,29085,128,0,29299:0:0:0:0:
192,192,29299,1,0,0:0:0:0:
320,192,29406,1,0,0:0:0:0:
64,192,29620,128,0,29835:0:0:0:0:
192,192,29942,1,0,0:0:0:0:
320,192,30049,1,0,0:0:0:0:
448,192,30049,128,0,30263:0:0:0:0:
192,192,30263,128,0,30478:0:0:0:0:
64,192,30478,128,0,30692:0:0:0:0:
320,192,30478,128,0,30692:0:0:0:0:
192,192,30799,128,0,31013:0:0:0:0:
448,192,30799,128,0,31013:0:0:0:0:
64,192,31013,1,0,0:0:0:0:
320,192,31120,1,0,0:0:0:0:
64,192,31335,128,0,31549:0:0:0:0:
192,192,31656,1,0,0:0:0:0:
320,192,31763,1,0,0:0:0:0:
448,192,31763,128,0,31978:0:0:0:0:
64,192,31978,128,0,32192:0:0:0:0:
320,192,32192,128,0,32406:0:0:0:0:
448,192,32192,128,0,32406:0:0:0:0:
64,192,32513,128,0,32728:0:0:0:0:
192,192,32513,128,0,32728:0:0:0:0:
448,192,32728,1,0,0:0:0:0:
320,192,32835,128,0,33049:0:0:0:0:
192,192,33049,128,0,33263:0:0:0:0:
448,192,33370,128,0,33585:0:0:0:0:
320,192,33585,128,0,33799:0:0:0:0:
64,192,33799,128,0,34013:0:0:0:0:
448,192,34013,1,0,0:0:0:0:
192,192,34120,1,0,0:0:0:0:
64,192,34335,1,0,0:0:0:0:
320,192,34335,128,0,34549:0:0:0:0:
448,192,34549,128,0,34763:0:0:0:0:
64,192,34763,128,0,34978:0:0:0:0:
192,192,35085,1,0,0:0:0:0:
320,192,35192,1,0,0:0:0:0:
448,192,35192,128,0,35406:0:0:0:0:
64,192,35406,128,0,35620:0:0:0:0:
192,192,35620,128,0,35835:0:0:0:0:
320,192,35620,128,0,35835:0:0:0:0:
64,192,35942,128,0,36156:0:0:0:0:
448,192,35942,128,0,36156:0:0:0:0:
192,192,36156,1,0,0:0:0:0:
320,192,36263,1,0,0:0:0:0:
64,192,36478,128,0,36692:0:0:0:0:
192,192,36799,1,0,0:0:0:0:
320,192,36906,1,0,0:0:0:0:
448,192,36906,128,0,37120:0:0:0:0:
192,192,37120,128,0,37335:0:0:0:0:
64,192,37335,128,0,37549:0:0:0:0:
320,192,37335,128,0,37549:0:0:0:0:
192,192,37656,128,0,37870:0:0:0:0:
448,192,37656,128,0,37870:0:0:0:0:
64,192,37870,1,0,0:0:0:0:
320,192,37978,1,0,0:0:0:0:
64,192,38192,128,0,38406:0:0:0:0:
192,192,38513,1,0,0:0:0:0:
320,192,38620,1,0,0:0:0:0:
448,192,38620,128,0,38835:0:0:0:0:
64,192,38835,128,0,39049:0:0:0:0:
320,192,39049,128,0,39263:0:0:0:0:
448,192,39049,128,0,39263:0:0:0:0:
64,192,39370,128,0,39585:0:0:0:0:
192,192,39370,128,0,39585:0:0:0:0:
448,192,39585,1,0,0:0:0:0:
320,192,39692,128,0,39906:0:0:0:0:
192,192,39906,128,0,40120:0:0:0:0:
448,192,40228,128,0,40442:0:0:0:0:
320,192,40442,128,0,40656:0:0:0:0:
64,192,40656,128,0,40870:0:0:0:0:
448,192,40870,1,0,0:0:0:0:
192,192,40978,1,0,0:0:0:0:
64,192,41192,1,0,0:0:0:0:
448,192,41192,128,0,41406:0:0:0:0:
192,192,41406,128,0,41620:0:0:0:0:
64,192,41620,128,0,41835:0:0:0:0:
320,192,41620,1,0,0:0:0:0:
448,192,41835,1,0,0:0:0:0:
192,192,42049,1,0,0:0:0:0:
64,192,42049,1,0,0:0:0:0:
448,192,42156,1,0,0:0:0:0:
320,192,42370,128,0,42585:0:0:0:0:
64,192,42585,1,0,0:0:0:0:
192,192,42692,1,0,0:0:0:0:
448,192,42906,1,0,0:0:0:0:
320,192,42906,128,0,43120:0:0:0:0:
192,192,43120,128,0,43335:0:0:0:0:
64,192,43335,128,0,43549:0:0:0:0:
320,192,43549,1,0,0:0:0:0:
64,192,43763,1,0,0:0:0:0:
448,192,43763,1,0,0:0:0:0:
192,192,43870,1,0,0:0:0:0:
320,192,44085,128,0,44299:0:0:0:0:
64,192,44299,1,0,0:0:0:0:
448,192,44299,1,0,0:0:0:0:
192,192,44406,1,0,0:0:0:0:
320,192,44620,1,0,0:0:0:0:
192,192,44620,128,0,44835:0:0:0:0:
64,192,44835,128,0,45049:0:0:0:0:
448,192,45049,128,0,45263:0:0:0:0:
320,192,45263,1,0,0:0:0:0:
192,192,45478,1,0,0:0:0:0:
64,192,45478,1,0,0:0:0:0:
448,192,45585,1,0,0:0:0:0:
320,192,45799,128,0,46013:0:0:0:0:
64,192,46013,1,0,0:0:0:0:
192,192,46120,1,0,0:0:0:0:
448,192,46335,1,0,0:0:0:0:
320,192,46335,128,0,46549:0:0:0:0:
192,192,46549,128,0,46763:0:0:0:0:
64,192,46763,128,0,46978:0:0:0:0:
320,192,46978,1,0,0:0:0:0:
448,192,46978,1,0,0:0:0:0:
64,192,47192,1,0,0:0:0:0:
192,192,47192,1,0,0:0:0:0:
320,192,47513,128,0,47728:0:0:0:0:
192,192,47513,1,0,0:0:0:0:
64,192,47728,1,0,0:0:0:0:
448,192,47728,1,0,0:0:0:0:
320,192,48049,1,0,0:0:0:0:
192,192,48049,1,0,0:0:0:0:
64,192,48263,128,0,48478:0:0:0:0:
320,192,48478,128,0,48692:0:0:0:0:
192,192,48478,1,0,0:0:0:0:
448,192,48692,1,0,0:0:0:0:
192,192,48906,1,0,0:0:0:0:
64,192,48906,1,0,0:0:0:0:
64,192,49120,128,0,49335:0:0:0:0:
448,192,49335,128,0,49549:0:0:0:0:
192,192,49549,1,0,0:0:0:0:
64,192,49763,1,0,0:0:0:0:
320,192,49763,1,0,0:0:0:0:
192,192,49978,1,0,0:0:0:0:
64,192,50085,1,0,0:0:0:0:
448,192,50192,128,0,50406:0:0:0:0:
320,192,50406,128,0,50620:0:0:0:0:
64,192,50620,1,0,0:0:0:0:
448,192,50620,1,0,0:0:0:0:
192,192,50728,1,0,0:0:0:0:
448,192,50942,128,0,51156:0:0:0:0:
64,192,51156,128,0,51370:0:0:0:0:
320,192,51370,128,0,51585:0:0:0:0:
192,192,51585,128,0,51799:0:0:0:0:
448,192,51799,1,0,0:0:0:0:
64,192,51906,128,0,52120:0:0:0:0:
448,192,52120,1,0,0:0:0:0:
64,192,52335,1,0,0:0:0:0:
320,192,52335,128,0,52549:0:0:0:0:
192,192,52549,128,0,52763:0:0:0:0:
448,192,52763,1,0,0:0:0:0:
320,192,52870,1,0,0:0:0:0:
64,192,52978,128,0,53192:0:0:0:0:
320,192,53192,1,0,0:0:0:0:
448,192,53192,1,0,0:0:0:0:
192,192,53406,1,0,0:0:0:0:
320,192,53513,1,0,0:0:0:0:
448,192,53620,128,0,53942:0:0:0:0:
64,192,53620,128,0,53942:0:0:0:0:
320,192,53942,1,0,0:0:0:0:
192,192,53942,1,0,0:0:0:0:
64,192,54370,128,0,54585:0:0:0:0:
320,192,54370,128,0,54585:0:0:0:0:
448,192,54585,1,0,0:0:0:0:
192,192,54799,128,0,55013:0:0:0:0:
64,192,55013,1,0,0:0:0:0:
320,192,55120,1,0,0:0:0:0:
448,192,55335,128,0,55549:0:0:0:0:
192,192,55549,1,0,0:0:0:0:
64,192,55656,1,0,0:0:0:0:
320,192,55763,128,0,55978:0:0:0:0:
448,192,55763,1,0,0:0:0:0:
64,192,55978,128,0,56192:0:0:0:0:
448,192,56192,128,0,56406:0:0:0:0:
192,192,56406,1,0,0:0:0:0:
320,192,56513,1,0,0:0:0:0:
64,192,56620,128,0,56835:0:0:0:0:
448,192,56620,1,0,0:0:0:0:
320,192,56835,128,0,57049:0:0:0:0:
448,192,57049,128,0,57263:0:0:0:0:
64,192,57263,1,0,0:0:0:0:
192,192,57370,1,0,0:0:0:0:
320,192,57478,128,0,57692:0:0:0:0:
448,192,57478,1,0,0:0:0:0:
192,192,57692,128,0,57906:0:0:0:0:
64,192,57906,128,0,58120:0:0:0:0:
320,192,58120,1,0,0:0:0:0:
448,192,58228,1,0,0:0:0:0:
192,192,58335,128,0,58549:0:0:0:0:
64,192,58335,1,0,0:0:0:0:
448,192,58549,1,0,0:0:0:0:
64,192,58656,1,0,0:0:0:0:
320,192,58763,128,0,58978:0:0:0:0:
192,192,58978,1,0,0:0:0:0:
64,192,59085,1,0,0:0:0:0:
448,192,59192,128,0,59406:0:0:0:0:
320,192,59192,1,0,0:0:0:0:
192,192,59406,1,0,0:0:0:0:
320,192,59513,1,0,0:0:0:0:
64,192,59728,1,0,0:0:0:0:
448,192,59835,1,0,0:0:0:0:
64,192,60049,128,0,60263:0:0:0:0:
192,192,60049,1,0,0:0:0:0:
448,192,60263,128,0,60478:0:0:0:0:
64,192,60478,128,0,60692:0:0:0:0:
192,192,60478,128,0,60692:0:0:0:0:
320,192,60692,1,0,0:0:0:0:
448,192,60799,1,0,0:0:0:0:
64,192,60906,1,0,0:0:0:0:
192,192,61013,128,0,61228:0:0:0:0:
448,192,61228,128,0,61442:0:0:0:0:
320,192,61228,128,0,61442:0:0:0:0:
192,192,61442,1,0,0:0:0:0:
64,192,61549,1,0,0:0:0:0:
192,192,61763,128,0,61978:0:0:0:0:
320,192,61763,1,0,0:0:0:0:
448,192,61978,128,0,62192:0:0:0:0:
64,192,62192,128,0,62406:0:0:0:0:
320,192,62406,1,0,0:0:0:0:
448,192,62620,1,0,0:0:0:0:
192,192,62620,128,0,62835:0:0:0:0:
448,192,62835,128,0,63049:0:0:0:0:
64,192,63049,128,0,63263:0:0:0:0:
320,192,63263,1,0,0:0:0:0:
192,192,63370,128,0,63585:0:0:0:0:
64,192,63692,1,0,0:0:0:0:
448,192,63799,1,0,0:0:0:0:
320,192,63906,1,0,0:0:0:0:
448,192,64120,1,0,0:0:0:0:
64,192,64335,128,0,64549:0:0:0:0:
192,192,64335,1,0,0:0:0:0:
320,192,64549,128,0,64763:0:0:0:0:
448,192,64763,128,0,64978:0:0:0:0:
192,192,64978,1,0,0:0:0:0:
64,192,65085,128,0,65299:0:0:0:0:
192,192,65299,128,0,65513:0:0:0:0:
448,192,65620,1,0,0:0:0:0:
320,192,65728,1,0,0:0:0:0:
64,192,65942,1,0,0:0:0:0:
320,192,66049,1,0,0:0:0:0:
448,192,66049,1,0,0:0:0:0:
192,192,66263,1,0,0:0:0:0:
320,192,66370,1,0,0:0:0:0:
64,192,66478,128,0,66692:0:0:0:0:
448,192,66799,128,0,67013:0:0:0:0:
320,192,67013,1,0,0:0:0:0:
192,192,67120,1,0,0:0:0:0:
64,192,67228,1,0,0:0:0:0:
448,192,67335,1,0,0:0:0:0:
320,192,67335,1,0,0:0:0:0:
64,192,67656,1,0,0:0:0:0:
192,192,67656,1,0,0:0:0:0:
64,192,67978,128,0,68406:0:0:0:0:
448,192,67978,128,0,68406:0:0:0:0:
192,192,68406,128,0,68620:0:0:0:0:
448,192,68620,1,0,0:0:0:0:
64,192,68728,1,0,0:0:0:0:
320,192,68835,1,0,0:0:0:0:
192,192,68942,1,0,0:0:0:0:
320,192,69049,128,0,69263:0:0:0:0:
448,192,69263,1,0,0:0:0:0:
192,192,69370,1,0,0:0:0:0:
320,192,69478,128,0,69799:0:0:0:0:
64,192,69478,1,0,0:0:0:0:
448,192,69799,128,0,70013:0:0:0:0:
64,192,70013,1,0,0:0:0:0:
320,192,70335,1,0,0:0:0:0:
192,192,70335,128,0,70549:0:0:0:0:
448,192,70549,128,0,70763:0:0:0:0:
64,192,70763,128,0,70978:0:0:0:0:
448,192,71085,1,0,0:0:0:0:
192,192,71192,1,0,0:0:0:0:
320,192,71299,1,0,0:0:0:0:
64,192,71513,128,0,71728:0:0:0:0:
448,192,71728,128,0,71942:0:0:0:0:
320,192,72049,128,0,72263:0:0:0:0:
192,192,72049,1,0,0:0:0:0:
64,192,72263,1,0,0:0:0:0:
192,192,72370,1,0,0:0:0:0:
448,192,72478,128,0,72692:0:0:0:0:
64,192,72692,128,0,72906:0:0:0:0:
448,192,72906,128,0,73120:0:0:0:0:
192,192,72906,1,0,0:0:0:0:
320,192,73120,1,0,0:0:0:0:
192,192,73228,1,0,0:0:0:0:
64,192,73335,128,0,73549:0:0:0:0:
320,192,73549,128,0,73763:0:0:0:0:
192,192,73763,128,0,73978:0:0:0:0:
64,192,73763,1,0,0:0:0:0:
448,192,73978,1,0,0:0:0:0:
320,192,74085,1,0,0:0:0:0:
64,192,74192,128,0,74406:0:0:0:0:
192,192,74192,128,0,74406:0:0:0:0:
448,192,74406,1,0,0:0:0:0:
320,192,74513,1,0,0:0:0:0:
64,192,74620,1,0,0:0:0:0:
192,192,74728,1,0,0:0:0:0:
64,192,74942,128,0,75156:0:0:0:0:
448,192,74942,128,0,75156:0:0:0:0:
320,192,75156,1,0,0:0:0:0:
192,192,75263,1,0,0:0:0:0:
448,192,75478,1,0,0:0:0:0:
320,192,75478,128,0,75692:0:0:0:0:
64,192,75692,128,0,75906:0:0:0:0:
