osu file format v14

[General]
AudioFilename: audio.mp3
AudioLeadIn: 0
PreviewTime: 300686
Countdown: 0
SampleSet: Normal
StackLeniency: 0.7
Mode: 3
LetterboxInBreaks: 0
SpecialStyle: 0
WidescreenStoryboard: 0

[Editor]
DistanceSpacing: 1.7
BeatDivisor: 4
GridSize: 4
TimelineZoom: 2.000006

[Metadata]
Title:Rude Buster (Camellia Remix)
TitleUnicode:Rude Buster (Camellia Remix)
Artist:Toby Fox
ArtistUnicode:Toby Fox
Creator:joser14
Version:Buster
Source:deltarune
Tags:deltarune undertale rude buster camellia toby fox
BeatmapID:3613481
BeatmapSetID:1764574

[Difficulty]
HPDrainRate:8.5
CircleSize:4
OverallDifficulty:10
ApproachRate:5
SliderMultiplier:1.4
SliderTickRate:1

[Events]
//Background and Video events
0,0,"deltarune.png",0,0
//Break Periods
//Storyboard Layer 0 (Background)
//Storyboard Layer 1 (Fail)
//Storyboard Layer 2 (Pass)
//Storyboard Layer 3 (Foreground)
//Storyboard Layer 4 (Overlay)
//Storyboard Sound Samples

[TimingPoints]
0,226.415094339623,4,1,0,15,1,0
44377,-100,4,1,0,15,0,1
58867,-100,4,1,0,15,0,0
66113,-100,4,1,0,15,0,1
80603,-100,4,1,0,15,0,0
109584,-100,4,1,0,15,0,1
124075,-100,4,1,0,15,0,0
160301,-100,4,1,0,15,0,1
174792,-100,4,1,0,15,0,0
301584,-100,4,1,0,15,0,1
330566,-100,4,1,0,15,0,0

[HitObjects]
64,192,905,128,0,4188:0:0:0:0:
192,192,905,128,0,4188:0:0:0:0:
320,192,905,128,0,4188:0:0:0:0:
448,192,4188,1,0,0:0:0:0:
192,192,4245,1,0,0:0:0:0:
320,192,4301,1,0,0:0:0:0:
64,192,4301,1,0,0:0:0:0:
448,192,4358,1,0,0:0:0:0:
320,192,4415,128,0,4528:0:0:0:0:
64,192,4415,128,0,4528:0:0:0:0:
192,192,4415,128,0,4528:0:0:0:0:
192,192,5433,1,0,0:0:0:0:
320,192,5433,1,0,0:0:0:0:
448,192,5433,1,0,0:0:0:0:
320,192,6339,1,0,0:0:0:0:
192,192,6339,1,0,0:0:0:0:
64,192,6339,1,0,0:0:0:0:
320,192,7245,1,0,0:0:0:0:
448,192,7245,1,0,0:0:0:0:
64,192,7245,128,0,8150:0:0:0:0:
448,192,7698,128,0,8150:0:0:0:0:
192,192,8150,1,0,0:0:0:0:
192,192,8264,1,0,0:0:0:0:
192,192,8377,1,0,0:0:0:0:
320,192,8377,1,0,0:0:0:0:
320,192,8490,1,0,0:0:0:0:
192,192,8603,1,0,0:0:0:0:
320,192,8603,1,0,0:0:0:0:
448,192,8603,1,0,0:0:0:0:
448,192,8716,1,0,0:0:0:0:
448,192,8830,1,0,0:0:0:0:
320,192,8830,1,0,0:0:0:0:
320,192,8943,1,0,0:0:0:0:
192,192,9056,1,0,0:0:0:0:
64,192,9056,1,0,0:0:0:0:
320,192,9056,1,0,0:0:0:0:
64,192,9169,1,0,0:0:0:0:
320,192,9283,1,0,0:0:0:0:
64,192,9283,1,0,0:0:0:0:
320,192,9396,1,0,0:0:0:0:
64,192,9509,1,0,0:0:0:0:
320,192,9509,1,0,0:0:0:0:
448,192,9509,1,0,0:0:0:0:
448,192,9622,1,0,0:0:0:0:
192,192,9735,1,0,0:0:0:0:
448,192,9735,1,0,0:0:0:0:
192,192,9849,1,0,0:0:0:0:
192,192,9962,1,0,0:0:0:0:
64,192,9962,1,0,0:0:0:0:
320,192,9962,1,0,0:0:0:0:
320,192,10075,1,0,0:0:0:0:
320,192,10188,1,0,0:0:0:0:
192,192,10188,1,0,0:0:0:0:
192,192,10301,1,0,0:0:0:0:
192,192,10415,1,0,0:0:0:0:
448,192,10415,1,0,0:0:0:0:
320,192,10415,1,0,0:0:0:0:
448,192,10528,1,0,0:0:0:0:
448,192,10641,1,0,0:0:0:0:
64,192,10641,1,0,0:0:0:0:
64,192,10754,1,0,0:0:0:0:
64,192,10867,1,0,0:0:0:0:
192,192,10867,1,0,0:0:0:0:
320,192,10867,1,0,0:0:0:0:
320,192,10981,1,0,0:0:0:0:
320,192,11094,1,0,0:0:0:0:
64,192,11094,1,0,0:0:0:0:
64,192,11207,1,0,0:0:0:0:
64,192,11320,1,0,0:0:0:0:
192,192,11320,1,0,0:0:0:0:
320,192,11320,1,0,0:0:0:0:
320,192,11433,1,0,0:0:0:0:
320,192,11547,1,0,0:0:0:0:
448,192,11547,1,0,0:0:0:0:
448,192,11660,1,0,0:0:0:0:
448,192,11773,1,0,0:0:0:0:
192,192,11773,1,0,0:0:0:0:
64,192,11773,1,0,0:0:0:0:
192,192,11886,1,0,0:0:0:0:
192,192,12000,1,0,0:0:0:0:
448,192,12000,1,0,0:0:0:0:
448,192,12113,1,0,0:0:0:0:
448,192,12226,1,0,0:0:0:0:
320,192,12226,1,0,0:0:0:0:
192,192,12226,1,0,0:0:0:0:
192,192,12339,1,0,0:0:0:0:
192,192,12452,1,0,0:0:0:0:
64,192,12452,1,0,0:0:0:0:
64,192,12566,1,0,0:0:0:0:
64,192,12679,1,0,0:0:0:0:
192,192,12679,1,0,0:0:0:0:
320,192,12679,1,0,0:0:0:0:
320,192,12792,1,0,0:0:0:0:
320,192,12905,1,0,0:0:0:0:
192,192,12905,1,0,0:0:0:0:
192,192,13018,1,0,0:0:0:0:
192,192,13132,1,0,0:0:0:0:
64,192,13132,1,0,0:0:0:0:
448,192,13132,1,0,0:0:0:0:
448,192,13245,1,0,0:0:0:0:
448,192,13358,1,0,0:0:0:0:
320,192,13358,1,0,0:0:0:0:
192,192,13358,1,0,0:0:0:0:
192,192,13471,1,0,0:0:0:0:
192,192,13584,128,0,14433:0:0:0:0:
320,192,13584,128,0,14433:0:0:0:0:
64,192,14490,1,0,0:0:0:0:
448,192,14490,1,0,0:0:0:0:
320,192,14547,1,0,0:0:0:0:
64,192,14603,1,0,0:0:0:0:
192,192,14603,1,0,0:0:0:0:
320,192,14660,1,0,0:0:0:0:
448,192,14716,128,0,14773:0:0:0:0:
192,192,14773,1,0,0:0:0:0:
64,192,14830,1,0,0:0:0:0:
448,192,14886,1,0,0:0:0:0:
320,192,14886,1,0,0:0:0:0:
192,192,14943,128,0,15000:0:0:0:0:
64,192,15000,1,0,0:0:0:0:
448,192,15000,1,0,0:0:0:0:
192,192,15056,1,0,0:0:0:0:
320,192,15113,1,0,0:0:0:0:
448,192,15169,128,0,15226:0:0:0:0:
192,192,15226,1,0,0:0:0:0:
64,192,15226,1,0,0:0:0:0:
320,192,15283,1,0,0:0:0:0:
192,192,15339,128,0,15566:0:0:0:0:
448,192,15339,128,0,15566:0:0:0:0:
320,192,15566,1,0,0:0:0:0:
64,192,15679,1,0,0:0:0:0:
192,192,15792,1,0,0:0:0:0:
320,192,15905,1,0,0:0:0:0:
448,192,16018,1,0,0:0:0:0:
192,192,16132,128,0,16245:0:0:0:0:
192,192,16415,1,0,0:0:0:0:
320,192,16528,1,0,0:0:0:0:
64,192,16641,1,0,0:0:0:0:
320,192,16754,1,0,0:0:0:0:
64,192,16981,128,0,17094:0:0:0:0:
192,192,17207,1,0,0:0:0:0:
320,192,17433,1,0,0:0:0:0:
64,192,17547,1,0,0:0:0:0:
320,192,17660,1,0,0:0:0:0:
192,192,17773,1,0,0:0:0:0:
320,192,17886,1,0,0:0:0:0:
64,192,18000,128,0,18113:0:0:0:0:
192,192,18226,1,0,0:0:0:0:
320,192,18339,1,0,0:0:0:0:
64,192,18452,1,0,0:0:0:0:
448,192,18566,1,0,0:0:0:0:
320,192,18792,128,0,18905:0:0:0:0:
192,192,19018,1,0,0:0:0:0:
448,192,19245,1,0,0:0:0:0:
64,192,19358,1,0,0:0:0:0:
320,192,19471,1,0,0:0:0:0:
192,192,19584,1,0,0:0:0:0:
320,192,19698,1,0,0:0:0:0:
64,192,19811,128,0,19924:0:0:0:0:
320,192,20037,1,0,0:0:0:0:
192,192,20150,1,0,0:0:0:0:
448,192,20264,1,0,0:0:0:0:
64,192,20377,1,0,0:0:0:0:
448,192,20603,128,0,20716:0:0:0:0:
192,192,20773,128,0,21679:0:0:0:0:
320,192,21169,128,0,21566:0:0:0:0:
64,192,21509,1,0,0:0:0:0:
320,192,21735,128,0,21849:0:0:0:0:
448,192,21792,128,0,21905:0:0:0:0:
64,192,21849,128,0,21962:0:0:0:0:
192,192,21905,128,0,22018:0:0:0:0:
320,192,21962,128,0,22075:0:0:0:0:
448,192,22018,128,0,22132:0:0:0:0:
64,192,22075,128,0,22188:0:0:0:0:
192,192,22132,128,0,22245:0:0:0:0:
320,192,22188,128,0,22301:0:0:0:0:
448,192,22245,128,0,22358:0:0:0:0:
64,192,22301,128,0,22415:0:0:0:0:
192,192,22358,128,0,22471:0:0:0:0:
320,192,22415,128,0,22528:0:0:0:0:
448,192,22471,128,0,22584:0:0:0:0:
64,192,22528,128,0,22641:0:0:0:0:
320,192,22641,1,0,0:0:0:0:
320,192,22867,1,0,0:0:0:0:
192,192,22981,1,0,0:0:0:0:
64,192,23094,1,0,0:0:0:0:
448,192,23207,1,0,0:0:0:0:
192,192,23320,1,0,0:0:0:0:
448,192,23433,128,0,23547:0:0:0:0:
448,192,23660,1,0,0:0:0:0:
64,192,23773,1,0,0:0:0:0:
320,192,23886,1,0,0:0:0:0:
64,192,24000,1,0,0:0:0:0:
448,192,24226,128,0,24339:0:0:0:0:
192,192,24452,1,0,0:0:0:0:
448,192,24679,1,0,0:0:0:0:
64,192,24792,1,0,0:0:0:0:
192,192,24905,1,0,0:0:0:0:
448,192,25018,1,0,0:0:0:0:
320,192,25132,1,0,0:0:0:0:
192,192,25245,128,0,25358:0:0:0:0:
320,192,25471,1,0,0:0:0:0:
192,192,25584,1,0,0:0:0:0:
448,192,25698,1,0,0:0:0:0:
64,192,25811,1,0,0:0:0:0:
448,192,26037,128,0,26150:0:0:0:0:
192,192,26264,1,0,0:0:0:0:
448,192,26490,1,0,0:0:0:0:
320,192,26603,1,0,0:0:0:0:
64,192,26716,1,0,0:0:0:0:
320,192,26830,1,0,0:0:0:0:
192,192,26943,1,0,0:0:0:0:
320,192,27056,128,0,27169:0:0:0:0:
192,192,27283,1,0,0:0:0:0:
320,192,27396,1,0,0:0:0:0:
192,192,27509,1,0,0:0:0:0:
448,192,27622,1,0,0:0:0:0:
192,192,27849,128,0,27962:0:0:0:0:
320,192,28075,128,0,28528:0:0:0:0:
448,192,28075,128,0,28528:0:0:0:0:
192,192,28301,1,0,0:0:0:0:
64,192,28301,1,0,0:0:0:0:
64,192,28415,128,0,28754:0:0:0:0:
192,192,28415,128,0,28754:0:0:0:0:
320,192,28716,1,0,0:0:0:0:
448,192,28716,1,0,0:0:0:0:
448,192,28830,1,0,0:0:0:0:
320,192,28867,1,0,0:0:0:0:
192,192,28905,1,0,0:0:0:0:
64,192,28943,1,0,0:0:0:0:
448,192,28981,1,0,0:0:0:0:
320,192,29018,1,0,0:0:0:0:
64,192,29056,1,0,0:0:0:0:
192,192,29094,1,0,0:0:0:0:
448,192,29132,1,0,0:0:0:0:
320,192,29169,1,0,0:0:0:0:
192,192,29207,1,0,0:0:0:0:
64,192,29245,1,0,0:0:0:0:
320,192,29283,1,0,0:0:0:0:
448,192,29320,1,0,0:0:0:0:
192,192,29358,1,0,0:0:0:0:
64,192,29396,1,0,0:0:0:0:
448,192,29433,1,0,0:0:0:0:
320,192,29471,1,0,0:0:0:0:
64,192,29509,1,0,0:0:0:0:
192,192,29547,1,0,0:0:0:0:
320,192,29584,1,0,0:0:0:0:
448,192,29622,1,0,0:0:0:0:
64,192,29660,1,0,0:0:0:0:
192,192,29698,1,0,0:0:0:0:
448,192,29735,1,0,0:0:0:0:
320,192,29773,1,0,0:0:0:0:
192,192,29811,1,0,0:0:0:0:
64,192,29849,1,0,0:0:0:0:
320,192,29886,1,0,0:0:0:0:
448,192,30113,1,0,0:0:0:0:
320,192,30226,1,0,0:0:0:0:
192,192,30339,1,0,0:0:0:0:
320,192,30452,1,0,0:0:0:0:
448,192,30509,128,0,30566:0:0:0:0:
64,192,30509,128,0,30566:0:0:0:0:
192,192,30566,1,0,0:0:0:0:
320,192,30566,1,0,0:0:0:0:
320,192,30792,1,0,0:0:0:0:
320,192,31018,1,0,0:0:0:0:
192,192,31132,1,0,0:0:0:0:
448,192,31245,1,0,0:0:0:0:
320,192,31358,1,0,0:0:0:0:
64,192,31471,1,0,0:0:0:0:
192,192,31516,1,0,0:0:0:0:
320,192,31562,1,0,0:0:0:0:
192,192,31607,1,0,0:0:0:0:
64,192,31652,1,0,0:0:0:0:
448,192,31698,1,0,0:0:0:0:
320,192,31924,1,0,0:0:0:0:
448,192,32037,1,0,0:0:0:0:
320,192,32150,1,0,0:0:0:0:
192,192,32264,1,0,0:0:0:0:
448,192,32377,1,0,0:0:0:0:
320,192,32422,1,0,0:0:0:0:
192,192,32467,1,0,0:0:0:0:
320,192,32513,1,0,0:0:0:0:
448,192,32558,1,0,0:0:0:0:
64,192,32603,1,0,0:0:0:0:
192,192,32603,1,0,0:0:0:0:
320,192,32830,1,0,0:0:0:0:
448,192,32830,1,0,0:0:0:0:
192,192,32830,1,0,0:0:0:0:
448,192,32943,1,0,0:0:0:0:
320,192,32943,1,0,0:0:0:0:
64,192,32943,1,0,0:0:0:0:
320,192,33056,1,0,0:0:0:0:
192,192,33169,1,0,0:0:0:0:
64,192,33169,1,0,0:0:0:0:
448,192,33169,1,0,0:0:0:0:
64,192,33283,1,0,0:0:0:0:
192,192,33283,1,0,0:0:0:0:
448,192,33396,1,0,0:0:0:0:
192,192,33396,1,0,0:0:0:0:
192,192,33509,1,0,0:0:0:0:
448,192,33509,1,0,0:0:0:0:
64,192,33509,1,0,0:0:0:0:
448,192,33735,1,0,0:0:0:0:
320,192,33849,1,0,0:0:0:0:
192,192,33962,1,0,0:0:0:0:
64,192,34075,1,0,0:0:0:0:
320,192,34132,128,0,34358:0:0:0:0:
448,192,34132,128,0,34358:0:0:0:0:
192,192,34415,1,0,0:0:0:0:
320,192,34641,1,0,0:0:0:0:
192,192,34754,1,0,0:0:0:0:
320,192,34867,1,0,0:0:0:0:
448,192,34981,1,0,0:0:0:0:
64,192,35094,128,0,35264:0:0:0:0:
320,192,35094,128,0,35264:0:0:0:0:
192,192,35320,1,0,0:0:0:0:
448,192,35547,1,0,0:0:0:0:
192,192,35660,1,0,0:0:0:0:
320,192,35773,1,0,0:0:0:0:
64,192,35886,1,0,0:0:0:0:
448,192,35954,1,0,0:0:0:0:
320,192,36000,1,0,0:0:0:0:
448,192,36045,1,0,0:0:0:0:
64,192,36090,1,0,0:0:0:0:
192,192,36135,1,0,0:0:0:0:
320,192,36181,1,0,0:0:0:0:
448,192,36226,1,0,0:0:0:0:
320,192,36452,1,0,0:0:0:0:
192,192,36566,1,0,0:0:0:0:
64,192,36679,1,0,0:0:0:0:
448,192,36792,128,0,37132:0:0:0:0:
320,192,36792,128,0,37132:0:0:0:0:
192,192,37132,1,0,0:0:0:0:
64,192,37132,1,0,0:0:0:0:
192,192,37245,1,0,0:0:0:0:
192,192,37358,1,0,0:0:0:0:
320,192,37358,1,0,0:0:0:0:
448,192,37358,1,0,0:0:0:0:
320,192,37471,1,0,0:0:0:0:
192,192,37584,1,0,0:0:0:0:
320,192,37584,1,0,0:0:0:0:
192,192,37698,1,0,0:0:0:0:
320,192,37811,1,0,0:0:0:0:
448,192,37811,1,0,0:0:0:0:
192,192,37867,1,0,0:0:0:0:
64,192,37867,1,0,0:0:0:0:
320,192,37924,1,0,0:0:0:0:
448,192,37924,1,0,0:0:0:0:
192,192,37981,1,0,0:0:0:0:
64,192,37981,1,0,0:0:0:0:
320,192,38037,1,0,0:0:0:0:
448,192,38037,1,0,0:0:0:0:
64,192,38150,1,0,0:0:0:0:
64,192,38264,1,0,0:0:0:0:
192,192,38264,1,0,0:0:0:0:
320,192,38264,1,0,0:0:0:0:
320,192,38377,1,0,0:0:0:0:
320,192,38490,1,0,0:0:0:0:
448,192,38490,1,0,0:0:0:0:
448,192,38603,1,0,0:0:0:0:
192,192,38716,1,0,0:0:0:0:
64,192,38716,1,0,0:0:0:0:
320,192,38773,1,0,0:0:0:0:
448,192,38773,1,0,0:0:0:0:
192,192,38830,1,0,0:0:0:0:
64,192,38830,1,0,0:0:0:0:
320,192,38886,1,0,0:0:0:0:
448,192,38886,1,0,0:0:0:0:
192,192,38943,1,0,0:0:0:0:
64,192,38943,1,0,0:0:0:0:
448,192,39056,1,0,0:0:0:0:
192,192,39169,1,0,0:0:0:0:
64,192,39169,1,0,0:0:0:0:
448,192,39169,1,0,0:0:0:0:
192,192,39283,1,0,0:0:0:0:
448,192,39396,1,0,0:0:0:0:
192,192,39396,1,0,0:0:0:0:
448,192,39509,1,0,0:0:0:0:
192,192,39622,1,0,0:0:0:0:
64,192,39622,1,0,0:0:0:0:
320,192,39679,1,0,0:0:0:0:
448,192,39679,1,0,0:0:0:0:
192,192,39735,1,0,0:0:0:0:
64,192,39735,1,0,0:0:0:0:
320,192,39792,1,0,0:0:0:0:
448,192,39792,1,0,0:0:0:0:
192,192,39849,1,0,0:0:0:0:
64,192,39849,1,0,0:0:0:0:
320,192,39962,1,0,0:0:0:0:
320,192,40075,1,0,0:0:0:0:
64,192,40075,1,0,0:0:0:0:
448,192,40075,1,0,0:0:0:0:
448,192,40188,1,0,0:0:0:0:
64,192,40301,1,0,0:0:0:0:
192,192,40320,1,0,0:0:0:0:
448,192,40358,1,0,0:0:0:0:
320,192,40358,1,0,0:0:0:0:
64,192,40415,1,0,0:0:0:0:
192,192,40433,1,0,0:0:0:0:
320,192,40452,1,0,0:0:0:0:
448,192,40490,1,0,0:0:0:0:
64,192,40547,1,0,0:0:0:0:
192,192,40547,1,0,0:0:0:0:
320,192,40584,1,0,0:0:0:0:
448,192,40603,1,0,0:0:0:0:
64,192,40641,1,0,0:0:0:0:
192,192,40660,1,0,0:0:0:0:
448,192,40716,1,0,0:0:0:0:
320,192,40716,1,0,0:0:0:0:
64,192,40754,1,0,0:0:0:0:
192,192,40754,1,0,0:0:0:0:
320,192,40830,1,0,0:0:0:0:
448,192,40830,1,0,0:0:0:0:
192,192,40849,1,0,0:0:0:0:
64,192,40867,1,0,0:0:0:0:
448,192,40924,1,0,0:0:0:0:
320,192,40943,1,0,0:0:0:0:
192,192,40962,1,0,0:0:0:0:
64,192,40981,1,0,0:0:0:0:
448,192,41037,1,0,0:0:0:0:
320,192,41037,1,0,0:0:0:0:
192,192,41075,1,0,0:0:0:0:
64,192,41094,1,0,0:0:0:0:
448,192,41150,1,0,0:0:0:0:
320,192,41169,1,0,0:0:0:0:
192,192,41207,1,0,0:0:0:0:
64,192,41207,1,0,0:0:0:0:
448,192,41264,1,0,0:0:0:0:
320,192,41264,1,0,0:0:0:0:
192,192,41301,1,0,0:0:0:0:
64,192,41320,1,0,0:0:0:0:
320,192,41358,1,0,0:0:0:0:
448,192,41377,1,0,0:0:0:0:
64,192,41433,1,0,0:0:0:0:
192,192,41452,1,0,0:0:0:0:
320,192,41471,1,0,0:0:0:0:
448,192,41490,1,0,0:0:0:0:
64,192,41528,1,0,0:0:0:0:
192,192,41547,1,0,0:0:0:0:
448,192,41603,1,0,0:0:0:0:
320,192,41622,1,0,0:0:0:0:
192,192,41641,1,0,0:0:0:0:
64,192,41660,1,0,0:0:0:0:
448,192,41716,1,0,0:0:0:0:
320,192,41735,1,0,0:0:0:0:
64,192,41773,1,0,0:0:0:0:
192,192,41773,1,0,0:0:0:0:
448,192,41811,1,0,0:0:0:0:
320,192,41849,1,0,0:0:0:0:
64,192,41886,1,0,0:0:0:0:
192,192,41905,1,0,0:0:0:0:
448,192,41943,1,0,0:0:0:0:
320,192,41943,1,0,0:0:0:0:
64,192,41981,1,0,0:0:0:0:
192,192,42000,1,0,0:0:0:0:
448,192,42056,1,0,0:0:0:0:
320,192,42056,1,0,0:0:0:0:
64,192,42113,1,0,0:0:0:0:
192,192,42113,1,0,0:0:0:0:
448,192,42169,1,0,0:0:0:0:
320,192,42169,1,0,0:0:0:0:
64,192,42226,1,0,0:0:0:0:
192,192,42226,1,0,0:0:0:0:
448,192,42283,1,0,0:0:0:0:
320,192,42283,1,0,0:0:0:0:
64,192,42339,1,0,0:0:0:0:
192,192,42339,1,0,0:0:0:0:
448,192,42396,1,0,0:0:0:0:
320,192,42396,1,0,0:0:0:0:
64,192,42452,1,0,0:0:0:0:
192,192,42452,1,0,0:0:0:0:
448,192,42509,1,0,0:0:0:0:
320,192,42509,1,0,0:0:0:0:
192,192,42566,1,0,0:0:0:0:
320,192,42792,1,0,0:0:0:0:
64,192,42905,1,0,0:0:0:0:
448,192,43018,1,0,0:0:0:0:
320,192,43132,1,0,0:0:0:0:
192,192,43132,1,0,0:0:0:0:
64,192,43245,1,0,0:0:0:0:
320,192,43358,1,0,0:0:0:0:
192,192,43584,1,0,0:0:0:0:
320,192,43698,1,0,0:0:0:0:
64,192,43811,1,0,0:0:0:0:
192,192,43924,1,0,0:0:0:0:
64,192,44150,128,0,44320:0:0:0:0:
192,192,44150,128,0,44320:0:0:0:0:
320,192,44150,128,0,44320:0:0:0:0:
448,192,44377,1,0,0:0:0:0:
320,192,44377,1,0,0:0:0:0:
192,192,44377,1,0,0:0:0:0:
320,192,44490,1,0,0:0:0:0:
320,192,44603,1,0,0:0:0:0:
448,192,44603,1,0,0:0:0:0:
192,192,44603,1,0,0:0:0:0:
192,192,44716,1,0,0:0:0:0:
448,192,44716,1,0,0:0:0:0:
192,192,44830,1,0,0:0:0:0:
64,192,44830,1,0,0:0:0:0:
320,192,44830,1,0,0:0:0:0:
448,192,44943,1,0,0:0:0:0:
448,192,45056,1,0,0:0:0:0:
320,192,45056,1,0,0:0:0:0:
192,192,45056,1,0,0:0:0:0:
320,192,45169,1,0,0:0:0:0:
64,192,45169,1,0,0:0:0:0:
64,192,45283,1,0,0:0:0:0:
448,192,45283,1,0,0:0:0:0:
192,192,45283,1,0,0:0:0:0:
320,192,45396,1,0,0:0:0:0:
448,192,45509,1,0,0:0:0:0:
192,192,45509,1,0,0:0:0:0:
320,192,45509,1,0,0:0:0:0:
192,192,45622,1,0,0:0:0:0:
64,192,45622,1,0,0:0:0:0:
64,192,45735,1,0,0:0:0:0:
192,192,45735,1,0,0:0:0:0:
320,192,45735,1,0,0:0:0:0:
448,192,45849,1,0,0:0:0:0:
192,192,45962,1,0,0:0:0:0:
320,192,45962,1,0,0:0:0:0:
448,192,45962,1,0,0:0:0:0:
320,192,46075,1,0,0:0:0:0:
64,192,46075,1,0,0:0:0:0:
64,192,46188,1,0,0:0:0:0:
192,192,46188,1,0,0:0:0:0:
448,192,46188,1,0,0:0:0:0:
320,192,46301,1,0,0:0:0:0:
320,192,46415,1,0,0:0:0:0:
448,192,46415,1,0,0:0:0:0:
64,192,46415,1,0,0:0:0:0:
192,192,46528,1,0,0:0:0:0:
448,192,46528,1,0,0:0:0:0:
64,192,46641,1,0,0:0:0:0:
320,192,46641,1,0,0:0:0:0:
448,192,46641,1,0,0:0:0:0:
64,192,46754,1,0,0:0:0:0:
448,192,46867,1,0,0:0:0:0:
320,192,46867,1,0,0:0:0:0:
192,192,46867,1,0,0:0:0:0:
320,192,46981,1,0,0:0:0:0:
192,192,46981,1,0,0:0:0:0:
64,192,47094,1,0,0:0:0:0:
448,192,47094,1,0,0:0:0:0:
320,192,47094,1,0,0:0:0:0:
192,192,47207,1,0,0:0:0:0:
448,192,47320,1,0,0:0:0:0:
192,192,47320,1,0,0:0:0:0:
320,192,47320,1,0,0:0:0:0:
320,192,47433,1,0,0:0:0:0:
64,192,47433,1,0,0:0:0:0:
64,192,47547,1,0,0:0:0:0:
192,192,47547,1,0,0:0:0:0:
448,192,47547,1,0,0:0:0:0:
320,192,47660,1,0,0:0:0:0:
192,192,47773,1,0,0:0:0:0:
320,192,47773,1,0,0:0:0:0:
448,192,47773,1,0,0:0:0:0:
448,192,47886,1,0,0:0:0:0:
64,192,47886,1,0,0:0:0:0:
64,192,48000,1,0,0:0:0:0:
192,192,48000,1,0,0:0:0:0:
448,192,48000,1,0,0:0:0:0:
64,192,48113,1,0,0:0:0:0:
64,192,48226,1,0,0:0:0:0:
320,192,48226,1,0,0:0:0:0:
448,192,48226,1,0,0:0:0:0:
192,192,48339,1,0,0:0:0:0:
320,192,48339,1,0,0:0:0:0:
448,192,48452,1,0,0:0:0:0:
64,192,48452,1,0,0:0:0:0:
320,192,48452,1,0,0:0:0:0:
192,192,48566,1,0,0:0:0:0:
192,192,48679,1,0,0:0:0:0:
448,192,48679,1,0,0:0:0:0:
64,192,48679,1,0,0:0:0:0:
448,192,48792,1,0,0:0:0:0:
64,192,48792,1,0,0:0:0:0:
64,192,48905,1,0,0:0:0:0:
448,192,48905,1,0,0:0:0:0:
192,192,48905,1,0,0:0:0:0:
448,192,49018,1,0,0:0:0:0:
64,192,49132,1,0,0:0:0:0:
320,192,49132,1,0,0:0:0:0:
192,192,49132,1,0,0:0:0:0:
448,192,49245,1,0,0:0:0:0:
64,192,49245,1,0,0:0:0:0:
320,192,49358,1,0,0:0:0:0:
192,192,49358,1,0,0:0:0:0:
448,192,49358,1,0,0:0:0:0:
192,192,49471,1,0,0:0:0:0:
320,192,49584,1,0,0:0:0:0:
448,192,49584,1,0,0:0:0:0:
192,192,49584,1,0,0:0:0:0:
192,192,49698,1,0,0:0:0:0:
448,192,49698,1,0,0:0:0:0:
64,192,49811,128,0,50150:0:0:0:0:
192,192,49811,128,0,50150:0:0:0:0:
448,192,49811,128,0,50150:0:0:0:0:
320,192,50037,1,0,0:0:0:0:
320,192,50150,128,0,50528:0:0:0:0:
448,192,50264,1,0,0:0:0:0:
64,192,50264,1,0,0:0:0:0:
192,192,50377,1,0,0:0:0:0:
64,192,50377,1,0,0:0:0:0:
448,192,50490,1,0,0:0:0:0:
192,192,50490,1,0,0:0:0:0:
64,192,50566,1,0,0:0:0:0:
192,192,50603,1,0,0:0:0:0:
320,192,50641,1,0,0:0:0:0:
448,192,50679,1,0,0:0:0:0:
64,192,50716,1,0,0:0:0:0:
192,192,50754,1,0,0:0:0:0:
320,192,50792,1,0,0:0:0:0:
448,192,50830,1,0,0:0:0:0:
64,192,50867,1,0,0:0:0:0:
192,192,50905,1,0,0:0:0:0:
320,192,50943,1,0,0:0:0:0:
448,192,50981,1,0,0:0:0:0:
64,192,51018,1,0,0:0:0:0:
192,192,51056,1,0,0:0:0:0:
320,192,51094,1,0,0:0:0:0:
448,192,51132,1,0,0:0:0:0:
64,192,51169,1,0,0:0:0:0:
192,192,51207,1,0,0:0:0:0:
320,192,51245,1,0,0:0:0:0:
448,192,51283,1,0,0:0:0:0:
64,192,51320,1,0,0:0:0:0:
192,192,51358,1,0,0:0:0:0:
320,192,51396,1,0,0:0:0:0:
448,192,51433,1,0,0:0:0:0:
64,192,51471,1,0,0:0:0:0:
192,192,51509,1,0,0:0:0:0:
320,192,51622,1,0,0:0:0:0:
192,192,51622,1,0,0:0:0:0:
64,192,51622,1,0,0:0:0:0:
448,192,51735,1,0,0:0:0:0:
64,192,51849,1,0,0:0:0:0:
448,192,51849,1,0,0:0:0:0:
192,192,51849,1,0,0:0:0:0:
320,192,51962,1,0,0:0:0:0:
448,192,51962,1,0,0:0:0:0:
192,192,52075,1,0,0:0:0:0:
448,192,52075,1,0,0:0:0:0:
64,192,52075,1,0,0:0:0:0:
192,192,52188,1,0,0:0:0:0:
64,192,52301,1,0,0:0:0:0:
448,192,52301,1,0,0:0:0:0:
320,192,52301,1,0,0:0:0:0:
320,192,52415,1,0,0:0:0:0:
448,192,52415,1,0,0:0:0:0:
64,192,52528,1,0,0:0:0:0:
192,192,52528,1,0,0:0:0:0:
320,192,52528,1,0,0:0:0:0:
448,192,52641,1,0,0:0:0:0:
192,192,52754,1,0,0:0:0:0:
320,192,52754,1,0,0:0:0:0:
64,192,52754,1,0,0:0:0:0:
448,192,52867,1,0,0:0:0:0:
192,192,52867,1,0,0:0:0:0:
320,192,52981,1,0,0:0:0:0:
448,192,52981,1,0,0:0:0:0:
64,192,52981,1,0,0:0:0:0:
64,192,53094,1,0,0:0:0:0:
320,192,53207,1,0,0:0:0:0:
448,192,53207,1,0,0:0:0:0:
192,192,53207,1,0,0:0:0:0:
448,192,53320,1,0,0:0:0:0:
320,192,53320,1,0,0:0:0:0:
320,192,53433,1,0,0:0:0:0:
192,192,53433,1,0,0:0:0:0:
64,192,53433,1,0,0:0:0:0:
192,192,53547,1,0,0:0:0:0:
64,192,53660,1,0,0:0:0:0:
448,192,53660,1,0,0:0:0:0:
192,192,53660,1,0,0:0:0:0:
64,192,53773,1,0,0:0:0:0:
448,192,53773,1,0,0:0:0:0:
192,192,53886,1,0,0:0:0:0:
448,192,53886,1,0,0:0:0:0:
320,192,53886,1,0,0:0:0:0:
64,192,54000,1,0,0:0:0:0:
192,192,54113,1,0,0:0:0:0:
448,192,54113,1,0,0:0:0:0:
64,192,54113,1,0,0:0:0:0:
320,192,54226,1,0,0:0:0:0:
448,192,54226,1,0,0:0:0:0:
64,192,54339,1,0,0:0:0:0:
192,192,54339,1,0,0:0:0:0:
320,192,54339,1,0,0:0:0:0:
448,192,54452,1,0,0:0:0:0:
192,192,54566,1,0,0:0:0:0:
320,192,54566,1,0,0:0:0:0:
64,192,54566,1,0,0:0:0:0:
320,192,54679,1,0,0:0:0:0:
64,192,54679,1,0,0:0:0:0:
64,192,54792,1,0,0:0:0:0:
448,192,54792,1,0,0:0:0:0:
192,192,54792,1,0,0:0:0:0:
192,192,54905,1,0,0:0:0:0:
320,192,55018,1,0,0:0:0:0:
448,192,55018,1,0,0:0:0:0:
64,192,55018,1,0,0:0:0:0:
448,192,55132,1,0,0:0:0:0:
192,192,55132,1,0,0:0:0:0:
448,192,55245,1,0,0:0:0:0:
192,192,55245,1,0,0:0:0:0:
320,192,55245,1,0,0:0:0:0:
448,192,55358,1,0,0:0:0:0:
64,192,55471,1,0,0:0:0:0:
192,192,55471,1,0,0:0:0:0:
448,192,55471,1,0,0:0:0:0:
192,192,55584,1,0,0:0:0:0:
320,192,55584,1,0,0:0:0:0:
192,192,55698,1,0,0:0:0:0:
448,192,55698,1,0,0:0:0:0:
64,192,55698,1,0,0:0:0:0:
320,192,55811,1,0,0:0:0:0:
192,192,55924,1,0,0:0:0:0:
448,192,55924,1,0,0:0:0:0:
64,192,55924,1,0,0:0:0:0:
192,192,56037,1,0,0:0:0:0:
320,192,56037,1,0,0:0:0:0:
64,192,56150,1,0,0:0:0:0:
192,192,56150,1,0,0:0:0:0:
448,192,56150,1,0,0:0:0:0:
448,192,56264,1,0,0:0:0:0:
192,192,56377,1,0,0:0:0:0:
320,192,56377,1,0,0:0:0:0:
64,192,56377,1,0,0:0:0:0:
448,192,56490,1,0,0:0:0:0:
320,192,56490,1,0,0:0:0:0:
320,192,56603,1,0,0:0:0:0:
448,192,56603,1,0,0:0:0:0:
64,192,56603,1,0,0:0:0:0:
192,192,56716,1,0,0:0:0:0:
64,192,56830,1,0,0:0:0:0:
448,192,56830,1,0,0:0:0:0:
192,192,56830,1,0,0:0:0:0:
448,192,56943,1,0,0:0:0:0:
320,192,56943,1,0,0:0:0:0:
64,192,57056,128,0,57396:0:0:0:0:
448,192,57056,128,0,57396:0:0:0:0:
320,192,57056,128,0,57396:0:0:0:0:
192,192,57283,1,0,0:0:0:0:
448,192,57509,1,0,0:0:0:0:
64,192,57509,1,0,0:0:0:0:
192,192,57509,128,0,57773:0:0:0:0:
320,192,57622,1,0,0:0:0:0:
448,192,57622,1,0,0:0:0:0:
320,192,57735,1,0,0:0:0:0:
64,192,57735,1,0,0:0:0:0:
448,192,57811,1,0,0:0:0:0:
320,192,57849,1,0,0:0:0:0:
192,192,57886,1,0,0:0:0:0:
64,192,57924,1,0,0:0:0:0:
448,192,57962,1,0,0:0:0:0:
320,192,58000,1,0,0:0:0:0:
192,192,58037,1,0,0:0:0:0:
64,192,58075,1,0,0:0:0:0:
448,192,58113,1,0,0:0:0:0:
320,192,58150,1,0,0:0:0:0:
192,192,58188,1,0,0:0:0:0:
64,192,58226,1,0,0:0:0:0:
448,192,58264,1,0,0:0:0:0:
320,192,58301,1,0,0:0:0:0:
192,192,58339,1,0,0:0:0:0:
64,192,58377,1,0,0:0:0:0:
448,192,58415,1,0,0:0:0:0:
320,192,58452,1,0,0:0:0:0:
192,192,58490,1,0,0:0:0:0:
64,192,58528,1,0,0:0:0:0:
448,192,58566,1,0,0:0:0:0:
320,192,58603,1,0,0:0:0:0:
192,192,58641,1,0,0:0:0:0:
64,192,58679,1,0,0:0:0:0:
448,192,58716,1,0,0:0:0:0:
320,192,58754,1,0,0:0:0:0:
192,192,58867,128,0,59320:0:0:0:0:
64,192,58867,128,0,59320:0:0:0:0:
320,192,59320,128,0,59433:0:0:0:0:
448,192,59320,128,0,59433:0:0:0:0:
192,192,59490,1,0,0:0:0:0:
64,192,59490,1,0,0:0:0:0:
320,192,59547,1,0,0:0:0:0:
448,192,59547,1,0,0:0:0:0:
192,192,59603,1,0,0:0:0:0:
64,192,59603,1,0,0:0:0:0:
320,192,59660,1,0,0:0:0:0:
448,192,59660,1,0,0:0:0:0:
192,192,59716,1,0,0:0:0:0:
64,192,59716,1,0,0:0:0:0:
320,192,59811,128,0,59886:0:0:0:0:
192,192,59886,128,0,59962:0:0:0:0:
192,192,60000,128,0,60075:0:0:0:0:
320,192,60000,128,0,60075:0:0:0:0:
448,192,60113,128,0,60188:0:0:0:0:
64,192,60226,1,0,0:0:0:0:
192,192,60226,1,0,0:0:0:0:
320,192,60283,1,0,0:0:0:0:
448,192,60283,1,0,0:0:0:0:
192,192,60339,1,0,0:0:0:0:
64,192,60339,1,0,0:0:0:0:
320,192,60396,1,0,0:0:0:0:
448,192,60396,1,0,0:0:0:0:
192,192,60452,1,0,0:0:0:0:
64,192,60452,1,0,0:0:0:0:
320,192,60509,1,0,0:0:0:0:
448,192,60509,1,0,0:0:0:0:
192,192,60566,1,0,0:0:0:0:
64,192,60566,1,0,0:0:0:0:
320,192,60622,1,0,0:0:0:0:
448,192,60622,128,0,60905:0:0:0:0:
320,192,60905,128,0,61018:0:0:0:0:
64,192,60905,128,0,61018:0:0:0:0:
192,192,60905,128,0,61018:0:0:0:0:
320,192,61075,1,0,0:0:0:0:
448,192,61075,1,0,0:0:0:0:
64,192,61132,1,0,0:0:0:0:
192,192,61132,1,0,0:0:0:0:
320,192,61188,1,0,0:0:0:0:
448,192,61188,1,0,0:0:0:0:
64,192,61245,1,0,0:0:0:0:
192,192,61245,1,0,0:0:0:0:
320,192,61301,1,0,0:0:0:0:
448,192,61301,1,0,0:0:0:0:
64,192,61358,1,0,0:0:0:0:
192,192,61358,1,0,0:0:0:0:
320,192,61415,1,0,0:0:0:0:
448,192,61415,1,0,0:0:0:0:
64,192,61471,1,0,0:0:0:0:
192,192,61471,1,0,0:0:0:0:
320,192,61528,1,0,0:0:0:0:
448,192,61528,1,0,0:0:0:0:
64,192,61584,1,0,0:0:0:0:
192,192,61584,1,0,0:0:0:0:
320,192,61641,1,0,0:0:0:0:
448,192,61641,1,0,0:0:0:0:
64,192,61698,1,0,0:0:0:0:
192,192,61698,1,0,0:0:0:0:
320,192,61754,1,0,0:0:0:0:
448,192,61754,128,0,62037:0:0:0:0:
192,192,62037,1,0,0:0:0:0:
64,192,62037,1,0,0:0:0:0:
320,192,62094,1,0,0:0:0:0:
448,192,62094,1,0,0:0:0:0:
192,192,62150,1,0,0:0:0:0:
64,192,62150,1,0,0:0:0:0:
320,192,62207,1,0,0:0:0:0:
448,192,62207,1,0,0:0:0:0:
192,192,62264,1,0,0:0:0:0:
64,192,62264,1,0,0:0:0:0:
320,192,62320,1,0,0:0:0:0:
448,192,62320,1,0,0:0:0:0:
192,192,62377,1,0,0:0:0:0:
64,192,62377,1,0,0:0:0:0:
320,192,62433,1,0,0:0:0:0:
448,192,62433,1,0,0:0:0:0:
64,192,62490,128,0,62943:0:0:0:0:
192,192,62490,128,0,62943:0:0:0:0:
320,192,62943,1,0,0:0:0:0:
448,192,62943,1,0,0:0:0:0:
192,192,63056,1,0,0:0:0:0:
448,192,63056,1,0,0:0:0:0:
320,192,63113,1,0,0:0:0:0:
64,192,63113,1,0,0:0:0:0:
192,192,63169,1,0,0:0:0:0:
448,192,63169,1,0,0:0:0:0:
320,192,63226,1,0,0:0:0:0:
64,192,63226,1,0,0:0:0:0:
192,192,63283,1,0,0:0:0:0:
448,192,63283,1,0,0:0:0:0:
64,192,63339,1,0,0:0:0:0:
320,192,63339,1,0,0:0:0:0:
192,192,63396,1,0,0:0:0:0:
448,192,63396,1,0,0:0:0:0:
64,192,63452,1,0,0:0:0:0:
320,192,63452,1,0,0:0:0:0:
192,192,63566,1,0,0:0:0:0:
448,192,63566,1,0,0:0:0:0:
320,192,63679,1,0,0:0:0:0:
64,192,63679,1,0,0:0:0:0:
192,192,63792,1,0,0:0:0:0:
448,192,63792,1,0,0:0:0:0:
64,192,63905,1,0,0:0:0:0:
192,192,63905,1,0,0:0:0:0:
320,192,63962,1,0,0:0:0:0:
448,192,63962,1,0,0:0:0:0:
192,192,64018,1,0,0:0:0:0:
64,192,64018,1,0,0:0:0:0:
320,192,64075,1,0,0:0:0:0:
448,192,64075,1,0,0:0:0:0:
192,192,64132,1,0,0:0:0:0:
64,192,64132,1,0,0:0:0:0:
320,192,64188,1,0,0:0:0:0:
448,192,64188,1,0,0:0:0:0:
192,192,64245,1,0,0:0:0:0:
64,192,64245,1,0,0:0:0:0:
320,192,64301,128,0,64528:0:0:0:0:
192,192,64528,1,0,0:0:0:0:
64,192,64641,1,0,0:0:0:0:
192,192,64754,1,0,0:0:0:0:
320,192,64867,1,0,0:0:0:0:
64,192,64981,128,0,65094:0:0:0:0:
320,192,65094,1,0,0:0:0:0:
192,192,65320,1,0,0:0:0:0:
64,192,65433,1,0,0:0:0:0:
320,192,65547,1,0,0:0:0:0:
64,192,65660,128,0,65886:0:0:0:0:
320,192,65886,128,0,66056:0:0:0:0:
448,192,65886,128,0,66056:0:0:0:0:
64,192,66113,1,0,0:0:0:0:
192,192,66113,1,0,0:0:0:0:
320,192,66113,1,0,0:0:0:0:
448,192,66226,1,0,0:0:0:0:
192,192,66339,1,0,0:0:0:0:
320,192,66339,1,0,0:0:0:0:
448,192,66339,1,0,0:0:0:0:
64,192,66452,1,0,0:0:0:0:
448,192,66566,1,0,0:0:0:0:
320,192,66566,1,0,0:0:0:0:
192,192,66566,1,0,0:0:0:0:
64,192,66679,1,0,0:0:0:0:
64,192,66792,1,0,0:0:0:0:
192,192,66792,1,0,0:0:0:0:
320,192,66792,1,0,0:0:0:0:
448,192,66905,1,0,0:0:0:0:
320,192,67018,1,0,0:0:0:0:
64,192,67018,1,0,0:0:0:0:
448,192,67018,1,0,0:0:0:0:
192,192,67132,1,0,0:0:0:0:
64,192,67245,1,0,0:0:0:0:
192,192,67245,1,0,0:0:0:0:
320,192,67245,1,0,0:0:0:0:
448,192,67358,1,0,0:0:0:0:
320,192,67471,1,0,0:0:0:0:
448,192,67471,1,0,0:0:0:0:
64,192,67471,1,0,0:0:0:0:
192,192,67584,1,0,0:0:0:0:
320,192,67698,1,0,0:0:0:0:
192,192,67698,1,0,0:0:0:0:
64,192,67698,1,0,0:0:0:0:
448,192,67811,1,0,0:0:0:0:
320,192,67924,1,0,0:0:0:0:
448,192,67924,1,0,0:0:0:0:
192,192,67924,1,0,0:0:0:0:
64,192,68037,1,0,0:0:0:0:
64,192,68150,1,0,0:0:0:0:
192,192,68150,1,0,0:0:0:0:
320,192,68150,1,0,0:0:0:0:
448,192,68264,1,0,0:0:0:0:
448,192,68377,1,0,0:0:0:0:
192,192,68377,1,0,0:0:0:0:
64,192,68377,1,0,0:0:0:0:
320,192,68490,1,0,0:0:0:0:
320,192,68603,1,0,0:0:0:0:
448,192,68603,1,0,0:0:0:0:
64,192,68603,1,0,0:0:0:0:
192,192,68716,1,0,0:0:0:0:
192,192,68830,1,0,0:0:0:0:
64,192,68830,1,0,0:0:0:0:
320,192,68830,1,0,0:0:0:0:
448,192,68943,1,0,0:0:0:0:
448,192,69056,1,0,0:0:0:0:
320,192,69056,1,0,0:0:0:0:
192,192,69056,1,0,0:0:0:0:
64,192,69169,1,0,0:0:0:0:
64,192,69283,1,0,0:0:0:0:
320,192,69283,1,0,0:0:0:0:
448,192,69283,1,0,0:0:0:0:
192,192,69396,1,0,0:0:0:0:
320,192,69509,1,0,0:0:0:0:
448,192,69509,1,0,0:0:0:0:
64,192,69509,1,0,0:0:0:0:
192,192,69622,1,0,0:0:0:0:
64,192,69735,1,0,0:0:0:0:
192,192,69735,1,0,0:0:0:0:
448,192,69735,1,0,0:0:0:0:
320,192,69849,1,0,0:0:0:0:
448,192,69962,1,0,0:0:0:0:
320,192,69962,1,0,0:0:0:0:
64,192,69962,1,0,0:0:0:0:
192,192,70075,1,0,0:0:0:0:
448,192,70188,1,0,0:0:0:0:
320,192,70188,1,0,0:0:0:0:
192,192,70188,1,0,0:0:0:0:
64,192,70301,1,0,0:0:0:0:
64,192,70415,1,0,0:0:0:0:
192,192,70415,1,0,0:0:0:0:
320,192,70415,1,0,0:0:0:0:
448,192,70528,1,0,0:0:0:0:
448,192,70641,1,0,0:0:0:0:
320,192,70641,1,0,0:0:0:0:
64,192,70641,1,0,0:0:0:0:
192,192,70754,1,0,0:0:0:0:
64,192,70867,1,0,0:0:0:0:
192,192,70867,1,0,0:0:0:0:
320,192,70867,1,0,0:0:0:0:
448,192,70981,1,0,0:0:0:0:
448,192,71094,1,0,0:0:0:0:
320,192,71094,1,0,0:0:0:0:
192,192,71094,1,0,0:0:0:0:
64,192,71207,1,0,0:0:0:0:
320,192,71320,1,0,0:0:0:0:
64,192,71320,1,0,0:0:0:0:
448,192,71320,1,0,0:0:0:0:
192,192,71433,1,0,0:0:0:0:
64,192,71547,128,0,71773:0:0:0:0:
192,192,71547,128,0,71773:0:0:0:0:
320,192,71547,128,0,71773:0:0:0:0:
448,192,71773,128,0,72000:0:0:0:0:
192,192,72000,128,0,72226:0:0:0:0:
320,192,72000,1,0,0:0:0:0:
320,192,72226,128,0,73301:0:0:0:0:
64,192,72226,1,0,0:0:0:0:
192,192,72452,1,0,0:0:0:0:
448,192,72452,1,0,0:0:0:0:
192,192,72679,1,0,0:0:0:0:
64,192,72679,1,0,0:0:0:0:
64,192,72905,128,0,72962:0:0:0:0:
192,192,72905,128,0,72962:0:0:0:0:
448,192,72905,128,0,72962:0:0:0:0:
192,192,73018,128,0,73075:0:0:0:0:
64,192,73018,128,0,73075:0:0:0:0:
448,192,73018,128,0,73075:0:0:0:0:
64,192,73132,128,0,73188:0:0:0:0:
192,192,73132,128,0,73188:0:0:0:0:
448,192,73132,128,0,73188:0:0:0:0:
448,192,73245,128,0,73301:0:0:0:0:
192,192,73245,128,0,73301:0:0:0:0:
64,192,73245,128,0,73301:0:0:0:0:
64,192,73358,1,0,0:0:0:0:
192,192,73358,1,0,0:0:0:0:
320,192,73358,1,0,0:0:0:0:
320,192,73471,1,0,0:0:0:0:
192,192,73584,1,0,0:0:0:0:
64,192,73584,1,0,0:0:0:0:
448,192,73584,1,0,0:0:0:0:
320,192,73698,1,0,0:0:0:0:
448,192,73811,1,0,0:0:0:0:
64,192,73811,1,0,0:0:0:0:
192,192,73811,1,0,0:0:0:0:
320,192,73924,1,0,0:0:0:0:
64,192,74037,1,0,0:0:0:0:
320,192,74037,1,0,0:0:0:0:
448,192,74037,1,0,0:0:0:0:
192,192,74150,1,0,0:0:0:0:
320,192,74264,1,0,0:0:0:0:
64,192,74264,1,0,0:0:0:0:
192,192,74264,1,0,0:0:0:0:
448,192,74377,1,0,0:0:0:0:
64,192,74490,1,0,0:0:0:0:
192,192,74490,1,0,0:0:0:0:
448,192,74490,1,0,0:0:0:0:
320,192,74603,1,0,0:0:0:0:
320,192,74716,1,0,0:0:0:0:
448,192,74716,1,0,0:0:0:0:
192,192,74716,1,0,0:0:0:0:
64,192,74830,1,0,0:0:0:0:
320,192,74943,1,0,0:0:0:0:
448,192,74943,1,0,0:0:0:0:
64,192,74943,1,0,0:0:0:0:
192,192,75056,1,0,0:0:0:0:
320,192,75169,1,0,0:0:0:0:
448,192,75169,1,0,0:0:0:0:
64,192,75169,1,0,0:0:0:0:
192,192,75283,1,0,0:0:0:0:
192,192,75396,1,0,0:0:0:0:
448,192,75396,1,0,0:0:0:0:
320,192,75396,1,0,0:0:0:0:
64,192,75509,1,0,0:0:0:0:
320,192,75622,1,0,0:0:0:0:
192,192,75622,1,0,0:0:0:0:
64,192,75622,1,0,0:0:0:0:
448,192,75735,1,0,0:0:0:0:
320,192,75849,1,0,0:0:0:0:
448,192,75849,1,0,0:0:0:0:
192,192,75849,1,0,0:0:0:0:
64,192,75962,1,0,0:0:0:0:
448,192,76075,1,0,0:0:0:0:
64,192,76075,1,0,0:0:0:0:
320,192,76075,1,0,0:0:0:0:
192,192,76188,1,0,0:0:0:0:
448,192,76301,1,0,0:0:0:0:
64,192,76301,1,0,0:0:0:0:
192,192,76301,1,0,0:0:0:0:
320,192,76415,1,0,0:0:0:0:
64,192,76528,1,0,0:0:0:0:
192,192,76528,1,0,0:0:0:0:
448,192,76528,1,0,0:0:0:0:
320,192,76641,1,0,0:0:0:0:
320,192,76754,1,0,0:0:0:0:
448,192,76754,1,0,0:0:0:0:
192,192,76754,1,0,0:0:0:0:
64,192,76867,1,0,0:0:0:0:
320,192,76981,1,0,0:0:0:0:
192,192,76981,1,0,0:0:0:0:
64,192,76981,1,0,0:0:0:0:
448,192,77094,1,0,0:0:0:0:
448,192,77207,1,0,0:0:0:0:
64,192,77207,1,0,0:0:0:0:
192,192,77207,1,0,0:0:0:0:
320,192,77320,1,0,0:0:0:0:
64,192,77433,1,0,0:0:0:0:
320,192,77433,1,0,0:0:0:0:
448,192,77433,1,0,0:0:0:0:
192,192,77547,1,0,0:0:0:0:
320,192,77660,1,0,0:0:0:0:
448,192,77660,1,0,0:0:0:0:
64,192,77660,1,0,0:0:0:0:
192,192,77773,1,0,0:0:0:0:
448,192,77886,1,0,0:0:0:0:
192,192,77886,1,0,0:0:0:0:
320,192,77886,1,0,0:0:0:0:
64,192,78000,1,0,0:0:0:0:
448,192,78113,1,0,0:0:0:0:
192,192,78113,1,0,0:0:0:0:
64,192,78113,1,0,0:0:0:0:
320,192,78226,1,0,0:0:0:0:
64,192,78339,1,0,0:0:0:0:
192,192,78339,1,0,0:0:0:0:
320,192,78339,1,0,0:0:0:0:
448,192,78452,1,0,0:0:0:0:
64,192,78566,1,0,0:0:0:0:
192,192,78566,1,0,0:0:0:0:
448,192,78566,1,0,0:0:0:0:
320,192,78679,1,0,0:0:0:0:
64,192,78792,1,0,0:0:0:0:
448,192,78792,1,0,0:0:0:0:
320,192,78792,1,0,0:0:0:0:
192,192,78905,1,0,0:0:0:0:
192,192,79018,1,0,0:0:0:0:
448,192,79018,1,0,0:0:0:0:
64,192,79018,1,0,0:0:0:0:
320,192,79132,1,0,0:0:0:0:
320,192,79245,1,0,0:0:0:0:
192,192,79245,1,0,0:0:0:0:
448,192,79245,1,0,0:0:0:0:
64,192,79358,1,0,0:0:0:0:
64,192,79471,1,0,0:0:0:0:
448,192,79471,1,0,0:0:0:0:
320,192,79471,1,0,0:0:0:0:
192,192,79584,1,0,0:0:0:0:
448,192,79698,1,0,0:0:0:0:
64,192,79698,1,0,0:0:0:0:
192,192,79698,1,0,0:0:0:0:
320,192,79811,1,0,0:0:0:0:
192,192,79924,1,0,0:0:0:0:
320,192,79924,1,0,0:0:0:0:
64,192,79924,1,0,0:0:0:0:
448,192,80037,1,0,0:0:0:0:
448,192,80150,1,0,0:0:0:0:
192,192,80150,1,0,0:0:0:0:
64,192,80150,1,0,0:0:0:0:
320,192,80264,1,0,0:0:0:0:
64,192,80377,1,0,0:0:0:0:
448,192,80377,1,0,0:0:0:0:
320,192,80377,1,0,0:0:0:0:
192,192,80490,1,0,0:0:0:0:
448,192,80603,128,0,80830:0:0:0:0:
320,192,80603,128,0,80830:0:0:0:0:
192,192,80603,128,0,80830:0:0:0:0:
64,192,80603,128,0,80830:0:0:0:0:
192,192,80943,1,0,0:0:0:0:
64,192,80943,1,0,0:0:0:0:
320,192,81056,1,0,0:0:0:0:
320,192,81169,1,0,0:0:0:0:
320,192,81283,1,0,0:0:0:0:
320,192,81396,1,0,0:0:0:0:
320,192,81509,1,0,0:0:0:0:
192,192,81509,1,0,0:0:0:0:
64,192,81509,1,0,0:0:0:0:
64,192,81735,1,0,0:0:0:0:
192,192,81735,1,0,0:0:0:0:
64,192,81849,128,0,82415:0:0:0:0:
192,192,81849,128,0,82415:0:0:0:0:
320,192,82415,128,0,82754:0:0:0:0:
448,192,82415,128,0,82754:0:0:0:0:
192,192,82754,1,0,0:0:0:0:
192,192,82867,1,0,0:0:0:0:
192,192,82981,1,0,0:0:0:0:
192,192,83094,1,0,0:0:0:0:
192,192,83207,1,0,0:0:0:0:
192,192,83320,1,0,0:0:0:0:
320,192,83320,1,0,0:0:0:0:
448,192,83320,1,0,0:0:0:0:
320,192,83547,1,0,0:0:0:0:
448,192,83547,1,0,0:0:0:0:
448,192,83660,128,0,84226:0:0:0:0:
320,192,83660,128,0,84226:0:0:0:0:
192,192,84226,128,0,84566:0:0:0:0:
64,192,84226,128,0,84566:0:0:0:0:
320,192,84566,1,0,0:0:0:0:
320,192,84679,1,0,0:0:0:0:
320,192,84792,1,0,0:0:0:0:
320,192,84905,1,0,0:0:0:0:
320,192,85018,1,0,0:0:0:0:
320,192,85132,1,0,0:0:0:0:
192,192,85132,1,0,0:0:0:0:
448,192,85132,1,0,0:0:0:0:
192,192,85358,1,0,0:0:0:0:
448,192,85358,1,0,0:0:0:0:
192,192,85471,128,0,85811:0:0:0:0:
448,192,85471,128,0,85811:0:0:0:0:
320,192,85698,128,0,85924:0:0:0:0:
64,192,85811,1,0,0:0:0:0:
192,192,85924,1,0,0:0:0:0:
320,192,86037,1,0,0:0:0:0:
448,192,86037,1,0,0:0:0:0:
192,192,86037,1,0,0:0:0:0:
64,192,86150,1,0,0:0:0:0:
192,192,86264,1,0,0:0:0:0:
320,192,86264,1,0,0:0:0:0:
448,192,86377,1,0,0:0:0:0:
320,192,86490,1,0,0:0:0:0:
192,192,86490,1,0,0:0:0:0:
64,192,86490,1,0,0:0:0:0:
448,192,86603,1,0,0:0:0:0:
320,192,86716,1,0,0:0:0:0:
64,192,86716,1,0,0:0:0:0:
192,192,86830,1,0,0:0:0:0:
448,192,86886,1,0,0:0:0:0:
320,192,86886,1,0,0:0:0:0:
192,192,86943,1,0,0:0:0:0:
64,192,86943,1,0,0:0:0:0:
320,192,87000,1,0,0:0:0:0:
448,192,87000,1,0,0:0:0:0:
192,192,87056,1,0,0:0:0:0:
64,192,87056,1,0,0:0:0:0:
320,192,87113,128,0,87849:0:0:0:0:
448,192,87113,128,0,87849:0:0:0:0:
192,192,87283,1,0,0:0:0:0:
64,192,87283,1,0,0:0:0:0:
192,192,87396,1,0,0:0:0:0:
64,192,87396,1,0,0:0:0:0:
192,192,87849,128,0,88188:0:0:0:0:
64,192,87849,128,0,88188:0:0:0:0:
320,192,88188,1,0,0:0:0:0:
320,192,88301,1,0,0:0:0:0:
320,192,88415,1,0,0:0:0:0:
320,192,88528,1,0,0:0:0:0:
320,192,88641,1,0,0:0:0:0:
320,192,88754,1,0,0:0:0:0:
64,192,88754,1,0,0:0:0:0:
448,192,88754,1,0,0:0:0:0:
64,192,89094,128,0,89660:0:0:0:0:
448,192,89094,128,0,89660:0:0:0:0:
192,192,89094,1,0,0:0:0:0:
320,192,89094,1,0,0:0:0:0:
320,192,89660,128,0,90000:0:0:0:0:
192,192,89660,128,0,90000:0:0:0:0:
64,192,90000,1,0,0:0:0:0:
64,192,90113,1,0,0:0:0:0:
64,192,90226,1,0,0:0:0:0:
64,192,90339,1,0,0:0:0:0:
64,192,90452,1,0,0:0:0:0:
64,192,90566,1,0,0:0:0:0:
192,192,90566,1,0,0:0:0:0:
320,192,90566,1,0,0:0:0:0:
192,192,90905,128,0,91415:0:0:0:0:
320,192,90905,128,0,91415:0:0:0:0:
64,192,91245,1,0,0:0:0:0:
448,192,91301,1,0,0:0:0:0:
64,192,91358,1,0,0:0:0:0:
448,192,91415,1,0,0:0:0:0:
448,192,91811,1,0,0:0:0:0:
448,192,91924,1,0,0:0:0:0:
448,192,92037,1,0,0:0:0:0:
448,192,92150,1,0,0:0:0:0:
448,192,92264,1,0,0:0:0:0:
448,192,92377,1,0,0:0:0:0:
64,192,92377,128,0,92716:0:0:0:0:
192,192,92377,128,0,92716:0:0:0:0:
448,192,92773,128,0,93056:0:0:0:0:
192,192,92773,128,0,93056:0:0:0:0:
64,192,93056,128,0,93226:0:0:0:0:
320,192,93056,128,0,93226:0:0:0:0:
64,192,93283,128,0,93509:0:0:0:0:
192,192,93283,128,0,93509:0:0:0:0:
448,192,93622,1,0,0:0:0:0:
64,192,93792,1,0,0:0:0:0:
192,192,94018,128,0,94415:0:0:0:0:
320,192,94018,128,0,94415:0:0:0:0:
448,192,94018,128,0,94415:0:0:0:0:
64,192,94415,1,0,0:0:0:0:
64,192,94641,1,0,0:0:0:0:
320,192,94641,1,0,0:0:0:0:
448,192,94641,1,0,0:0:0:0:
64,192,94867,1,0,0:0:0:0:
320,192,94867,1,0,0:0:0:0:
192,192,94867,1,0,0:0:0:0:
192,192,95094,128,0,98660:0:0:0:0:
320,192,95094,128,0,98660:0:0:0:0:
448,192,95094,128,0,98660:0:0:0:0:
64,192,98716,1,0,0:0:0:0:
320,192,98943,1,0,0:0:0:0:
192,192,99056,1,0,0:0:0:0:
64,192,99169,1,0,0:0:0:0:
192,192,99283,1,0,0:0:0:0:
448,192,99396,1,0,0:0:0:0:
320,192,99509,1,0,0:0:0:0:
192,192,99735,1,0,0:0:0:0:
320,192,99849,1,0,0:0:0:0:
64,192,99962,1,0,0:0:0:0:
192,192,100075,1,0,0:0:0:0:
320,192,100301,1,0,0:0:0:0:
64,192,100528,1,0,0:0:0:0:
448,192,100528,1,0,0:0:0:0:
192,192,100867,1,0,0:0:0:0:
320,192,100867,1,0,0:0:0:0:
448,192,101433,128,0,101547:0:0:0:0:
192,192,101433,1,0,0:0:0:0:
64,192,101433,1,0,0:0:0:0:
320,192,101490,128,0,101603:0:0:0:0:
192,192,101547,128,0,101660:0:0:0:0:
64,192,101603,128,0,101716:0:0:0:0:
448,192,101660,128,0,101773:0:0:0:0:
320,192,101716,128,0,101830:0:0:0:0:
192,192,101773,128,0,101886:0:0:0:0:
64,192,101830,128,0,101943:0:0:0:0:
448,192,101886,128,0,102000:0:0:0:0:
320,192,101943,128,0,102056:0:0:0:0:
192,192,102000,128,0,102113:0:0:0:0:
64,192,102056,128,0,102169:0:0:0:0:
448,192,102113,128,0,102226:0:0:0:0:
320,192,102169,128,0,102283:0:0:0:0:
448,192,102339,1,0,0:0:0:0:
448,192,102452,1,0,0:0:0:0:
448,192,102566,1,0,0:0:0:0:
448,192,102679,1,0,0:0:0:0:
448,192,102792,1,0,0:0:0:0:
448,192,102905,1,0,0:0:0:0:
448,192,103018,1,0,0:0:0:0:
320,192,103018,1,0,0:0:0:0:
192,192,103075,1,0,0:0:0:0:
64,192,103075,1,0,0:0:0:0:
320,192,103132,1,0,0:0:0:0:
448,192,103132,1,0,0:0:0:0:
192,192,103188,1,0,0:0:0:0:
64,192,103188,1,0,0:0:0:0:
320,192,103245,1,0,0:0:0:0:
448,192,103245,1,0,0:0:0:0:
320,192,103358,1,0,0:0:0:0:
320,192,103471,1,0,0:0:0:0:
320,192,103584,1,0,0:0:0:0:
320,192,103698,1,0,0:0:0:0:
448,192,103698,1,0,0:0:0:0:
192,192,103754,1,0,0:0:0:0:
64,192,103754,1,0,0:0:0:0:
320,192,103811,1,0,0:0:0:0:
448,192,103811,1,0,0:0:0:0:
192,192,103867,1,0,0:0:0:0:
64,192,103867,1,0,0:0:0:0:
320,192,103924,1,0,0:0:0:0:
448,192,103924,1,0,0:0:0:0:
192,192,103981,1,0,0:0:0:0:
64,192,103981,1,0,0:0:0:0:
320,192,104037,1,0,0:0:0:0:
448,192,104037,1,0,0:0:0:0:
64,192,104150,1,0,0:0:0:0:
64,192,104264,1,0,0:0:0:0:
64,192,104377,1,0,0:0:0:0:
64,192,104490,1,0,0:0:0:0:
64,192,104603,1,0,0:0:0:0:
64,192,104716,1,0,0:0:0:0:
64,192,104830,1,0,0:0:0:0:
192,192,104830,1,0,0:0:0:0:
448,192,104886,1,0,0:0:0:0:
320,192,104886,1,0,0:0:0:0:
192,192,104943,1,0,0:0:0:0:
64,192,104943,1,0,0:0:0:0:
320,192,105000,1,0,0:0:0:0:
448,192,105000,1,0,0:0:0:0:
192,192,105056,1,0,0:0:0:0:
64,192,105056,1,0,0:0:0:0:
192,192,105169,1,0,0:0:0:0:
192,192,105283,1,0,0:0:0:0:
192,192,105396,1,0,0:0:0:0:
64,192,105509,1,0,0:0:0:0:
192,192,105528,1,0,0:0:0:0:
320,192,105547,1,0,0:0:0:0:
448,192,105566,1,0,0:0:0:0:
64,192,105622,1,0,0:0:0:0:
192,192,105641,1,0,0:0:0:0:
320,192,105660,1,0,0:0:0:0:
448,192,105660,1,0,0:0:0:0:
64,192,105735,1,0,0:0:0:0:
192,192,105754,1,0,0:0:0:0:
448,192,105773,1,0,0:0:0:0:
320,192,105792,1,0,0:0:0:0:
64,192,105830,1,0,0:0:0:0:
192,192,105849,1,0,0:0:0:0:
320,192,105886,1,0,0:0:0:0:
448,192,105886,1,0,0:0:0:0:
192,192,105962,1,0,0:0:0:0:
64,192,105981,1,0,0:0:0:0:
448,192,106000,1,0,0:0:0:0:
320,192,106018,1,0,0:0:0:0:
192,192,106056,1,0,0:0:0:0:
64,192,106075,1,0,0:0:0:0:
320,192,106113,1,0,0:0:0:0:
448,192,106132,1,0,0:0:0:0:
192,192,106169,1,0,0:0:0:0:
64,192,106188,1,0,0:0:0:0:
320,192,106226,1,0,0:0:0:0:
448,192,106245,1,0,0:0:0:0:
64,192,106301,1,0,0:0:0:0:
192,192,106320,1,0,0:0:0:0:
448,192,106339,1,0,0:0:0:0:
320,192,106358,1,0,0:0:0:0:
64,192,106415,1,0,0:0:0:0:
192,192,106415,1,0,0:0:0:0:
448,192,106452,1,0,0:0:0:0:
320,192,106471,1,0,0:0:0:0:
64,192,106528,1,0,0:0:0:0:
192,192,106547,1,0,0:0:0:0:
448,192,106566,1,0,0:0:0:0:
320,192,106584,1,0,0:0:0:0:
192,192,106641,1,0,0:0:0:0:
64,192,106641,1,0,0:0:0:0:
320,192,106679,1,0,0:0:0:0:
448,192,106698,1,0,0:0:0:0:
64,192,106754,1,0,0:0:0:0:
192,192,106773,1,0,0:0:0:0:
448,192,106792,1,0,0:0:0:0:
320,192,106811,1,0,0:0:0:0:
192,192,106867,1,0,0:0:0:0:
64,192,106867,1,0,0:0:0:0:
448,192,106924,1,0,0:0:0:0:
320,192,106924,1,0,0:0:0:0:
192,192,106962,1,0,0:0:0:0:
64,192,106981,1,0,0:0:0:0:
448,192,107037,1,0,0:0:0:0:
320,192,107056,1,0,0:0:0:0:
192,192,107075,1,0,0:0:0:0:
64,192,107075,1,0,0:0:0:0:
448,192,107150,1,0,0:0:0:0:
320,192,107150,1,0,0:0:0:0:
64,192,107207,1,0,0:0:0:0:
192,192,107207,1,0,0:0:0:0:
320,192,107264,1,0,0:0:0:0:
448,192,107264,1,0,0:0:0:0:
64,192,107320,1,0,0:0:0:0:
192,192,107320,1,0,0:0:0:0:
320,192,107377,1,0,0:0:0:0:
448,192,107377,1,0,0:0:0:0:
192,192,107433,1,0,0:0:0:0:
64,192,107433,1,0,0:0:0:0:
448,192,107490,1,0,0:0:0:0:
320,192,107490,1,0,0:0:0:0:
192,192,107547,1,0,0:0:0:0:
64,192,107547,1,0,0:0:0:0:
320,192,107603,1,0,0:0:0:0:
448,192,107603,1,0,0:0:0:0:
64,192,107660,1,0,0:0:0:0:
192,192,107660,1,0,0:0:0:0:
448,192,107716,1,0,0:0:0:0:
320,192,107716,1,0,0:0:0:0:
64,192,107773,1,0,0:0:0:0:
192,192,108000,1,0,0:0:0:0:
320,192,108113,1,0,0:0:0:0:
64,192,108226,1,0,0:0:0:0:
448,192,108339,1,0,0:0:0:0:
320,192,108452,1,0,0:0:0:0:
192,192,108566,1,0,0:0:0:0:
320,192,108792,1,0,0:0:0:0:
192,192,108905,1,0,0:0:0:0:
192,192,109018,1,0,0:0:0:0:
448,192,109132,1,0,0:0:0:0:
64,192,109358,1,0,0:0:0:0:
64,192,109584,1,0,0:0:0:0:
448,192,109584,1,0,0:0:0:0:
320,192,109584,1,0,0:0:0:0:
192,192,109698,1,0,0:0:0:0:
64,192,109811,1,0,0:0:0:0:
320,192,109811,1,0,0:0:0:0:
448,192,109811,1,0,0:0:0:0:
192,192,109924,1,0,0:0:0:0:
448,192,110037,1,0,0:0:0:0:
64,192,110037,1,0,0:0:0:0:
192,192,110037,1,0,0:0:0:0:
320,192,110150,1,0,0:0:0:0:
64,192,110264,1,0,0:0:0:0:
192,192,110264,1,0,0:0:0:0:
448,192,110264,1,0,0:0:0:0:
320,192,110377,1,0,0:0:0:0:
320,192,110490,1,0,0:0:0:0:
64,192,110490,1,0,0:0:0:0:
192,192,110490,1,0,0:0:0:0:
448,192,110603,1,0,0:0:0:0:
64,192,110716,1,0,0:0:0:0:
448,192,110716,1,0,0:0:0:0:
320,192,110716,1,0,0:0:0:0:
192,192,110830,1,0,0:0:0:0:
192,192,110943,1,0,0:0:0:0:
448,192,110943,1,0,0:0:0:0:
64,192,110943,1,0,0:0:0:0:
320,192,111056,1,0,0:0:0:0:
320,192,111169,1,0,0:0:0:0:
448,192,111169,1,0,0:0:0:0:
64,192,111169,1,0,0:0:0:0:
192,192,111283,1,0,0:0:0:0:
320,192,111396,1,0,0:0:0:0:
448,192,111396,1,0,0:0:0:0:
192,192,111396,1,0,0:0:0:0:
64,192,111509,1,0,0:0:0:0:
448,192,111622,1,0,0:0:0:0:
192,192,111622,1,0,0:0:0:0:
320,192,111622,1,0,0:0:0:0:
64,192,111735,1,0,0:0:0:0:
448,192,111849,1,0,0:0:0:0:
192,192,111849,1,0,0:0:0:0:
64,192,111849,1,0,0:0:0:0:
320,192,111962,1,0,0:0:0:0:
320,192,112075,1,0,0:0:0:0:
192,192,112075,1,0,0:0:0:0:
64,192,112075,1,0,0:0:0:0:
448,192,112188,1,0,0:0:0:0:
448,192,112301,1,0,0:0:0:0:
64,192,112301,1,0,0:0:0:0:
320,192,112301,1,0,0:0:0:0:
192,192,112415,1,0,0:0:0:0:
448,192,112528,1,0,0:0:0:0:
64,192,112528,1,0,0:0:0:0:
192,192,112528,1,0,0:0:0:0:
320,192,112641,1,0,0:0:0:0:
192,192,112754,1,0,0:0:0:0:
320,192,112754,1,0,0:0:0:0:
448,192,112754,1,0,0:0:0:0:
64,192,112867,1,0,0:0:0:0:
192,192,112981,1,0,0:0:0:0:
448,192,112981,1,0,0:0:0:0:
64,192,112981,1,0,0:0:0:0:
320,192,113094,1,0,0:0:0:0:
64,192,113207,1,0,0:0:0:0:
320,192,113207,1,0,0:0:0:0:
448,192,113207,1,0,0:0:0:0:
192,192,113320,1,0,0:0:0:0:
448,192,113433,1,0,0:0:0:0:
320,192,113433,1,0,0:0:0:0:
192,192,113433,1,0,0:0:0:0:
64,192,113547,1,0,0:0:0:0:
64,192,113660,1,0,0:0:0:0:
320,192,113660,1,0,0:0:0:0:
192,192,113660,1,0,0:0:0:0:
448,192,113773,1,0,0:0:0:0:
64,192,113886,1,0,0:0:0:0:
448,192,113886,1,0,0:0:0:0:
320,192,113886,1,0,0:0:0:0:
192,192,114000,1,0,0:0:0:0:
448,192,114113,1,0,0:0:0:0:
192,192,114113,1,0,0:0:0:0:
64,192,114113,1,0,0:0:0:0:
320,192,114226,1,0,0:0:0:0:
64,192,114339,1,0,0:0:0:0:
192,192,114339,1,0,0:0:0:0:
320,192,114339,1,0,0:0:0:0:
448,192,114452,1,0,0:0:0:0:
448,192,114566,1,0,0:0:0:0:
320,192,114566,1,0,0:0:0:0:
64,192,114566,1,0,0:0:0:0:
192,192,114679,1,0,0:0:0:0:
320,192,114792,1,0,0:0:0:0:
192,192,114792,1,0,0:0:0:0:
448,192,114792,1,0,0:0:0:0:
64,192,114905,1,0,0:0:0:0:
64,192,115018,128,0,115245:0:0:0:0:
192,192,115018,128,0,115245:0:0:0:0:
448,192,115018,128,0,115245:0:0:0:0:
320,192,115245,128,0,115471:0:0:0:0:
64,192,115471,128,0,115698:0:0:0:0:
448,192,115471,1,0,0:0:0:0:
192,192,115698,1,0,0:0:0:0:
448,192,115698,128,0,116377:0:0:0:0:
192,192,115924,1,0,0:0:0:0:
64,192,115924,1,0,0:0:0:0:
320,192,116150,1,0,0:0:0:0:
64,192,116150,1,0,0:0:0:0:
192,192,116377,1,0,0:0:0:0:
64,192,116377,1,0,0:0:0:0:
64,192,116490,1,0,0:0:0:0:
192,192,116490,1,0,0:0:0:0:
192,192,116603,1,0,0:0:0:0:
64,192,116603,1,0,0:0:0:0:
320,192,116660,1,0,0:0:0:0:
448,192,116660,1,0,0:0:0:0:
192,192,116716,1,0,0:0:0:0:
64,192,116716,1,0,0:0:0:0:
320,192,116773,1,0,0:0:0:0:
448,192,116773,1,0,0:0:0:0:
320,192,116886,1,0,0:0:0:0:
448,192,116886,1,0,0:0:0:0:
64,192,117056,1,0,0:0:0:0:
192,192,117056,1,0,0:0:0:0:
448,192,117056,1,0,0:0:0:0:
320,192,117169,1,0,0:0:0:0:
192,192,117283,1,0,0:0:0:0:
64,192,117283,1,0,0:0:0:0:
320,192,117283,1,0,0:0:0:0:
448,192,117396,1,0,0:0:0:0:
448,192,117509,1,0,0:0:0:0:
320,192,117509,1,0,0:0:0:0:
64,192,117509,1,0,0:0:0:0:
192,192,117622,1,0,0:0:0:0:
448,192,117735,1,0,0:0:0:0:
192,192,117735,1,0,0:0:0:0:
320,192,117735,1,0,0:0:0:0:
64,192,117849,1,0,0:0:0:0:
320,192,117962,1,0,0:0:0:0:
64,192,117962,1,0,0:0:0:0:
192,192,117962,1,0,0:0:0:0:
448,192,118075,1,0,0:0:0:0:
64,192,118188,1,0,0:0:0:0:
192,192,118188,1,0,0:0:0:0:
448,192,118188,1,0,0:0:0:0:
320,192,118301,1,0,0:0:0:0:
192,192,118415,1,0,0:0:0:0:
448,192,118415,1,0,0:0:0:0:
64,192,118415,1,0,0:0:0:0:
320,192,118528,1,0,0:0:0:0:
320,192,118641,1,0,0:0:0:0:
192,192,118641,1,0,0:0:0:0:
448,192,118641,1,0,0:0:0:0:
64,192,118754,1,0,0:0:0:0:
320,192,118867,1,0,0:0:0:0:
448,192,118867,1,0,0:0:0:0:
64,192,118867,1,0,0:0:0:0:
192,192,118981,1,0,0:0:0:0:
64,192,119094,1,0,0:0:0:0:
192,192,119094,1,0,0:0:0:0:
448,192,119094,1,0,0:0:0:0:
320,192,119207,1,0,0:0:0:0:
320,192,119320,1,0,0:0:0:0:
192,192,119320,1,0,0:0:0:0:
64,192,119320,1,0,0:0:0:0:
448,192,119433,1,0,0:0:0:0:
320,192,119547,1,0,0:0:0:0:
192,192,119547,1,0,0:0:0:0:
64,192,119547,1,0,0:0:0:0:
448,192,119660,1,0,0:0:0:0:
448,192,119773,1,0,0:0:0:0:
64,192,119773,1,0,0:0:0:0:
320,192,119773,1,0,0:0:0:0:
192,192,119886,1,0,0:0:0:0:
448,192,120000,1,0,0:0:0:0:
64,192,120000,1,0,0:0:0:0:
192,192,120000,1,0,0:0:0:0:
320,192,120113,1,0,0:0:0:0:
192,192,120226,1,0,0:0:0:0:
320,192,120226,1,0,0:0:0:0:
448,192,120226,1,0,0:0:0:0:
64,192,120339,1,0,0:0:0:0:
64,192,120452,1,0,0:0:0:0:
448,192,120452,1,0,0:0:0:0:
192,192,120452,1,0,0:0:0:0:
320,192,120566,1,0,0:0:0:0:
64,192,120679,1,0,0:0:0:0:
192,192,120679,1,0,0:0:0:0:
320,192,120679,1,0,0:0:0:0:
448,192,120792,1,0,0:0:0:0:
448,192,120905,1,0,0:0:0:0:
320,192,120905,1,0,0:0:0:0:
192,192,120905,1,0,0:0:0:0:
64,192,121018,1,0,0:0:0:0:
448,192,121132,1,0,0:0:0:0:
320,192,121132,1,0,0:0:0:0:
64,192,121132,1,0,0:0:0:0:
192,192,121245,1,0,0:0:0:0:
64,192,121358,1,0,0:0:0:0:
192,192,121358,1,0,0:0:0:0:
448,192,121358,1,0,0:0:0:0:
320,192,121471,1,0,0:0:0:0:
192,192,121584,1,0,0:0:0:0:
448,192,121584,1,0,0:0:0:0:
64,192,121584,1,0,0:0:0:0:
320,192,121698,1,0,0:0:0:0:
64,192,121811,1,0,0:0:0:0:
448,192,121811,1,0,0:0:0:0:
320,192,121811,1,0,0:0:0:0:
192,192,121924,1,0,0:0:0:0:
448,192,122037,1,0,0:0:0:0:
320,192,122037,1,0,0:0:0:0:
64,192,122037,1,0,0:0:0:0:
192,192,122150,1,0,0:0:0:0:
64,192,122264,128,0,122490:0:0:0:0:
448,192,122264,128,0,122490:0:0:0:0:
320,192,122264,128,0,122490:0:0:0:0:
192,192,122490,128,0,122716:0:0:0:0:
320,192,122716,128,0,122943:0:0:0:0:
448,192,122716,128,0,122943:0:0:0:0:
64,192,122943,128,0,123396:0:0:0:0:
192,192,122943,128,0,123396:0:0:0:0:
320,192,123283,1,0,0:0:0:0:
448,192,123283,1,0,0:0:0:0:
320,192,123396,1,0,0:0:0:0:
448,192,123396,1,0,0:0:0:0:
192,192,123452,1,0,0:0:0:0:
64,192,123452,1,0,0:0:0:0:
320,192,123509,1,0,0:0:0:0:
448,192,123509,1,0,0:0:0:0:
192,192,123566,1,0,0:0:0:0:
64,192,123566,1,0,0:0:0:0:
320,192,123622,1,0,0:0:0:0:
448,192,123622,1,0,0:0:0:0:
320,192,123735,1,0,0:0:0:0:
448,192,123735,1,0,0:0:0:0:
192,192,123849,1,0,0:0:0:0:
64,192,123849,1,0,0:0:0:0:
320,192,123962,1,0,0:0:0:0:
448,192,123962,1,0,0:0:0:0:
320,192,124075,1,0,0:0:0:0:
448,192,124075,1,0,0:0:0:0:
448,192,124301,1,0,0:0:0:0:
192,192,124301,1,0,0:0:0:0:
192,192,124415,1,0,0:0:0:0:
64,192,124415,1,0,0:0:0:0:
320,192,124415,1,0,0:0:0:0:
320,192,124528,1,0,0:0:0:0:
448,192,124528,1,0,0:0:0:0:
320,192,124641,1,0,0:0:0:0:
320,192,124754,1,0,0:0:0:0:
192,192,124754,1,0,0:0:0:0:
64,192,124754,1,0,0:0:0:0:
320,192,124867,1,0,0:0:0:0:
192,192,124981,1,0,0:0:0:0:
64,192,124981,1,0,0:0:0:0:
320,192,124981,1,0,0:0:0:0:
320,192,125207,1,0,0:0:0:0:
448,192,125207,1,0,0:0:0:0:
64,192,125320,128,0,125886:0:0:0:0:
192,192,125320,128,0,125886:0:0:0:0:
320,192,125320,1,0,0:0:0:0:
448,192,125320,1,0,0:0:0:0:
320,192,125547,1,0,0:0:0:0:
448,192,125547,1,0,0:0:0:0:
320,192,125660,1,0,0:0:0:0:
448,192,125660,1,0,0:0:0:0:
320,192,125886,1,0,0:0:0:0:
448,192,125886,1,0,0:0:0:0:
320,192,126113,1,0,0:0:0:0:
448,192,126113,1,0,0:0:0:0:
192,192,126226,1,0,0:0:0:0:
192,192,126339,1,0,0:0:0:0:
320,192,126339,1,0,0:0:0:0:
64,192,126339,1,0,0:0:0:0:
192,192,126452,1,0,0:0:0:0:
192,192,126566,1,0,0:0:0:0:
320,192,126566,1,0,0:0:0:0:
448,192,126566,1,0,0:0:0:0:
192,192,126679,1,0,0:0:0:0:
192,192,126792,1,0,0:0:0:0:
320,192,126792,1,0,0:0:0:0:
448,192,126792,1,0,0:0:0:0:
192,192,127018,1,0,0:0:0:0:
64,192,127018,1,0,0:0:0:0:
448,192,127132,128,0,127698:0:0:0:0:
320,192,127132,128,0,127698:0:0:0:0:
192,192,127132,1,0,0:0:0:0:
64,192,127132,1,0,0:0:0:0:
64,192,127358,1,0,0:0:0:0:
192,192,127358,1,0,0:0:0:0:
64,192,127471,1,0,0:0:0:0:
192,192,127471,1,0,0:0:0:0:
64,192,127698,1,0,0:0:0:0:
192,192,127698,1,0,0:0:0:0:
192,192,127924,1,0,0:0:0:0:
64,192,127924,1,0,0:0:0:0:
320,192,128037,1,0,0:0:0:0:
320,192,128150,1,0,0:0:0:0:
64,192,128150,1,0,0:0:0:0:
320,192,128264,1,0,0:0:0:0:
320,192,128377,1,0,0:0:0:0:
192,192,128377,1,0,0:0:0:0:
320,192,128490,1,0,0:0:0:0:
320,192,128603,1,0,0:0:0:0:
64,192,128603,1,0,0:0:0:0:
320,192,128830,1,0,0:0:0:0:
64,192,128830,1,0,0:0:0:0:
192,192,128943,128,0,129283:0:0:0:0:
448,192,128943,128,0,129283:0:0:0:0:
320,192,128943,1,0,0:0:0:0:
64,192,128943,1,0,0:0:0:0:
64,192,129169,1,0,0:0:0:0:
320,192,129169,1,0,0:0:0:0:
320,192,129283,1,0,0:0:0:0:
64,192,129283,128,0,129509:0:0:0:0:
192,192,129509,1,0,0:0:0:0:
448,192,129735,1,0,0:0:0:0:
192,192,129735,1,0,0:0:0:0:
192,192,129849,1,0,0:0:0:0:
320,192,129962,1,0,0:0:0:0:
192,192,129962,1,0,0:0:0:0:
64,192,129962,1,0,0:0:0:0:
320,192,130075,1,0,0:0:0:0:
320,192,130188,1,0,0:0:0:0:
448,192,130188,1,0,0:0:0:0:
192,192,130245,1,0,0:0:0:0:
64,192,130245,1,0,0:0:0:0:
320,192,130301,1,0,0:0:0:0:
448,192,130301,1,0,0:0:0:0:
192,192,130358,1,0,0:0:0:0:
64,192,130358,1,0,0:0:0:0:
448,192,130415,128,0,131320:0:0:0:0:
320,192,130415,128,0,131320:0:0:0:0:
64,192,130641,1,0,0:0:0:0:
192,192,130641,1,0,0:0:0:0:
192,192,130867,1,0,0:0:0:0:
64,192,130867,1,0,0:0:0:0:
192,192,131094,1,0,0:0:0:0:
64,192,131094,1,0,0:0:0:0:
64,192,131320,1,0,0:0:0:0:
64,192,131433,1,0,0:0:0:0:
64,192,131547,1,0,0:0:0:0:
192,192,131547,1,0,0:0:0:0:
320,192,131660,1,0,0:0:0:0:
448,192,131660,1,0,0:0:0:0:
320,192,131773,1,0,0:0:0:0:
192,192,131886,1,0,0:0:0:0:
64,192,132000,1,0,0:0:0:0:
192,192,132113,1,0,0:0:0:0:
320,192,132226,1,0,0:0:0:0:
448,192,132226,1,0,0:0:0:0:
448,192,132339,1,0,0:0:0:0:
320,192,132339,1,0,0:0:0:0:
64,192,132339,1,0,0:0:0:0:
320,192,132452,1,0,0:0:0:0:
448,192,132452,1,0,0:0:0:0:
192,192,132566,1,0,0:0:0:0:
64,192,132566,1,0,0:0:0:0:
64,192,132679,1,0,0:0:0:0:
448,192,132679,1,0,0:0:0:0:
192,192,132792,1,0,0:0:0:0:
64,192,132792,1,0,0:0:0:0:
192,192,132905,1,0,0:0:0:0:
320,192,133018,1,0,0:0:0:0:
448,192,133132,1,0,0:0:0:0:
448,192,133245,1,0,0:0:0:0:
320,192,133358,1,0,0:0:0:0:
448,192,133358,1,0,0:0:0:0:
192,192,133471,1,0,0:0:0:0:
64,192,133471,1,0,0:0:0:0:
192,192,133584,1,0,0:0:0:0:
320,192,133698,1,0,0:0:0:0:
448,192,133811,1,0,0:0:0:0:
320,192,133924,1,0,0:0:0:0:
192,192,134037,1,0,0:0:0:0:
64,192,134037,1,0,0:0:0:0:
192,192,134150,1,0,0:0:0:0:
448,192,134150,1,0,0:0:0:0:
320,192,134150,1,0,0:0:0:0:
192,192,134264,1,0,0:0:0:0:
64,192,134264,1,0,0:0:0:0:
192,192,134377,1,0,0:0:0:0:
320,192,134377,1,0,0:0:0:0:
64,192,134490,1,0,0:0:0:0:
448,192,134490,1,0,0:0:0:0:
64,192,134603,1,0,0:0:0:0:
448,192,134716,1,0,0:0:0:0:
320,192,134830,1,0,0:0:0:0:
192,192,134943,1,0,0:0:0:0:
192,192,135056,1,0,0:0:0:0:
320,192,135169,1,0,0:0:0:0:
192,192,135169,1,0,0:0:0:0:
64,192,135283,1,0,0:0:0:0:
448,192,135283,1,0,0:0:0:0:
448,192,135396,1,0,0:0:0:0:
320,192,135509,1,0,0:0:0:0:
192,192,135622,1,0,0:0:0:0:
64,192,135735,1,0,0:0:0:0:
192,192,135849,1,0,0:0:0:0:
320,192,135849,1,0,0:0:0:0:
320,192,135962,1,0,0:0:0:0:
64,192,135962,1,0,0:0:0:0:
192,192,135962,1,0,0:0:0:0:
320,192,136075,1,0,0:0:0:0:
448,192,136075,1,0,0:0:0:0:
320,192,136188,1,0,0:0:0:0:
192,192,136188,1,0,0:0:0:0:
448,192,136301,1,0,0:0:0:0:
320,192,136415,1,0,0:0:0:0:
64,192,136528,1,0,0:0:0:0:
192,192,136641,1,0,0:0:0:0:
320,192,136754,1,0,0:0:0:0:
64,192,137037,1,0,0:0:0:0:
192,192,137037,1,0,0:0:0:0:
192,192,137264,1,0,0:0:0:0:
448,192,137264,1,0,0:0:0:0:
320,192,137490,128,0,137886:0:0:0:0:
448,192,137490,128,0,137886:0:0:0:0:
64,192,138113,1,0,0:0:0:0:
192,192,138113,1,0,0:0:0:0:
320,192,138113,1,0,0:0:0:0:
192,192,138339,1,0,0:0:0:0:
320,192,138339,1,0,0:0:0:0:
448,192,138339,1,0,0:0:0:0:
192,192,138452,1,0,0:0:0:0:
320,192,138452,1,0,0:0:0:0:
448,192,138452,1,0,0:0:0:0:
192,192,138566,128,0,141283:0:0:0:0:
320,192,138566,128,0,141283:0:0:0:0:
448,192,138566,128,0,141283:0:0:0:0:
64,192,143094,128,0,143660:0:0:0:0:
448,192,143547,128,0,144849:0:0:0:0:
64,192,144905,128,0,145018:0:0:0:0:
192,192,144962,128,0,145075:0:0:0:0:
320,192,145018,128,0,145132:0:0:0:0:
448,192,145075,128,0,145188:0:0:0:0:
64,192,145132,128,0,145245:0:0:0:0:
192,192,145188,128,0,145301:0:0:0:0:
320,192,145245,128,0,145358:0:0:0:0:
448,192,145301,128,0,145415:0:0:0:0:
64,192,145358,128,0,145471:0:0:0:0:
192,192,145415,128,0,145528:0:0:0:0:
320,192,145471,128,0,145584:0:0:0:0:
448,192,145528,128,0,145641:0:0:0:0:
64,192,145584,128,0,145698:0:0:0:0:
192,192,145641,128,0,145754:0:0:0:0:
448,192,145811,1,0,0:0:0:0:
192,192,146037,1,0,0:0:0:0:
448,192,146150,1,0,0:0:0:0:
320,192,146264,1,0,0:0:0:0:
192,192,146377,1,0,0:0:0:0:
320,192,146490,128,0,146716:0:0:0:0:
448,192,146490,128,0,146716:0:0:0:0:
192,192,146716,1,0,0:0:0:0:
64,192,146943,1,0,0:0:0:0:
320,192,147056,1,0,0:0:0:0:
192,192,147169,1,0,0:0:0:0:
448,192,147283,1,0,0:0:0:0:
448,192,147396,128,0,147452:0:0:0:0:
192,192,147396,128,0,147452:0:0:0:0:
64,192,147396,128,0,147452:0:0:0:0:
192,192,147509,1,0,0:0:0:0:
64,192,147509,1,0,0:0:0:0:
320,192,147622,1,0,0:0:0:0:
192,192,147849,1,0,0:0:0:0:
64,192,147962,1,0,0:0:0:0:
192,192,148075,1,0,0:0:0:0:
448,192,148188,1,0,0:0:0:0:
192,192,148301,128,0,148471:0:0:0:0:
64,192,148301,128,0,148471:0:0:0:0:
320,192,148301,128,0,148471:0:0:0:0:
448,192,148301,128,0,148471:0:0:0:0:
320,192,148528,1,0,0:0:0:0:
192,192,148528,1,0,0:0:0:0:
64,192,148754,1,0,0:0:0:0:
448,192,148754,1,0,0:0:0:0:
320,192,148754,1,0,0:0:0:0:
192,192,148867,1,0,0:0:0:0:
320,192,148867,1,0,0:0:0:0:
64,192,148867,1,0,0:0:0:0:
192,192,148981,1,0,0:0:0:0:
320,192,149094,1,0,0:0:0:0:
64,192,149094,1,0,0:0:0:0:
448,192,149094,1,0,0:0:0:0:
448,192,149207,1,0,0:0:0:0:
320,192,149207,1,0,0:0:0:0:
64,192,149320,1,0,0:0:0:0:
192,192,149320,1,0,0:0:0:0:
320,192,149433,1,0,0:0:0:0:
448,192,149433,1,0,0:0:0:0:
64,192,149433,1,0,0:0:0:0:
192,192,149660,1,0,0:0:0:0:
320,192,149773,1,0,0:0:0:0:
192,192,149886,1,0,0:0:0:0:
64,192,150000,1,0,0:0:0:0:
448,192,150113,128,0,150245:0:0:0:0:
320,192,150150,128,0,150283:0:0:0:0:
64,192,150339,1,0,0:0:0:0:
320,192,150566,1,0,0:0:0:0:
64,192,150679,1,0,0:0:0:0:
320,192,150792,1,0,0:0:0:0:
192,192,150905,1,0,0:0:0:0:
448,192,151018,128,0,151245:0:0:0:0:
320,192,151075,128,0,151245:0:0:0:0:
192,192,151132,128,0,151245:0:0:0:0:
64,192,151245,1,0,0:0:0:0:
448,192,151471,1,0,0:0:0:0:
320,192,151584,1,0,0:0:0:0:
192,192,151698,1,0,0:0:0:0:
64,192,151811,1,0,0:0:0:0:
192,192,151924,128,0,152037:0:0:0:0:
448,192,152094,1,0,0:0:0:0:
320,192,152150,1,0,0:0:0:0:
64,192,152196,1,0,0:0:0:0:
192,192,152241,1,0,0:0:0:0:
448,192,152286,1,0,0:0:0:0:
320,192,152332,1,0,0:0:0:0:
64,192,152377,1,0,0:0:0:0:
192,192,152422,1,0,0:0:0:0:
448,192,152467,1,0,0:0:0:0:
320,192,152513,1,0,0:0:0:0:
64,192,152558,1,0,0:0:0:0:
192,192,152603,1,0,0:0:0:0:
448,192,152649,1,0,0:0:0:0:
320,192,152694,1,0,0:0:0:0:
64,192,152739,1,0,0:0:0:0:
192,192,152784,1,0,0:0:0:0:
448,192,152830,1,0,0:0:0:0:
320,192,152875,1,0,0:0:0:0:
64,192,152920,1,0,0:0:0:0:
192,192,152966,1,0,0:0:0:0:
448,192,152966,1,0,0:0:0:0:
320,192,153011,1,0,0:0:0:0:
64,192,153056,1,0,0:0:0:0:
64,192,153169,1,0,0:0:0:0:
64,192,153283,1,0,0:0:0:0:
64,192,153396,1,0,0:0:0:0:
64,192,153509,1,0,0:0:0:0:
64,192,153622,1,0,0:0:0:0:
64,192,153735,1,0,0:0:0:0:
192,192,153735,1,0,0:0:0:0:
320,192,153792,1,0,0:0:0:0:
448,192,153792,1,0,0:0:0:0:
64,192,153849,1,0,0:0:0:0:
192,192,153849,1,0,0:0:0:0:
448,192,153905,1,0,0:0:0:0:
320,192,153905,1,0,0:0:0:0:
192,192,153962,1,0,0:0:0:0:
64,192,153962,1,0,0:0:0:0:
192,192,154075,1,0,0:0:0:0:
192,192,154188,1,0,0:0:0:0:
192,192,154301,1,0,0:0:0:0:
192,192,154415,1,0,0:0:0:0:
64,192,154415,1,0,0:0:0:0:
320,192,154471,1,0,0:0:0:0:
448,192,154471,1,0,0:0:0:0:
192,192,154528,1,0,0:0:0:0:
64,192,154528,1,0,0:0:0:0:
320,192,154584,1,0,0:0:0:0:
448,192,154584,1,0,0:0:0:0:
192,192,154641,1,0,0:0:0:0:
64,192,154641,1,0,0:0:0:0:
320,192,154698,1,0,0:0:0:0:
448,192,154698,1,0,0:0:0:0:
192,192,154754,1,0,0:0:0:0:
64,192,154754,1,0,0:0:0:0:
448,192,154867,1,0,0:0:0:0:
448,192,154981,1,0,0:0:0:0:
448,192,155094,1,0,0:0:0:0:
448,192,155207,1,0,0:0:0:0:
448,192,155320,1,0,0:0:0:0:
448,192,155433,1,0,0:0:0:0:
320,192,155547,1,0,0:0:0:0:
448,192,155547,1,0,0:0:0:0:
192,192,155603,1,0,0:0:0:0:
64,192,155603,1,0,0:0:0:0:
320,192,155660,1,0,0:0:0:0:
448,192,155660,1,0,0:0:0:0:
64,192,155716,1,0,0:0:0:0:
192,192,155716,1,0,0:0:0:0:
448,192,155773,1,0,0:0:0:0:
320,192,155773,1,0,0:0:0:0:
320,192,155886,1,0,0:0:0:0:
320,192,156000,1,0,0:0:0:0:
320,192,156113,1,0,0:0:0:0:
64,192,156240,1,0,0:0:0:0:
192,192,156254,1,0,0:0:0:0:
320,192,156268,1,0,0:0:0:0:
448,192,156283,1,0,0:0:0:0:
64,192,156339,1,0,0:0:0:0:
192,192,156367,1,0,0:0:0:0:
320,192,156377,1,0,0:0:0:0:
448,192,156396,1,0,0:0:0:0:
64,192,156452,1,0,0:0:0:0:
192,192,156466,1,0,0:0:0:0:
320,192,156481,1,0,0:0:0:0:
448,192,156509,1,0,0:0:0:0:
192,192,156566,1,0,0:0:0:0:
64,192,156580,1,0,0:0:0:0:
448,192,156608,1,0,0:0:0:0:
320,192,156608,1,0,0:0:0:0:
192,192,156665,1,0,0:0:0:0:
64,192,156679,1,0,0:0:0:0:
448,192,156716,1,0,0:0:0:0:
320,192,156735,1,0,0:0:0:0:
192,192,156778,1,0,0:0:0:0:
64,192,156778,1,0,0:0:0:0:
320,192,156820,1,0,0:0:0:0:
448,192,156834,1,0,0:0:0:0:
192,192,156905,1,0,0:0:0:0:
64,192,156905,1,0,0:0:0:0:
320,192,156919,1,0,0:0:0:0:
448,192,156962,1,0,0:0:0:0:
64,192,157018,1,0,0:0:0:0:
192,192,157018,1,0,0:0:0:0:
320,192,157047,1,0,0:0:0:0:
448,192,157056,1,0,0:0:0:0:
64,192,157132,1,0,0:0:0:0:
192,192,157132,1,0,0:0:0:0:
320,192,157174,1,0,0:0:0:0:
448,192,157202,1,0,0:0:0:0:
64,192,157245,1,0,0:0:0:0:
192,192,157264,1,0,0:0:0:0:
320,192,157287,1,0,0:0:0:0:
448,192,157316,1,0,0:0:0:0:
192,192,157358,1,0,0:0:0:0:
64,192,157358,1,0,0:0:0:0:
320,192,157396,1,0,0:0:0:0:
448,192,157415,1,0,0:0:0:0:
64,192,157471,1,0,0:0:0:0:
192,192,157490,1,0,0:0:0:0:
448,192,157509,1,0,0:0:0:0:
320,192,157528,1,0,0:0:0:0:
192,192,157584,1,0,0:0:0:0:
64,192,157584,1,0,0:0:0:0:
448,192,157641,1,0,0:0:0:0:
320,192,157641,1,0,0:0:0:0:
192,192,157679,1,0,0:0:0:0:
64,192,157698,1,0,0:0:0:0:
448,192,157754,1,0,0:0:0:0:
320,192,157773,1,0,0:0:0:0:
192,192,157792,1,0,0:0:0:0:
64,192,157792,1,0,0:0:0:0:
448,192,157867,1,0,0:0:0:0:
320,192,157867,1,0,0:0:0:0:
64,192,157924,1,0,0:0:0:0:
192,192,157924,1,0,0:0:0:0:
320,192,157981,1,0,0:0:0:0:
448,192,157981,1,0,0:0:0:0:
64,192,158037,1,0,0:0:0:0:
192,192,158037,1,0,0:0:0:0:
320,192,158094,1,0,0:0:0:0:
448,192,158094,1,0,0:0:0:0:
192,192,158150,1,0,0:0:0:0:
64,192,158150,1,0,0:0:0:0:
448,192,158207,1,0,0:0:0:0:
320,192,158207,1,0,0:0:0:0:
192,192,158264,1,0,0:0:0:0:
64,192,158264,1,0,0:0:0:0:
320,192,158320,1,0,0:0:0:0:
448,192,158320,1,0,0:0:0:0:
64,192,158377,1,0,0:0:0:0:
192,192,158377,1,0,0:0:0:0:
448,192,158433,1,0,0:0:0:0:
320,192,158433,1,0,0:0:0:0:
192,192,158490,1,0,0:0:0:0:
64,192,158716,1,0,0:0:0:0:
320,192,158830,1,0,0:0:0:0:
320,192,158943,128,0,159396:0:0:0:0:
448,192,158943,128,0,159396:0:0:0:0:
192,192,159396,1,0,0:0:0:0:
64,192,159396,1,0,0:0:0:0:
448,192,159622,1,0,0:0:0:0:
192,192,159622,1,0,0:0:0:0:
192,192,159735,1,0,0:0:0:0:
64,192,159735,1,0,0:0:0:0:
320,192,159962,1,0,0:0:0:0:
448,192,159962,1,0,0:0:0:0:
64,192,160075,1,0,0:0:0:0:
320,192,160075,1,0,0:0:0:0:
320,192,160188,1,0,0:0:0:0:
192,192,160301,1,0,0:0:0:0:
64,192,160301,1,0,0:0:0:0:
448,192,160301,1,0,0:0:0:0:
320,192,160358,1,0,0:0:0:0:
192,192,160415,1,0,0:0:0:0:
64,192,160471,1,0,0:0:0:0:
320,192,160528,1,0,0:0:0:0:
192,192,160528,1,0,0:0:0:0:
448,192,160584,1,0,0:0:0:0:
320,192,160641,1,0,0:0:0:0:
192,192,160698,1,0,0:0:0:0:
64,192,160754,1,0,0:0:0:0:
448,192,160754,1,0,0:0:0:0:
320,192,160811,1,0,0:0:0:0:
64,192,160867,1,0,0:0:0:0:
192,192,160924,1,0,0:0:0:0:
320,192,160981,1,0,0:0:0:0:
448,192,160981,1,0,0:0:0:0:
192,192,161037,1,0,0:0:0:0:
64,192,161094,1,0,0:0:0:0:
320,192,161150,1,0,0:0:0:0:
192,192,161207,1,0,0:0:0:0:
64,192,161207,1,0,0:0:0:0:
448,192,161207,1,0,0:0:0:0:
320,192,161264,1,0,0:0:0:0:
192,192,161320,1,0,0:0:0:0:
448,192,161377,1,0,0:0:0:0:
192,192,161433,1,0,0:0:0:0:
64,192,161433,1,0,0:0:0:0:
448,192,161490,1,0,0:0:0:0:
320,192,161547,1,0,0:0:0:0:
192,192,161603,1,0,0:0:0:0:
448,192,161660,1,0,0:0:0:0:
64,192,161660,1,0,0:0:0:0:
320,192,161716,1,0,0:0:0:0:
192,192,161773,1,0,0:0:0:0:
320,192,161830,1,0,0:0:0:0:
448,192,161886,1,0,0:0:0:0:
64,192,161886,1,0,0:0:0:0:
320,192,161943,1,0,0:0:0:0:
192,192,162000,1,0,0:0:0:0:
64,192,162056,1,0,0:0:0:0:
192,192,162113,1,0,0:0:0:0:
320,192,162113,1,0,0:0:0:0:
448,192,162113,1,0,0:0:0:0:
64,192,162169,1,0,0:0:0:0:
448,192,162226,1,0,0:0:0:0:
320,192,162283,1,0,0:0:0:0:
64,192,162339,1,0,0:0:0:0:
192,192,162339,1,0,0:0:0:0:
448,192,162339,1,0,0:0:0:0:
320,192,162396,1,0,0:0:0:0:
192,192,162452,1,0,0:0:0:0:
448,192,162509,1,0,0:0:0:0:
64,192,162566,1,0,0:0:0:0:
320,192,162566,1,0,0:0:0:0:
192,192,162622,1,0,0:0:0:0:
448,192,162679,1,0,0:0:0:0:
320,192,162735,1,0,0:0:0:0:
192,192,162792,1,0,0:0:0:0:
64,192,162792,1,0,0:0:0:0:
320,192,162849,1,0,0:0:0:0:
448,192,162905,1,0,0:0:0:0:
64,192,162962,1,0,0:0:0:0:
192,192,163018,1,0,0:0:0:0:
320,192,163018,1,0,0:0:0:0:
448,192,163018,1,0,0:0:0:0:
64,192,163075,1,0,0:0:0:0:
192,192,163132,1,0,0:0:0:0:
320,192,163188,1,0,0:0:0:0:
192,192,163245,1,0,0:0:0:0:
64,192,163245,1,0,0:0:0:0:
448,192,163301,1,0,0:0:0:0:
320,192,163358,1,0,0:0:0:0:
192,192,163415,1,0,0:0:0:0:
448,192,163471,1,0,0:0:0:0:
320,192,163471,1,0,0:0:0:0:
192,192,163528,1,0,0:0:0:0:
64,192,163584,1,0,0:0:0:0:
320,192,163641,1,0,0:0:0:0:
192,192,163698,1,0,0:0:0:0:
64,192,163698,1,0,0:0:0:0:
448,192,163754,1,0,0:0:0:0:
192,192,163811,1,0,0:0:0:0:
64,192,163867,1,0,0:0:0:0:
192,192,163924,1,0,0:0:0:0:
320,192,163924,1,0,0:0:0:0:
448,192,163924,1,0,0:0:0:0:
448,192,164037,1,0,0:0:0:0:
64,192,164037,1,0,0:0:0:0:
320,192,164150,1,0,0:0:0:0:
64,192,164150,1,0,0:0:0:0:
448,192,164264,1,0,0:0:0:0:
192,192,164264,1,0,0:0:0:0:
448,192,164377,1,0,0:0:0:0:
192,192,164377,1,0,0:0:0:0:
64,192,164377,1,0,0:0:0:0:
320,192,164490,1,0,0:0:0:0:
192,192,164490,1,0,0:0:0:0:
64,192,164603,1,0,0:0:0:0:
448,192,164603,1,0,0:0:0:0:
320,192,164603,1,0,0:0:0:0:
192,192,164716,1,0,0:0:0:0:
448,192,164716,1,0,0:0:0:0:
320,192,164830,1,0,0:0:0:0:
192,192,164830,1,0,0:0:0:0:
64,192,164830,1,0,0:0:0:0:
448,192,164943,1,0,0:0:0:0:
64,192,164943,1,0,0:0:0:0:
448,192,165056,1,0,0:0:0:0:
320,192,165056,1,0,0:0:0:0:
192,192,165056,1,0,0:0:0:0:
192,192,165169,1,0,0:0:0:0:
320,192,165169,1,0,0:0:0:0:
64,192,165283,1,0,0:0:0:0:
448,192,165283,1,0,0:0:0:0:
320,192,165283,1,0,0:0:0:0:
448,192,165396,1,0,0:0:0:0:
64,192,165396,1,0,0:0:0:0:
192,192,165509,1,0,0:0:0:0:
64,192,165509,1,0,0:0:0:0:
320,192,165509,1,0,0:0:0:0:
192,192,165622,1,0,0:0:0:0:
448,192,165622,1,0,0:0:0:0:
320,192,165735,1,0,0:0:0:0:
192,192,165735,1,0,0:0:0:0:
64,192,165735,1,0,0:0:0:0:
448,192,165849,1,0,0:0:0:0:
320,192,165849,1,0,0:0:0:0:
448,192,165962,1,0,0:0:0:0:
192,192,165962,1,0,0:0:0:0:
320,192,165962,1,0,0:0:0:0:
64,192,166075,1,0,0:0:0:0:
192,192,166075,1,0,0:0:0:0:
320,192,166188,1,0,0:0:0:0:
448,192,166188,1,0,0:0:0:0:
64,192,166188,1,0,0:0:0:0:
192,192,166301,1,0,0:0:0:0:
448,192,166301,1,0,0:0:0:0:
320,192,166415,1,0,0:0:0:0:
448,192,166415,1,0,0:0:0:0:
64,192,166415,1,0,0:0:0:0:
192,192,166528,1,0,0:0:0:0:
64,192,166528,1,0,0:0:0:0:
192,192,166641,1,0,0:0:0:0:
320,192,166641,1,0,0:0:0:0:
448,192,166641,1,0,0:0:0:0:
320,192,166754,1,0,0:0:0:0:
192,192,166754,1,0,0:0:0:0:
64,192,166867,1,0,0:0:0:0:
320,192,166867,1,0,0:0:0:0:
448,192,166867,1,0,0:0:0:0:
192,192,166981,1,0,0:0:0:0:
64,192,166981,1,0,0:0:0:0:
192,192,167094,1,0,0:0:0:0:
320,192,167094,1,0,0:0:0:0:
448,192,167094,1,0,0:0:0:0:
448,192,167207,1,0,0:0:0:0:
64,192,167207,1,0,0:0:0:0:
64,192,167320,1,0,0:0:0:0:
192,192,167320,1,0,0:0:0:0:
320,192,167320,1,0,0:0:0:0:
320,192,167433,1,0,0:0:0:0:
448,192,167433,1,0,0:0:0:0:
64,192,167547,1,0,0:0:0:0:
448,192,167547,1,0,0:0:0:0:
192,192,167547,1,0,0:0:0:0:
320,192,167603,1,0,0:0:0:0:
192,192,167660,1,0,0:0:0:0:
64,192,167716,1,0,0:0:0:0:
320,192,167773,1,0,0:0:0:0:
448,192,167773,1,0,0:0:0:0:
192,192,167830,1,0,0:0:0:0:
64,192,167886,1,0,0:0:0:0:
320,192,167943,1,0,0:0:0:0:
64,192,168000,1,0,0:0:0:0:
448,192,168000,1,0,0:0:0:0:
320,192,168056,1,0,0:0:0:0:
192,192,168113,1,0,0:0:0:0:
448,192,168169,1,0,0:0:0:0:
192,192,168226,1,0,0:0:0:0:
64,192,168226,1,0,0:0:0:0:
320,192,168283,1,0,0:0:0:0:
448,192,168339,1,0,0:0:0:0:
64,192,168339,1,0,0:0:0:0:
192,192,168396,1,0,0:0:0:0:
320,192,168452,1,0,0:0:0:0:
64,192,168452,1,0,0:0:0:0:
448,192,168452,1,0,0:0:0:0:
192,192,168509,1,0,0:0:0:0:
320,192,168566,1,0,0:0:0:0:
64,192,168622,1,0,0:0:0:0:
320,192,168679,1,0,0:0:0:0:
448,192,168679,1,0,0:0:0:0:
64,192,168735,1,0,0:0:0:0:
192,192,168792,1,0,0:0:0:0:
448,192,168849,1,0,0:0:0:0:
64,192,168905,1,0,0:0:0:0:
320,192,168905,1,0,0:0:0:0:
192,192,168962,1,0,0:0:0:0:
320,192,169018,1,0,0:0:0:0:
448,192,169075,1,0,0:0:0:0:
192,192,169132,1,0,0:0:0:0:
64,192,169132,1,0,0:0:0:0:
320,192,169188,1,0,0:0:0:0:
448,192,169245,1,0,0:0:0:0:
192,192,169301,1,0,0:0:0:0:
320,192,169358,1,0,0:0:0:0:
64,192,169358,1,0,0:0:0:0:
448,192,169358,1,0,0:0:0:0:
192,192,169415,1,0,0:0:0:0:
448,192,169471,1,0,0:0:0:0:
64,192,169528,1,0,0:0:0:0:
192,192,169584,1,0,0:0:0:0:
320,192,169584,1,0,0:0:0:0:
448,192,169641,1,0,0:0:0:0:
192,192,169698,1,0,0:0:0:0:
320,192,169754,1,0,0:0:0:0:
448,192,169811,1,0,0:0:0:0:
64,192,169811,1,0,0:0:0:0:
320,192,169867,1,0,0:0:0:0:
192,192,169924,1,0,0:0:0:0:
448,192,169981,1,0,0:0:0:0:
192,192,170037,1,0,0:0:0:0:
320,192,170037,1,0,0:0:0:0:
64,192,170094,1,0,0:0:0:0:
320,192,170150,1,0,0:0:0:0:
448,192,170150,1,0,0:0:0:0:
192,192,170207,1,0,0:0:0:0:
448,192,170264,1,0,0:0:0:0:
64,192,170264,1,0,0:0:0:0:
320,192,170264,1,0,0:0:0:0:
192,192,170320,1,0,0:0:0:0:
64,192,170377,1,0,0:0:0:0:
192,192,170433,1,0,0:0:0:0:
320,192,170490,1,0,0:0:0:0:
448,192,170490,1,0,0:0:0:0:
192,192,170547,1,0,0:0:0:0:
64,192,170603,1,0,0:0:0:0:
320,192,170660,1,0,0:0:0:0:
64,192,170716,1,0,0:0:0:0:
448,192,170716,1,0,0:0:0:0:
320,192,170773,1,0,0:0:0:0:
192,192,170830,1,0,0:0:0:0:
64,192,170886,1,0,0:0:0:0:
192,192,170943,1,0,0:0:0:0:
448,192,170943,1,0,0:0:0:0:
320,192,171000,1,0,0:0:0:0:
448,192,171056,1,0,0:0:0:0:
192,192,171056,1,0,0:0:0:0:
64,192,171113,1,0,0:0:0:0:
320,192,171169,1,0,0:0:0:0:
192,192,171169,1,0,0:0:0:0:
448,192,171169,1,0,0:0:0:0:
64,192,171226,1,0,0:0:0:0:
320,192,171283,1,0,0:0:0:0:
192,192,171339,1,0,0:0:0:0:
448,192,171396,1,0,0:0:0:0:
64,192,171396,1,0,0:0:0:0:
320,192,171452,1,0,0:0:0:0:
448,192,171509,1,0,0:0:0:0:
64,192,171566,1,0,0:0:0:0:
192,192,171622,1,0,0:0:0:0:
320,192,171622,1,0,0:0:0:0:
448,192,171679,1,0,0:0:0:0:
192,192,171735,1,0,0:0:0:0:
448,192,171792,1,0,0:0:0:0:
64,192,171849,1,0,0:0:0:0:
320,192,171849,1,0,0:0:0:0:
192,192,171905,1,0,0:0:0:0:
64,192,171962,1,0,0:0:0:0:
448,192,171962,1,0,0:0:0:0:
320,192,172018,1,0,0:0:0:0:
448,192,172075,1,0,0:0:0:0:
192,192,172075,1,0,0:0:0:0:
64,192,172075,1,0,0:0:0:0:
320,192,172132,1,0,0:0:0:0:
192,192,172188,1,0,0:0:0:0:
64,192,172245,1,0,0:0:0:0:
320,192,172301,1,0,0:0:0:0:
448,192,172301,1,0,0:0:0:0:
192,192,172358,1,0,0:0:0:0:
64,192,172415,1,0,0:0:0:0:
320,192,172471,1,0,0:0:0:0:
64,192,172528,1,0,0:0:0:0:
192,192,172528,1,0,0:0:0:0:
448,192,172584,1,0,0:0:0:0:
320,192,172641,1,0,0:0:0:0:
448,192,172698,1,0,0:0:0:0:
192,192,172754,1,0,0:0:0:0:
64,192,172754,1,0,0:0:0:0:
320,192,172811,1,0,0:0:0:0:
448,192,172867,1,0,0:0:0:0:
64,192,172867,1,0,0:0:0:0:
192,192,172924,1,0,0:0:0:0:
320,192,172981,1,0,0:0:0:0:
448,192,172981,1,0,0:0:0:0:
64,192,172981,128,0,173830:0:0:0:0:
320,192,173207,128,0,173830:0:0:0:0:
448,192,173433,128,0,173830:0:0:0:0:
192,192,173660,128,0,173830:0:0:0:0:
64,192,173886,1,0,0:0:0:0:
192,192,173886,1,0,0:0:0:0:
320,192,173886,1,0,0:0:0:0:
192,192,174000,1,0,0:0:0:0:
64,192,174000,1,0,0:0:0:0:
64,192,174113,1,0,0:0:0:0:
192,192,174113,1,0,0:0:0:0:
320,192,174169,1,0,0:0:0:0:
448,192,174169,1,0,0:0:0:0:
64,192,174226,1,0,0:0:0:0:
192,192,174226,1,0,0:0:0:0:
320,192,174283,1,0,0:0:0:0:
448,192,174283,1,0,0:0:0:0:
192,192,174339,1,0,0:0:0:0:
64,192,174339,1,0,0:0:0:0:
320,192,174396,1,0,0:0:0:0:
448,192,174396,1,0,0:0:0:0:
192,192,174452,1,0,0:0:0:0:
64,192,174452,1,0,0:0:0:0:
320,192,174509,1,0,0:0:0:0:
448,192,174509,1,0,0:0:0:0:
192,192,174566,1,0,0:0:0:0:
64,192,174566,1,0,0:0:0:0:
320,192,174622,1,0,0:0:0:0:
448,192,174622,1,0,0:0:0:0:
192,192,174679,1,0,0:0:0:0:
64,192,174679,1,0,0:0:0:0:
320,192,174735,1,0,0:0:0:0:
448,192,174735,1,0,0:0:0:0:
64,192,174792,1,0,0:0:0:0:
320,192,175018,1,0,0:0:0:0:
448,192,175018,1,0,0:0:0:0:
64,192,175245,1,0,0:0:0:0:
320,192,175245,1,0,0:0:0:0:
448,192,175358,1,0,0:0:0:0:
320,192,175471,1,0,0:0:0:0:
192,192,175471,1,0,0:0:0:0:
64,192,175584,1,0,0:0:0:0:
448,192,175698,1,0,0:0:0:0:
320,192,175698,1,0,0:0:0:0:
64,192,175754,1,0,0:0:0:0:
192,192,175811,1,0,0:0:0:0:
320,192,175924,1,0,0:0:0:0:
448,192,175924,1,0,0:0:0:0:
64,192,176037,1,0,0:0:0:0:
192,192,176150,1,0,0:0:0:0:
64,192,176264,1,0,0:0:0:0:
320,192,176377,1,0,0:0:0:0:
448,192,176377,1,0,0:0:0:0:
320,192,176490,1,0,0:0:0:0:
64,192,176603,1,0,0:0:0:0:
192,192,176603,1,0,0:0:0:0:
192,192,177056,1,0,0:0:0:0:
320,192,177056,1,0,0:0:0:0:
448,192,177169,1,0,0:0:0:0:
320,192,177169,1,0,0:0:0:0:
64,192,177283,1,0,0:0:0:0:
320,192,177283,1,0,0:0:0:0:
192,192,177509,1,0,0:0:0:0:
448,192,177509,1,0,0:0:0:0:
192,192,177622,1,0,0:0:0:0:
320,192,177622,1,0,0:0:0:0:
64,192,177735,1,0,0:0:0:0:
320,192,177735,1,0,0:0:0:0:
192,192,177849,1,0,0:0:0:0:
448,192,177849,1,0,0:0:0:0:
320,192,178188,1,0,0:0:0:0:
192,192,178188,1,0,0:0:0:0:
448,192,178188,1,0,0:0:0:0:
448,192,178415,1,0,0:0:0:0:
320,192,178415,1,0,0:0:0:0:
448,192,178641,1,0,0:0:0:0:
64,192,178641,1,0,0:0:0:0:
192,192,178754,1,0,0:0:0:0:
320,192,178867,1,0,0:0:0:0:
448,192,178867,1,0,0:0:0:0:
448,192,179094,1,0,0:0:0:0:
192,192,179207,1,0,0:0:0:0:
64,192,179320,1,0,0:0:0:0:
320,192,179320,1,0,0:0:0:0:
448,192,179320,1,0,0:0:0:0:
64,192,179547,1,0,0:0:0:0:
448,192,179547,1,0,0:0:0:0:
192,192,179660,1,0,0:0:0:0:
64,192,179773,1,0,0:0:0:0:
320,192,179773,1,0,0:0:0:0:
320,192,180000,1,0,0:0:0:0:
448,192,180000,1,0,0:0:0:0:
320,192,180226,1,0,0:0:0:0:
448,192,180226,1,0,0:0:0:0:
320,192,180452,1,0,0:0:0:0:
64,192,180452,1,0,0:0:0:0:
192,192,180452,1,0,0:0:0:0:
192,192,180566,1,0,0:0:0:0:
64,192,180679,1,0,0:0:0:0:
320,192,180679,1,0,0:0:0:0:
448,192,180679,1,0,0:0:0:0:
320,192,180792,1,0,0:0:0:0:
448,192,180905,1,0,0:0:0:0:
192,192,180905,1,0,0:0:0:0:
64,192,180905,1,0,0:0:0:0:
320,192,181018,128,0,181754:0:0:0:0:
192,192,181018,128,0,181754:0:0:0:0:
64,192,181018,128,0,181754:0:0:0:0:
320,192,181811,1,0,0:0:0:0:
192,192,181811,1,0,0:0:0:0:
64,192,181811,1,0,0:0:0:0:
192,192,182037,1,0,0:0:0:0:
320,192,182037,1,0,0:0:0:0:
448,192,182037,1,0,0:0:0:0:
192,192,182490,1,0,0:0:0:0:
320,192,182603,1,0,0:0:0:0:
64,192,182716,1,0,0:0:0:0:
448,192,182830,1,0,0:0:0:0:
320,192,182886,1,0,0:0:0:0:
192,192,182943,1,0,0:0:0:0:
64,192,183000,1,0,0:0:0:0:
320,192,183169,1,0,0:0:0:0:
192,192,183396,1,0,0:0:0:0:
320,192,183622,1,0,0:0:0:0:
320,192,183849,1,0,0:0:0:0:
64,192,184075,1,0,0:0:0:0:
448,192,184188,1,0,0:0:0:0:
192,192,184301,1,0,0:0:0:0:
320,192,184415,1,0,0:0:0:0:
448,192,184415,1,0,0:0:0:0:
448,192,184698,128,0,185150:0:0:0:0:
192,192,184698,128,0,185150:0:0:0:0:
64,192,184698,128,0,185150:0:0:0:0:
64,192,185433,1,0,0:0:0:0:
448,192,185433,1,0,0:0:0:0:
192,192,185547,1,0,0:0:0:0:
192,192,185660,1,0,0:0:0:0:
320,192,185660,1,0,0:0:0:0:
64,192,185773,1,0,0:0:0:0:
320,192,185886,1,0,0:0:0:0:
64,192,185886,1,0,0:0:0:0:
320,192,186000,1,0,0:0:0:0:
192,192,186113,1,0,0:0:0:0:
320,192,186113,1,0,0:0:0:0:
192,192,186226,1,0,0:0:0:0:
448,192,186339,1,0,0:0:0:0:
320,192,186339,1,0,0:0:0:0:
192,192,186452,1,0,0:0:0:0:
192,192,186566,1,0,0:0:0:0:
64,192,186566,1,0,0:0:0:0:
448,192,186679,1,0,0:0:0:0:
448,192,186792,1,0,0:0:0:0:
192,192,186792,1,0,0:0:0:0:
64,192,186905,1,0,0:0:0:0:
448,192,187018,1,0,0:0:0:0:
64,192,187018,1,0,0:0:0:0:
192,192,187132,1,0,0:0:0:0:
320,192,187245,1,0,0:0:0:0:
448,192,187245,1,0,0:0:0:0:
192,192,187358,1,0,0:0:0:0:
64,192,187471,1,0,0:0:0:0:
192,192,187471,1,0,0:0:0:0:
320,192,187584,1,0,0:0:0:0:
192,192,187698,1,0,0:0:0:0:
448,192,187698,1,0,0:0:0:0:
320,192,187811,1,0,0:0:0:0:
192,192,187811,1,0,0:0:0:0:
192,192,187924,1,0,0:0:0:0:
64,192,187924,1,0,0:0:0:0:
320,192,188037,1,0,0:0:0:0:
320,192,188150,5,0,0:0:0:0:
64,192,188150,1,0,0:0:0:0:
192,192,188264,1,0,0:0:0:0:
448,192,188264,1,0,0:0:0:0:
320,192,188377,128,0,189226:0:0:0:0:
448,192,188377,128,0,189226:0:0:0:0:
64,192,188377,128,0,189226:0:0:0:0:
192,192,188377,128,0,189226:0:0:0:0:
192,192,189283,5,0,0:0:0:0:
320,192,189283,1,0,0:0:0:0:
448,192,189283,1,0,0:0:0:0:
64,192,189283,1,0,0:0:0:0:
192,192,189962,1,0,0:0:0:0:
448,192,190867,1,0,0:0:0:0:
320,192,190924,1,0,0:0:0:0:
192,192,190981,1,0,0:0:0:0:
64,192,191037,1,0,0:0:0:0:
320,192,191094,1,0,0:0:0:0:
448,192,191150,1,0,0:0:0:0:
192,192,191320,1,0,0:0:0:0:
448,192,191547,1,0,0:0:0:0:
192,192,191773,1,0,0:0:0:0:
64,192,192000,1,0,0:0:0:0:
192,192,192056,1,0,0:0:0:0:
320,192,192113,1,0,0:0:0:0:
448,192,192169,1,0,0:0:0:0:
192,192,192226,1,0,0:0:0:0:
320,192,192283,1,0,0:0:0:0:
192,192,192452,1,0,0:0:0:0:
448,192,192679,1,0,0:0:0:0:
64,192,192905,1,0,0:0:0:0:
448,192,193018,1,0,0:0:0:0:
320,192,193132,1,0,0:0:0:0:
192,192,193245,1,0,0:0:0:0:
320,192,193358,1,0,0:0:0:0:
64,192,193471,1,0,0:0:0:0:
192,192,193584,1,0,0:0:0:0:
320,192,193698,1,0,0:0:0:0:
64,192,193811,1,0,0:0:0:0:
448,192,193924,1,0,0:0:0:0:
320,192,194037,1,0,0:0:0:0:
64,192,194150,1,0,0:0:0:0:
448,192,194264,1,0,0:0:0:0:
192,192,194377,1,0,0:0:0:0:
320,192,194490,128,0,195169:0:0:0:0:
64,192,195169,1,0,0:0:0:0:
192,192,195226,1,0,0:0:0:0:
448,192,195283,1,0,0:0:0:0:
320,192,195339,1,0,0:0:0:0:
64,192,195396,1,0,0:0:0:0:
448,192,195452,1,0,0:0:0:0:
192,192,195509,1,0,0:0:0:0:
64,192,195566,1,0,0:0:0:0:
448,192,195622,1,0,0:0:0:0:
192,192,195679,1,0,0:0:0:0:
448,192,195735,1,0,0:0:0:0:
320,192,195792,1,0,0:0:0:0:
64,192,195849,1,0,0:0:0:0:
320,192,196075,1,0,0:0:0:0:
448,192,196075,1,0,0:0:0:0:
64,192,196301,1,0,0:0:0:0:
448,192,196301,1,0,0:0:0:0:
192,192,196415,1,0,0:0:0:0:
320,192,196415,1,0,0:0:0:0:
64,192,196754,1,0,0:0:0:0:
192,192,196754,1,0,0:0:0:0:
448,192,197094,1,0,0:0:0:0:
320,192,197094,1,0,0:0:0:0:
64,192,197433,1,0,0:0:0:0:
448,192,197547,1,0,0:0:0:0:
320,192,197660,1,0,0:0:0:0:
192,192,197773,1,0,0:0:0:0:
448,192,197886,1,0,0:0:0:0:
192,192,198000,1,0,0:0:0:0:
320,192,198113,1,0,0:0:0:0:
192,192,198226,1,0,0:0:0:0:
448,192,198339,1,0,0:0:0:0:
320,192,198509,1,0,0:0:0:0:
64,192,198679,1,0,0:0:0:0:
320,192,198849,1,0,0:0:0:0:
64,192,199018,1,0,0:0:0:0:
448,192,199188,1,0,0:0:0:0:
320,192,199358,1,0,0:0:0:0:
448,192,199528,1,0,0:0:0:0:
192,192,199698,1,0,0:0:0:0:
320,192,199867,1,0,0:0:0:0:
192,192,200037,1,0,0:0:0:0:
64,192,200207,1,0,0:0:0:0:
192,192,200377,1,0,0:0:0:0:
64,192,200547,1,0,0:0:0:0:
320,192,200716,128,0,203773:0:0:0:0:
64,192,206490,128,0,206943:0:0:0:0:
320,192,206943,128,0,207396:0:0:0:0:
64,192,207396,5,0,0:0:0:0:
192,192,207396,1,0,0:0:0:0:
64,192,207622,1,0,0:0:0:0:
64,192,207849,1,0,0:0:0:0:
64,192,208075,1,0,0:0:0:0:
64,192,208301,128,0,208754:0:0:0:0:
192,192,208754,1,0,0:0:0:0:
320,192,208754,1,0,0:0:0:0:
320,192,208981,1,0,0:0:0:0:
448,192,209207,1,0,0:0:0:0:
448,192,209433,1,0,0:0:0:0:
448,192,209660,1,0,0:0:0:0:
448,192,209886,1,0,0:0:0:0:
448,192,210113,128,0,210566:0:0:0:0:
64,192,210566,1,0,0:0:0:0:
192,192,210566,1,0,0:0:0:0:
192,192,210792,1,0,0:0:0:0:
320,192,211018,1,0,0:0:0:0:
320,192,211245,1,0,0:0:0:0:
320,192,211471,1,0,0:0:0:0:
320,192,211698,1,0,0:0:0:0:
320,192,211924,128,0,212377:0:0:0:0:
448,192,212377,1,0,0:0:0:0:
64,192,212377,1,0,0:0:0:0:
448,192,212603,1,0,0:0:0:0:
448,192,212830,128,0,213509:0:0:0:0:
64,192,213509,1,0,0:0:0:0:
192,192,213735,1,0,0:0:0:0:
320,192,214188,1,0,0:0:0:0:
64,192,214188,1,0,0:0:0:0:
448,192,214415,1,0,0:0:0:0:
320,192,214415,1,0,0:0:0:0:
64,192,214641,1,0,0:0:0:0:
192,192,214641,1,0,0:0:0:0:
64,192,214867,1,0,0:0:0:0:
192,192,214867,1,0,0:0:0:0:
64,192,215094,1,0,0:0:0:0:
192,192,215094,1,0,0:0:0:0:
64,192,215320,1,0,0:0:0:0:
192,192,215320,1,0,0:0:0:0:
64,192,215547,128,0,216000:0:0:0:0:
192,192,215547,128,0,216000:0:0:0:0:
320,192,216000,1,0,0:0:0:0:
320,192,216226,1,0,0:0:0:0:
448,192,216452,1,0,0:0:0:0:
192,192,216452,1,0,0:0:0:0:
448,192,216679,1,0,0:0:0:0:
192,192,216679,1,0,0:0:0:0:
448,192,216905,1,0,0:0:0:0:
192,192,216905,1,0,0:0:0:0:
448,192,217132,1,0,0:0:0:0:
192,192,217132,1,0,0:0:0:0:
448,192,217358,128,0,217811:0:0:0:0:
192,192,217358,128,0,217811:0:0:0:0:
64,192,217811,1,0,0:0:0:0:
192,192,218037,1,0,0:0:0:0:
320,192,218264,128,0,218943:0:0:0:0:
64,192,218943,1,0,0:0:0:0:
192,192,219169,1,0,0:0:0:0:
320,192,219396,1,0,0:0:0:0:
320,192,219622,128,0,219905:0:0:0:0:
448,192,219962,1,0,0:0:0:0:
448,192,220075,128,0,221886:0:0:0:0:
64,192,223245,1,0,0:0:0:0:
192,192,223471,1,0,0:0:0:0:
320,192,223698,128,0,224377:0:0:0:0:
448,192,224377,1,0,0:0:0:0:
320,192,224603,1,0,0:0:0:0:
192,192,224830,1,0,0:0:0:0:
64,192,225056,1,0,0:0:0:0:
64,192,225396,1,0,0:0:0:0:
64,192,225509,128,0,226415:0:0:0:0:
192,192,225509,128,0,225962:0:0:0:0:
448,192,225962,128,0,226188:0:0:0:0:
320,192,226188,128,0,226415:0:0:0:0:
192,192,226415,128,0,226867:0:0:0:0:
320,192,226867,128,0,227320:0:0:0:0:
448,192,226867,1,0,0:0:0:0:
192,192,226924,1,0,0:0:0:0:
64,192,226981,1,0,0:0:0:0:
192,192,227320,128,0,227773:0:0:0:0:
448,192,227773,128,0,228226:0:0:0:0:
64,192,228226,128,0,229132:0:0:0:0:
192,192,228679,1,0,0:0:0:0:
320,192,228735,1,0,0:0:0:0:
448,192,228792,1,0,0:0:0:0:
320,192,229132,128,0,229584:0:0:0:0:
192,192,229584,128,0,229811:0:0:0:0:
448,192,229811,128,0,230037:0:0:0:0:
64,192,230037,128,0,230490:0:0:0:0:
192,192,230490,128,0,230943:0:0:0:0:
448,192,230490,1,0,0:0:0:0:
320,192,230547,1,0,0:0:0:0:
64,192,230603,1,0,0:0:0:0:
320,192,230943,128,0,231396:0:0:0:0:
448,192,231396,128,0,231849:0:0:0:0:
192,192,231849,128,0,232754:0:0:0:0:
64,192,232301,1,0,0:0:0:0:
320,192,232358,1,0,0:0:0:0:
448,192,232415,1,0,0:0:0:0:
320,192,232754,1,0,0:0:0:0:
448,192,232754,1,0,0:0:0:0:
64,192,232867,1,0,0:0:0:0:
192,192,232981,1,0,0:0:0:0:
320,192,232981,1,0,0:0:0:0:
448,192,233094,1,0,0:0:0:0:
64,192,233207,1,0,0:0:0:0:
192,192,233207,1,0,0:0:0:0:
448,192,233320,1,0,0:0:0:0:
448,192,233433,1,0,0:0:0:0:
320,192,233433,1,0,0:0:0:0:
192,192,233547,1,0,0:0:0:0:
320,192,233660,1,0,0:0:0:0:
64,192,233660,1,0,0:0:0:0:
448,192,233773,1,0,0:0:0:0:
192,192,233886,1,0,0:0:0:0:
320,192,233886,1,0,0:0:0:0:
64,192,234000,1,0,0:0:0:0:
320,192,234113,1,0,0:0:0:0:
64,192,234113,1,0,0:0:0:0:
448,192,234226,1,0,0:0:0:0:
192,192,234339,1,0,0:0:0:0:
64,192,234339,1,0,0:0:0:0:
320,192,234452,1,0,0:0:0:0:
448,192,234566,1,0,0:0:0:0:
192,192,234566,1,0,0:0:0:0:
320,192,234679,1,0,0:0:0:0:
448,192,234792,1,0,0:0:0:0:
320,192,234792,1,0,0:0:0:0:
64,192,234905,1,0,0:0:0:0:
192,192,235018,1,0,0:0:0:0:
64,192,235018,1,0,0:0:0:0:
320,192,235132,1,0,0:0:0:0:
192,192,235245,1,0,0:0:0:0:
448,192,235245,1,0,0:0:0:0:
64,192,235358,1,0,0:0:0:0:
192,192,235471,1,0,0:0:0:0:
320,192,235471,1,0,0:0:0:0:
448,192,235584,1,0,0:0:0:0:
320,192,235698,1,0,0:0:0:0:
64,192,235698,1,0,0:0:0:0:
192,192,235811,1,0,0:0:0:0:
192,192,235924,1,0,0:0:0:0:
320,192,235924,1,0,0:0:0:0:
64,192,236037,1,0,0:0:0:0:
320,192,236150,1,0,0:0:0:0:
448,192,236150,1,0,0:0:0:0:
192,192,236264,1,0,0:0:0:0:
320,192,236377,1,0,0:0:0:0:
448,192,236377,1,0,0:0:0:0:
192,192,236377,1,0,0:0:0:0:
192,192,236603,1,0,0:0:0:0:
320,192,236603,1,0,0:0:0:0:
448,192,236603,1,0,0:0:0:0:
448,192,236830,1,0,0:0:0:0:
192,192,236830,1,0,0:0:0:0:
320,192,236830,1,0,0:0:0:0:
448,192,237056,1,0,0:0:0:0:
192,192,237056,1,0,0:0:0:0:
320,192,237056,1,0,0:0:0:0:
320,192,237283,1,0,0:0:0:0:
192,192,237283,1,0,0:0:0:0:
448,192,237283,1,0,0:0:0:0:
448,192,237509,1,0,0:0:0:0:
192,192,237509,1,0,0:0:0:0:
320,192,237509,1,0,0:0:0:0:
192,192,237735,1,0,0:0:0:0:
320,192,237735,1,0,0:0:0:0:
448,192,237735,1,0,0:0:0:0:
448,192,237962,1,0,0:0:0:0:
320,192,237962,1,0,0:0:0:0:
192,192,237962,1,0,0:0:0:0:
64,192,238132,1,0,0:0:0:0:
192,192,238132,1,0,0:0:0:0:
320,192,238188,1,0,0:0:0:0:
448,192,238188,1,0,0:0:0:0:
192,192,238245,1,0,0:0:0:0:
64,192,238245,1,0,0:0:0:0:
64,192,238358,1,0,0:0:0:0:
192,192,238358,1,0,0:0:0:0:
320,192,238415,1,0,0:0:0:0:
448,192,238415,1,0,0:0:0:0:
192,192,238471,1,0,0:0:0:0:
64,192,238471,1,0,0:0:0:0:
64,192,238584,1,0,0:0:0:0:
192,192,238584,1,0,0:0:0:0:
320,192,238641,1,0,0:0:0:0:
448,192,238641,1,0,0:0:0:0:
64,192,238698,1,0,0:0:0:0:
192,192,238698,1,0,0:0:0:0:
192,192,238811,1,0,0:0:0:0:
64,192,238811,1,0,0:0:0:0:
320,192,238867,1,0,0:0:0:0:
448,192,238867,1,0,0:0:0:0:
64,192,238924,1,0,0:0:0:0:
192,192,238924,1,0,0:0:0:0:
192,192,239037,1,0,0:0:0:0:
64,192,239037,1,0,0:0:0:0:
320,192,239094,128,0,239547:0:0:0:0:
448,192,239094,128,0,239547:0:0:0:0:
192,192,239320,1,0,0:0:0:0:
192,192,239547,128,0,239773:0:0:0:0:
64,192,239547,128,0,239773:0:0:0:0:
448,192,239773,1,0,0:0:0:0:
64,192,240000,5,0,0:0:0:0:
192,192,240000,1,0,0:0:0:0:
448,192,240000,1,0,0:0:0:0:
192,192,240075,1,0,0:0:0:0:
64,192,240075,1,0,0:0:0:0:
448,192,240075,1,0,0:0:0:0:
64,192,240150,1,0,0:0:0:0:
192,192,240150,1,0,0:0:0:0:
448,192,240150,1,0,0:0:0:0:
320,192,240301,1,0,0:0:0:0:
448,192,240452,1,0,0:0:0:0:
320,192,240452,1,0,0:0:0:0:
192,192,240452,1,0,0:0:0:0:
448,192,240528,1,0,0:0:0:0:
320,192,240528,1,0,0:0:0:0:
192,192,240528,1,0,0:0:0:0:
448,192,240603,1,0,0:0:0:0:
320,192,240603,1,0,0:0:0:0:
192,192,240603,1,0,0:0:0:0:
64,192,240679,1,0,0:0:0:0:
64,192,240792,1,0,0:0:0:0:
64,192,240905,1,0,0:0:0:0:
448,192,240905,1,0,0:0:0:0:
192,192,240905,1,0,0:0:0:0:
320,192,241132,1,0,0:0:0:0:
192,192,241132,1,0,0:0:0:0:
320,192,241358,1,0,0:0:0:0:
64,192,241358,1,0,0:0:0:0:
448,192,241358,1,0,0:0:0:0:
448,192,241471,1,0,0:0:0:0:
320,192,241584,1,0,0:0:0:0:
192,192,241584,1,0,0:0:0:0:
448,192,241584,1,0,0:0:0:0:
192,192,241811,1,0,0:0:0:0:
448,192,241811,1,0,0:0:0:0:
320,192,241811,1,0,0:0:0:0:
192,192,241886,1,0,0:0:0:0:
320,192,241886,1,0,0:0:0:0:
448,192,241886,1,0,0:0:0:0:
192,192,241962,1,0,0:0:0:0:
320,192,241962,1,0,0:0:0:0:
448,192,241962,1,0,0:0:0:0:
64,192,242113,1,0,0:0:0:0:
448,192,242264,1,0,0:0:0:0:
320,192,242264,1,0,0:0:0:0:
64,192,242264,1,0,0:0:0:0:
64,192,242339,1,0,0:0:0:0:
320,192,242339,1,0,0:0:0:0:
448,192,242339,1,0,0:0:0:0:
64,192,242415,1,0,0:0:0:0:
320,192,242415,1,0,0:0:0:0:
448,192,242415,1,0,0:0:0:0:
192,192,242566,1,0,0:0:0:0:
320,192,242716,1,0,0:0:0:0:
192,192,242716,1,0,0:0:0:0:
64,192,242716,1,0,0:0:0:0:
448,192,242943,1,0,0:0:0:0:
192,192,242943,1,0,0:0:0:0:
192,192,243056,1,0,0:0:0:0:
448,192,243169,1,0,0:0:0:0:
64,192,243169,1,0,0:0:0:0:
192,192,243169,1,0,0:0:0:0:
320,192,243396,1,0,0:0:0:0:
448,192,243396,1,0,0:0:0:0:
192,192,243396,1,0,0:0:0:0:
64,192,243622,1,0,0:0:0:0:
320,192,243622,1,0,0:0:0:0:
448,192,243622,1,0,0:0:0:0:
320,192,243735,1,0,0:0:0:0:
448,192,243735,1,0,0:0:0:0:
64,192,243735,1,0,0:0:0:0:
448,192,243849,1,0,0:0:0:0:
320,192,243849,1,0,0:0:0:0:
64,192,243849,1,0,0:0:0:0:
320,192,244075,1,0,0:0:0:0:
448,192,244075,1,0,0:0:0:0:
192,192,244075,1,0,0:0:0:0:
448,192,244188,1,0,0:0:0:0:
320,192,244188,1,0,0:0:0:0:
192,192,244188,1,0,0:0:0:0:
320,192,244301,1,0,0:0:0:0:
448,192,244301,1,0,0:0:0:0:
192,192,244301,1,0,0:0:0:0:
192,192,244528,1,0,0:0:0:0:
320,192,244528,1,0,0:0:0:0:
448,192,244528,1,0,0:0:0:0:
192,192,244754,1,0,0:0:0:0:
448,192,244754,1,0,0:0:0:0:
192,192,244867,1,0,0:0:0:0:
320,192,244981,1,0,0:0:0:0:
192,192,244981,1,0,0:0:0:0:
64,192,244981,1,0,0:0:0:0:
448,192,245207,1,0,0:0:0:0:
64,192,245207,1,0,0:0:0:0:
448,192,245433,1,0,0:0:0:0:
192,192,245433,1,0,0:0:0:0:
64,192,245433,1,0,0:0:0:0:
448,192,245547,1,0,0:0:0:0:
192,192,245547,1,0,0:0:0:0:
64,192,245547,1,0,0:0:0:0:
448,192,245660,1,0,0:0:0:0:
64,192,245660,1,0,0:0:0:0:
192,192,245660,1,0,0:0:0:0:
320,192,245886,1,0,0:0:0:0:
192,192,245886,1,0,0:0:0:0:
64,192,245886,1,0,0:0:0:0:
448,192,246113,128,0,246339:0:0:0:0:
192,192,246113,128,0,246339:0:0:0:0:
320,192,246226,1,0,0:0:0:0:
320,192,246339,128,0,246566:0:0:0:0:
64,192,246339,1,0,0:0:0:0:
192,192,246452,1,0,0:0:0:0:
448,192,246679,1,0,0:0:0:0:
192,192,246792,1,0,0:0:0:0:
320,192,246792,1,0,0:0:0:0:
64,192,247018,1,0,0:0:0:0:
192,192,247018,1,0,0:0:0:0:
192,192,247245,1,0,0:0:0:0:
64,192,247245,1,0,0:0:0:0:
448,192,247245,1,0,0:0:0:0:
448,192,247320,1,0,0:0:0:0:
192,192,247320,1,0,0:0:0:0:
64,192,247320,1,0,0:0:0:0:
448,192,247396,1,0,0:0:0:0:
192,192,247396,1,0,0:0:0:0:
64,192,247396,1,0,0:0:0:0:
320,192,247547,1,0,0:0:0:0:
192,192,247698,1,0,0:0:0:0:
320,192,247698,1,0,0:0:0:0:
448,192,247698,1,0,0:0:0:0:
192,192,247773,1,0,0:0:0:0:
320,192,247773,1,0,0:0:0:0:
448,192,247773,1,0,0:0:0:0:
192,192,247849,1,0,0:0:0:0:
320,192,247849,1,0,0:0:0:0:
448,192,247849,1,0,0:0:0:0:
64,192,247924,1,0,0:0:0:0:
64,192,248037,1,0,0:0:0:0:
64,192,248150,1,0,0:0:0:0:
192,192,248150,1,0,0:0:0:0:
320,192,248150,1,0,0:0:0:0:
448,192,248377,1,0,0:0:0:0:
320,192,248377,1,0,0:0:0:0:
64,192,248603,1,0,0:0:0:0:
320,192,248603,1,0,0:0:0:0:
448,192,248603,1,0,0:0:0:0:
320,192,248716,1,0,0:0:0:0:
64,192,248830,1,0,0:0:0:0:
320,192,248830,1,0,0:0:0:0:
64,192,249056,1,0,0:0:0:0:
320,192,249056,1,0,0:0:0:0:
448,192,249056,1,0,0:0:0:0:
64,192,249132,1,0,0:0:0:0:
320,192,249132,1,0,0:0:0:0:
448,192,249132,1,0,0:0:0:0:
64,192,249207,1,0,0:0:0:0:
320,192,249207,1,0,0:0:0:0:
448,192,249207,1,0,0:0:0:0:
192,192,249358,1,0,0:0:0:0:
320,192,249509,1,0,0:0:0:0:
448,192,249509,1,0,0:0:0:0:
192,192,249509,1,0,0:0:0:0:
320,192,249584,1,0,0:0:0:0:
448,192,249584,1,0,0:0:0:0:
192,192,249584,1,0,0:0:0:0:
320,192,249660,1,0,0:0:0:0:
448,192,249660,1,0,0:0:0:0:
192,192,249660,1,0,0:0:0:0:
448,192,249792,1,0,0:0:0:0:
64,192,249962,128,0,250188:0:0:0:0:
192,192,249962,1,0,0:0:0:0:
320,192,249962,1,0,0:0:0:0:
320,192,250188,1,0,0:0:0:0:
448,192,250415,1,0,0:0:0:0:
64,192,250415,1,0,0:0:0:0:
192,192,250415,1,0,0:0:0:0:
192,192,250528,1,0,0:0:0:0:
64,192,250528,1,0,0:0:0:0:
448,192,250528,1,0,0:0:0:0:
64,192,250641,1,0,0:0:0:0:
192,192,250641,1,0,0:0:0:0:
448,192,250641,1,0,0:0:0:0:
320,192,250754,1,0,0:0:0:0:
64,192,250867,1,0,0:0:0:0:
448,192,250867,1,0,0:0:0:0:
320,192,250867,1,0,0:0:0:0:
320,192,250981,1,0,0:0:0:0:
448,192,250981,1,0,0:0:0:0:
64,192,250981,1,0,0:0:0:0:
64,192,251094,1,0,0:0:0:0:
320,192,251094,128,0,251320:0:0:0:0:
448,192,251094,128,0,251320:0:0:0:0:
192,192,251207,1,0,0:0:0:0:
192,192,251320,1,0,0:0:0:0:
64,192,251320,1,0,0:0:0:0:
192,192,251433,1,0,0:0:0:0:
320,192,251433,1,0,0:0:0:0:
320,192,251547,1,0,0:0:0:0:
448,192,251547,1,0,0:0:0:0:
192,192,251660,1,0,0:0:0:0:
64,192,251660,1,0,0:0:0:0:
192,192,251773,1,0,0:0:0:0:
320,192,251773,1,0,0:0:0:0:
448,192,251886,1,0,0:0:0:0:
192,192,251886,1,0,0:0:0:0:
448,192,252000,1,0,0:0:0:0:
320,192,252000,1,0,0:0:0:0:
320,192,252113,1,0,0:0:0:0:
192,192,252113,1,0,0:0:0:0:
64,192,252226,1,0,0:0:0:0:
448,192,252226,1,0,0:0:0:0:
320,192,252339,1,0,0:0:0:0:
192,192,252339,1,0,0:0:0:0:
448,192,252339,1,0,0:0:0:0:
192,192,252452,1,0,0:0:0:0:
320,192,252452,1,0,0:0:0:0:
64,192,252452,1,0,0:0:0:0:
320,192,252566,1,0,0:0:0:0:
64,192,252566,1,0,0:0:0:0:
448,192,252566,1,0,0:0:0:0:
64,192,252679,128,0,254490:0:0:0:0:
192,192,252679,128,0,254377:0:0:0:0:
448,192,252679,128,0,254264:0:0:0:0:
320,192,254490,1,0,0:0:0:0:
448,192,254490,1,0,0:0:0:0:
192,192,254490,1,0,0:0:0:0:
64,192,254603,1,0,0:0:0:0:
320,192,254603,1,0,0:0:0:0:
448,192,254603,1,0,0:0:0:0:
192,192,254716,1,0,0:0:0:0:
448,192,254716,1,0,0:0:0:0:
64,192,254716,1,0,0:0:0:0:
320,192,254830,1,0,0:0:0:0:
448,192,254830,1,0,0:0:0:0:
192,192,254830,1,0,0:0:0:0:
192,192,254943,1,0,0:0:0:0:
64,192,254943,1,0,0:0:0:0:
320,192,254943,1,0,0:0:0:0:
448,192,255056,1,0,0:0:0:0:
320,192,255056,1,0,0:0:0:0:
64,192,255056,1,0,0:0:0:0:
192,192,255169,1,0,0:0:0:0:
64,192,255169,1,0,0:0:0:0:
448,192,255169,1,0,0:0:0:0:
320,192,255283,1,0,0:0:0:0:
448,192,255283,1,0,0:0:0:0:
192,192,255283,1,0,0:0:0:0:
448,192,255396,1,0,0:0:0:0:
320,192,255433,1,0,0:0:0:0:
192,192,255471,1,0,0:0:0:0:
64,192,255509,1,0,0:0:0:0:
448,192,255547,1,0,0:0:0:0:
320,192,255584,1,0,0:0:0:0:
192,192,255622,1,0,0:0:0:0:
64,192,255660,1,0,0:0:0:0:
448,192,255698,1,0,0:0:0:0:
320,192,255735,1,0,0:0:0:0:
192,192,255773,1,0,0:0:0:0:
64,192,255811,1,0,0:0:0:0:
448,192,255849,1,0,0:0:0:0:
320,192,255886,1,0,0:0:0:0:
192,192,255924,1,0,0:0:0:0:
64,192,255962,1,0,0:0:0:0:
448,192,256000,1,0,0:0:0:0:
320,192,256037,1,0,0:0:0:0:
192,192,256075,1,0,0:0:0:0:
64,192,256113,1,0,0:0:0:0:
448,192,256150,1,0,0:0:0:0:
320,192,256188,1,0,0:0:0:0:
192,192,256226,1,0,0:0:0:0:
64,192,256264,1,0,0:0:0:0:
320,192,256301,128,0,257150:0:0:0:0:
448,192,256301,128,0,257150:0:0:0:0:
192,192,256301,128,0,256528:0:0:0:0:
64,192,256528,128,0,256754:0:0:0:0:
192,192,256754,128,0,256981:0:0:0:0:
64,192,256981,128,0,257207:0:0:0:0:
192,192,257207,1,0,0:0:0:0:
320,192,257207,128,0,257433:0:0:0:0:
64,192,257433,1,0,0:0:0:0:
192,192,257433,128,0,257660:0:0:0:0:
320,192,257660,1,0,0:0:0:0:
448,192,257660,128,0,257886:0:0:0:0:
448,192,258000,1,0,0:0:0:0:
448,192,258113,128,0,259018:0:0:0:0:
320,192,258113,128,0,258339:0:0:0:0:
192,192,258339,128,0,258566:0:0:0:0:
320,192,258566,128,0,258792:0:0:0:0:
64,192,258792,128,0,259018:0:0:0:0:
320,192,259018,128,0,259245:0:0:0:0:
448,192,259245,128,0,259471:0:0:0:0:
192,192,259471,128,0,259698:0:0:0:0:
320,192,259471,1,0,0:0:0:0:
64,192,259471,1,0,0:0:0:0:
64,192,259698,128,0,259924:0:0:0:0:
448,192,259698,1,0,0:0:0:0:
320,192,259698,1,0,0:0:0:0:
320,192,259924,128,0,260150:0:0:0:0:
192,192,259924,1,0,0:0:0:0:
448,192,259924,1,0,0:0:0:0:
64,192,260150,128,0,260377:0:0:0:0:
320,192,260377,128,0,260603:0:0:0:0:
448,192,260603,128,0,260830:0:0:0:0:
320,192,260830,128,0,261056:0:0:0:0:
192,192,260830,1,0,0:0:0:0:
64,192,260830,1,0,0:0:0:0:
64,192,261056,128,0,261283:0:0:0:0:
192,192,261056,1,0,0:0:0:0:
448,192,261056,1,0,0:0:0:0:
320,192,261283,1,0,0:0:0:0:
192,192,261283,1,0,0:0:0:0:
448,192,261283,128,0,261622:0:0:0:0:
64,192,261622,1,0,0:0:0:0:
192,192,261622,1,0,0:0:0:0:
64,192,261735,128,0,264452:0:0:0:0:
192,192,261735,128,0,264452:0:0:0:0:
448,192,263094,128,0,263547:0:0:0:0:
320,192,263547,128,0,264000:0:0:0:0:
448,192,264000,128,0,264452:0:0:0:0:
320,192,264452,128,0,264905:0:0:0:0:
448,192,264905,128,0,265358:0:0:0:0:
320,192,265358,128,0,265811:0:0:0:0:
64,192,265811,128,0,266264:0:0:0:0:
192,192,266264,128,0,266716:0:0:0:0:
320,192,266716,128,0,267169:0:0:0:0:
64,192,267169,128,0,267622:0:0:0:0:
320,192,267622,128,0,268075:0:0:0:0:
448,192,268075,128,0,268528:0:0:0:0:
64,192,268528,128,0,268981:0:0:0:0:
448,192,268981,1,0,0:0:0:0:
320,192,268981,128,0,269433:0:0:0:0:
192,192,269207,1,0,0:0:0:0:
448,192,269320,1,0,0:0:0:0:
192,192,269433,1,0,0:0:0:0:
64,192,269433,128,0,269886:0:0:0:0:
448,192,269547,1,0,0:0:0:0:
320,192,269660,1,0,0:0:0:0:
192,192,269773,1,0,0:0:0:0:
192,192,269886,128,0,270339:0:0:0:0:
448,192,270000,1,0,0:0:0:0:
64,192,270113,1,0,0:0:0:0:
320,192,270226,1,0,0:0:0:0:
448,192,270339,1,0,0:0:0:0:
320,192,270339,128,0,270792:0:0:0:0:
64,192,270566,1,0,0:0:0:0:
192,192,270792,1,0,0:0:0:0:
64,192,270792,128,0,271245:0:0:0:0:
320,192,271018,1,0,0:0:0:0:
192,192,271132,1,0,0:0:0:0:
320,192,271245,1,0,0:0:0:0:
192,192,271245,128,0,271698:0:0:0:0:
448,192,271358,1,0,0:0:0:0:
64,192,271471,1,0,0:0:0:0:
320,192,271584,1,0,0:0:0:0:
448,192,271698,128,0,272150:0:0:0:0:
320,192,271811,1,0,0:0:0:0:
192,192,271924,1,0,0:0:0:0:
64,192,272037,1,0,0:0:0:0:
192,192,272150,1,0,0:0:0:0:
64,192,272150,128,0,272603:0:0:0:0:
320,192,272377,1,0,0:0:0:0:
192,192,272603,1,0,0:0:0:0:
448,192,272603,128,0,273056:0:0:0:0:
320,192,272830,1,0,0:0:0:0:
64,192,272943,1,0,0:0:0:0:
192,192,273056,1,0,0:0:0:0:
320,192,273056,128,0,273509:0:0:0:0:
64,192,273169,1,0,0:0:0:0:
448,192,273283,1,0,0:0:0:0:
64,192,273396,1,0,0:0:0:0:
448,192,273509,128,0,273962:0:0:0:0:
192,192,273622,1,0,0:0:0:0:
320,192,273735,1,0,0:0:0:0:
192,192,273849,1,0,0:0:0:0:
64,192,273962,1,0,0:0:0:0:
320,192,273962,128,0,274415:0:0:0:0:
192,192,274188,1,0,0:0:0:0:
192,192,274415,1,0,0:0:0:0:
64,192,274415,1,0,0:0:0:0:
192,192,274641,1,0,0:0:0:0:
64,192,274641,1,0,0:0:0:0:
320,192,274754,1,0,0:0:0:0:
448,192,274754,1,0,0:0:0:0:
320,192,274867,1,0,0:0:0:0:
448,192,274867,1,0,0:0:0:0:
192,192,274981,1,0,0:0:0:0:
64,192,274981,1,0,0:0:0:0:
320,192,275094,1,0,0:0:0:0:
448,192,275094,1,0,0:0:0:0:
192,192,275150,1,0,0:0:0:0:
64,192,275150,1,0,0:0:0:0:
192,192,275264,1,0,0:0:0:0:
64,192,275264,1,0,0:0:0:0:
320,192,275320,1,0,0:0:0:0:
448,192,275320,1,0,0:0:0:0:
64,192,275377,1,0,0:0:0:0:
192,192,275377,1,0,0:0:0:0:
320,192,275433,1,0,0:0:0:0:
448,192,275433,1,0,0:0:0:0:
320,192,275547,1,0,0:0:0:0:
448,192,275547,1,0,0:0:0:0:
192,192,275603,1,0,0:0:0:0:
64,192,275603,1,0,0:0:0:0:
320,192,275660,1,0,0:0:0:0:
448,192,275660,1,0,0:0:0:0:
192,192,275773,1,0,0:0:0:0:
64,192,275773,1,0,0:0:0:0:
320,192,275830,1,0,0:0:0:0:
448,192,275830,1,0,0:0:0:0:
192,192,275886,1,0,0:0:0:0:
64,192,275886,1,0,0:0:0:0:
320,192,275943,1,0,0:0:0:0:
448,192,275943,1,0,0:0:0:0:
192,192,276000,1,0,0:0:0:0:
64,192,276000,1,0,0:0:0:0:
320,192,276056,1,0,0:0:0:0:
448,192,276056,1,0,0:0:0:0:
192,192,276113,1,0,0:0:0:0:
64,192,276113,1,0,0:0:0:0:
320,192,276169,1,0,0:0:0:0:
448,192,276169,1,0,0:0:0:0:
192,192,276226,1,0,0:0:0:0:
192,192,276452,1,0,0:0:0:0:
320,192,276566,1,0,0:0:0:0:
192,192,276679,1,0,0:0:0:0:
64,192,276792,1,0,0:0:0:0:
448,192,276905,1,0,0:0:0:0:
320,192,277018,1,0,0:0:0:0:
320,192,277245,1,0,0:0:0:0:
192,192,277358,1,0,0:0:0:0:
64,192,277471,1,0,0:0:0:0:
448,192,277584,1,0,0:0:0:0:
320,192,277811,1,0,0:0:0:0:
448,192,278037,1,0,0:0:0:0:
192,192,278264,1,0,0:0:0:0:
448,192,278377,1,0,0:0:0:0:
320,192,278490,1,0,0:0:0:0:
192,192,278603,1,0,0:0:0:0:
448,192,278716,1,0,0:0:0:0:
192,192,278830,1,0,0:0:0:0:
64,192,279056,1,0,0:0:0:0:
192,192,279169,1,0,0:0:0:0:
448,192,279283,1,0,0:0:0:0:
320,192,279396,1,0,0:0:0:0:
64,192,279622,1,0,0:0:0:0:
64,192,279849,1,0,0:0:0:0:
64,192,280075,1,0,0:0:0:0:
192,192,280188,1,0,0:0:0:0:
320,192,280301,1,0,0:0:0:0:
192,192,280415,1,0,0:0:0:0:
320,192,280528,1,0,0:0:0:0:
448,192,280641,1,0,0:0:0:0:
64,192,280867,1,0,0:0:0:0:
448,192,280981,1,0,0:0:0:0:
320,192,281094,1,0,0:0:0:0:
192,192,281207,1,0,0:0:0:0:
64,192,281433,1,0,0:0:0:0:
320,192,281660,1,0,0:0:0:0:
448,192,281660,1,0,0:0:0:0:
192,192,281773,1,0,0:0:0:0:
64,192,281773,1,0,0:0:0:0:
320,192,281773,1,0,0:0:0:0:
448,192,281773,1,0,0:0:0:0:
192,192,281886,1,0,0:0:0:0:
64,192,281886,1,0,0:0:0:0:
320,192,282000,1,0,0:0:0:0:
448,192,282000,1,0,0:0:0:0:
192,192,282000,1,0,0:0:0:0:
64,192,282000,1,0,0:0:0:0:
448,192,282113,1,0,0:0:0:0:
320,192,282113,1,0,0:0:0:0:
192,192,282226,1,0,0:0:0:0:
64,192,282226,1,0,0:0:0:0:
320,192,282226,1,0,0:0:0:0:
448,192,282226,1,0,0:0:0:0:
64,192,282339,1,0,0:0:0:0:
192,192,282339,1,0,0:0:0:0:
64,192,282452,128,0,283301:0:0:0:0:
192,192,282452,128,0,283301:0:0:0:0:
320,192,282452,128,0,283301:0:0:0:0:
448,192,282452,128,0,283301:0:0:0:0:
192,192,283471,1,0,0:0:0:0:
64,192,283471,1,0,0:0:0:0:
64,192,283584,1,0,0:0:0:0:
192,192,283584,1,0,0:0:0:0:
192,192,283698,1,0,0:0:0:0:
64,192,283698,1,0,0:0:0:0:
64,192,283811,1,0,0:0:0:0:
192,192,283811,1,0,0:0:0:0:
192,192,283924,1,0,0:0:0:0:
64,192,283924,1,0,0:0:0:0:
192,192,284037,1,0,0:0:0:0:
64,192,284037,1,0,0:0:0:0:
320,192,284094,1,0,0:0:0:0:
448,192,284094,1,0,0:0:0:0:
192,192,284150,1,0,0:0:0:0:
64,192,284150,1,0,0:0:0:0:
320,192,284207,1,0,0:0:0:0:
448,192,284207,1,0,0:0:0:0:
192,192,284264,1,0,0:0:0:0:
64,192,284264,1,0,0:0:0:0:
320,192,284320,1,0,0:0:0:0:
448,192,284320,1,0,0:0:0:0:
64,192,284433,1,0,0:0:0:0:
320,192,284433,1,0,0:0:0:0:
320,192,284547,1,0,0:0:0:0:
64,192,284547,1,0,0:0:0:0:
64,192,284660,1,0,0:0:0:0:
320,192,284660,1,0,0:0:0:0:
64,192,284773,1,0,0:0:0:0:
320,192,284773,1,0,0:0:0:0:
64,192,284886,1,0,0:0:0:0:
320,192,284886,1,0,0:0:0:0:
320,192,285000,128,0,285226:0:0:0:0:
64,192,285000,128,0,285226:0:0:0:0:
320,192,285283,1,0,0:0:0:0:
448,192,285283,1,0,0:0:0:0:
320,192,285396,1,0,0:0:0:0:
448,192,285396,1,0,0:0:0:0:
320,192,285509,1,0,0:0:0:0:
448,192,285509,1,0,0:0:0:0:
320,192,285622,1,0,0:0:0:0:
448,192,285622,1,0,0:0:0:0:
192,192,285735,1,0,0:0:0:0:
64,192,285735,1,0,0:0:0:0:
320,192,285792,1,0,0:0:0:0:
448,192,285792,1,0,0:0:0:0:
192,192,285849,1,0,0:0:0:0:
64,192,285849,1,0,0:0:0:0:
64,192,285962,128,0,286188:0:0:0:0:
192,192,285962,128,0,286188:0:0:0:0:
320,192,286188,1,0,0:0:0:0:
448,192,286188,1,0,0:0:0:0:
192,192,286245,1,0,0:0:0:0:
64,192,286245,1,0,0:0:0:0:
320,192,286301,1,0,0:0:0:0:
448,192,286301,1,0,0:0:0:0:
192,192,286358,1,0,0:0:0:0:
64,192,286358,1,0,0:0:0:0:
320,192,286415,1,0,0:0:0:0:
448,192,286415,1,0,0:0:0:0:
192,192,286471,1,0,0:0:0:0:
64,192,286471,1,0,0:0:0:0:
320,192,286528,1,0,0:0:0:0:
448,192,286528,1,0,0:0:0:0:
192,192,286584,1,0,0:0:0:0:
64,192,286584,1,0,0:0:0:0:
320,192,286641,1,0,0:0:0:0:
448,192,286641,1,0,0:0:0:0:
192,192,286698,1,0,0:0:0:0:
64,192,286698,1,0,0:0:0:0:
320,192,286754,1,0,0:0:0:0:
448,192,286754,1,0,0:0:0:0:
320,192,286867,1,0,0:0:0:0:
448,192,286867,1,0,0:0:0:0:
320,192,286981,1,0,0:0:0:0:
448,192,286981,1,0,0:0:0:0:
320,192,287094,1,0,0:0:0:0:
448,192,287094,1,0,0:0:0:0:
192,192,287094,1,0,0:0:0:0:
192,192,287207,1,0,0:0:0:0:
448,192,287207,1,0,0:0:0:0:
192,192,287320,1,0,0:0:0:0:
448,192,287320,1,0,0:0:0:0:
192,192,287433,1,0,0:0:0:0:
448,192,287433,1,0,0:0:0:0:
192,192,287547,1,0,0:0:0:0:
448,192,287547,1,0,0:0:0:0:
192,192,287660,1,0,0:0:0:0:
448,192,287660,1,0,0:0:0:0:
320,192,287716,1,0,0:0:0:0:
64,192,287716,1,0,0:0:0:0:
320,192,287830,128,0,287943:0:0:0:0:
64,192,287830,128,0,287943:0:0:0:0:
320,192,288000,1,0,0:0:0:0:
448,192,288000,1,0,0:0:0:0:
320,192,288113,1,0,0:0:0:0:
448,192,288113,1,0,0:0:0:0:
320,192,288226,1,0,0:0:0:0:
448,192,288226,1,0,0:0:0:0:
320,192,288339,1,0,0:0:0:0:
448,192,288339,1,0,0:0:0:0:
320,192,288452,1,0,0:0:0:0:
448,192,288452,1,0,0:0:0:0:
320,192,288566,1,0,0:0:0:0:
448,192,288566,1,0,0:0:0:0:
64,192,288641,1,0,0:0:0:0:
192,192,288679,1,0,0:0:0:0:
448,192,288679,1,0,0:0:0:0:
320,192,288716,1,0,0:0:0:0:
64,192,288754,1,0,0:0:0:0:
192,192,288792,1,0,0:0:0:0:
448,192,288792,1,0,0:0:0:0:
320,192,288830,1,0,0:0:0:0:
64,192,288905,1,0,0:0:0:0:
448,192,288905,1,0,0:0:0:0:
64,192,289018,1,0,0:0:0:0:
448,192,289018,1,0,0:0:0:0:
64,192,289132,1,0,0:0:0:0:
448,192,289132,1,0,0:0:0:0:
64,192,289245,1,0,0:0:0:0:
448,192,289245,1,0,0:0:0:0:
64,192,289358,1,0,0:0:0:0:
448,192,289358,1,0,0:0:0:0:
64,192,289471,1,0,0:0:0:0:
448,192,289471,1,0,0:0:0:0:
192,192,289584,128,0,289754:0:0:0:0:
320,192,289584,128,0,289754:0:0:0:0:
192,192,289811,1,0,0:0:0:0:
64,192,289811,1,0,0:0:0:0:
64,192,289924,1,0,0:0:0:0:
192,192,289924,1,0,0:0:0:0:
192,192,290037,1,0,0:0:0:0:
64,192,290037,1,0,0:0:0:0:
64,192,290150,1,0,0:0:0:0:
192,192,290150,1,0,0:0:0:0:
320,192,290264,1,0,0:0:0:0:
448,192,290264,1,0,0:0:0:0:
192,192,290377,1,0,0:0:0:0:
64,192,290377,1,0,0:0:0:0:
320,192,290490,1,0,0:0:0:0:
448,192,290490,1,0,0:0:0:0:
192,192,290603,1,0,0:0:0:0:
64,192,290603,1,0,0:0:0:0:
320,192,290716,1,0,0:0:0:0:
448,192,290716,1,0,0:0:0:0:
64,192,290773,1,0,0:0:0:0:
192,192,290773,1,0,0:0:0:0:
320,192,290830,1,0,0:0:0:0:
448,192,290830,1,0,0:0:0:0:
64,192,290886,1,0,0:0:0:0:
192,192,290900,1,0,0:0:0:0:
448,192,290943,1,0,0:0:0:0:
320,192,290957,1,0,0:0:0:0:
64,192,291000,1,0,0:0:0:0:
192,192,291014,1,0,0:0:0:0:
448,192,291056,1,0,0:0:0:0:
320,192,291070,1,0,0:0:0:0:
64,192,291113,1,0,0:0:0:0:
192,192,291127,1,0,0:0:0:0:
448,192,291169,1,0,0:0:0:0:
320,192,291183,1,0,0:0:0:0:
64,192,291226,1,0,0:0:0:0:
192,192,291240,1,0,0:0:0:0:
448,192,291283,1,0,0:0:0:0:
320,192,291297,1,0,0:0:0:0:
64,192,291339,1,0,0:0:0:0:
192,192,291353,1,0,0:0:0:0:
448,192,291396,1,0,0:0:0:0:
320,192,291410,1,0,0:0:0:0:
64,192,291452,1,0,0:0:0:0:
192,192,291466,1,0,0:0:0:0:
448,192,291509,1,0,0:0:0:0:
320,192,291537,1,0,0:0:0:0:
64,192,291566,1,0,0:0:0:0:
192,192,291580,1,0,0:0:0:0:
448,192,291622,1,0,0:0:0:0:
320,192,291636,1,0,0:0:0:0:
64,192,291679,1,0,0:0:0:0:
192,192,291693,1,0,0:0:0:0:
448,192,291735,1,0,0:0:0:0:
320,192,291750,1,0,0:0:0:0:
64,192,291792,1,0,0:0:0:0:
192,192,291806,1,0,0:0:0:0:
448,192,291849,1,0,0:0:0:0:
320,192,291863,1,0,0:0:0:0:
64,192,291905,1,0,0:0:0:0:
192,192,291919,1,0,0:0:0:0:
448,192,291962,1,0,0:0:0:0:
320,192,291976,1,0,0:0:0:0:
64,192,292018,1,0,0:0:0:0:
192,192,292033,1,0,0:0:0:0:
448,192,292075,1,0,0:0:0:0:
320,192,292089,1,0,0:0:0:0:
64,192,292132,1,0,0:0:0:0:
192,192,292146,1,0,0:0:0:0:
448,192,292188,1,0,0:0:0:0:
320,192,292202,1,0,0:0:0:0:
64,192,292245,1,0,0:0:0:0:
192,192,292259,1,0,0:0:0:0:
448,192,292301,1,0,0:0:0:0:
320,192,292301,128,0,292415:0:0:0:0:
320,192,292528,1,0,0:0:0:0:
448,192,292542,1,0,0:0:0:0:
192,192,292584,1,0,0:0:0:0:
64,192,292627,1,0,0:0:0:0:
320,192,292641,1,0,0:0:0:0:
448,192,292655,1,0,0:0:0:0:
192,192,292698,1,0,0:0:0:0:
64,192,292712,1,0,0:0:0:0:
320,192,292754,1,0,0:0:0:0:
448,192,292783,1,0,0:0:0:0:
192,192,292811,1,0,0:0:0:0:
64,192,292825,1,0,0:0:0:0:
320,192,292867,1,0,0:0:0:0:
448,192,292882,1,0,0:0:0:0:
192,192,292924,1,0,0:0:0:0:
64,192,292938,1,0,0:0:0:0:
320,192,292981,1,0,0:0:0:0:
448,192,292995,1,0,0:0:0:0:
192,192,293037,1,0,0:0:0:0:
64,192,293051,1,0,0:0:0:0:
320,192,293094,1,0,0:0:0:0:
448,192,293108,1,0,0:0:0:0:
192,192,293150,1,0,0:0:0:0:
64,192,293165,1,0,0:0:0:0:
320,192,293207,1,0,0:0:0:0:
448,192,293221,1,0,0:0:0:0:
192,192,293264,1,0,0:0:0:0:
64,192,293278,1,0,0:0:0:0:
320,192,293320,1,0,0:0:0:0:
448,192,293334,1,0,0:0:0:0:
192,192,293377,1,0,0:0:0:0:
64,192,293391,1,0,0:0:0:0:
320,192,293433,1,0,0:0:0:0:
448,192,293448,1,0,0:0:0:0:
192,192,293490,1,0,0:0:0:0:
64,192,293504,1,0,0:0:0:0:
320,192,293547,1,0,0:0:0:0:
448,192,293561,1,0,0:0:0:0:
192,192,293603,1,0,0:0:0:0:
64,192,293617,1,0,0:0:0:0:
320,192,293660,1,0,0:0:0:0:
448,192,293674,1,0,0:0:0:0:
192,192,293716,1,0,0:0:0:0:
64,192,293731,1,0,0:0:0:0:
320,192,293773,1,0,0:0:0:0:
448,192,293787,1,0,0:0:0:0:
192,192,293830,1,0,0:0:0:0:
64,192,293844,1,0,0:0:0:0:
320,192,293886,1,0,0:0:0:0:
448,192,293900,1,0,0:0:0:0:
192,192,293943,1,0,0:0:0:0:
64,192,293957,1,0,0:0:0:0:
320,192,294000,1,0,0:0:0:0:
448,192,294014,1,0,0:0:0:0:
192,192,294056,1,0,0:0:0:0:
64,192,294070,1,0,0:0:0:0:
320,192,294113,128,0,294226:0:0:0:0:
448,192,294127,1,0,0:0:0:0:
64,192,294339,1,0,0:0:0:0:
192,192,294353,1,0,0:0:0:0:
320,192,294367,1,0,0:0:0:0:
448,192,294384,1,0,0:0:0:0:
192,192,294424,1,0,0:0:0:0:
64,192,294430,1,0,0:0:0:0:
320,192,294466,1,0,0:0:0:0:
448,192,294475,1,0,0:0:0:0:
192,192,294509,1,0,0:0:0:0:
64,192,294520,1,0,0:0:0:0:
448,192,294551,1,0,0:0:0:0:
320,192,294580,1,0,0:0:0:0:
192,192,294608,1,0,0:0:0:0:
64,192,294611,1,0,0:0:0:0:
448,192,294636,1,0,0:0:0:0:
320,192,294656,1,0,0:0:0:0:
64,192,294701,1,0,0:0:0:0:
192,192,294707,1,0,0:0:0:0:
448,192,294735,1,0,0:0:0:0:
320,192,294750,1,0,0:0:0:0:
64,192,294778,1,0,0:0:0:0:
192,192,294806,1,0,0:0:0:0:
448,192,294820,1,0,0:0:0:0:
320,192,294849,1,0,0:0:0:0:
64,192,294877,1,0,0:0:0:0:
192,192,294891,1,0,0:0:0:0:
448,192,294928,1,0,0:0:0:0:
320,192,294933,1,0,0:0:0:0:
192,192,294962,1,0,0:0:0:0:
64,192,294976,1,0,0:0:0:0:
448,192,295018,1,0,0:0:0:0:
320,192,295033,1,0,0:0:0:0:
192,192,295061,1,0,0:0:0:0:
64,192,295064,1,0,0:0:0:0:
448,192,295109,1,0,0:0:0:0:
320,192,295132,1,0,0:0:0:0:
192,192,295146,1,0,0:0:0:0:
64,192,295174,1,0,0:0:0:0:
320,192,295200,1,0,0:0:0:0:
448,192,295202,1,0,0:0:0:0:
192,192,295245,1,0,0:0:0:0:
64,192,295245,1,0,0:0:0:0:
320,192,295287,1,0,0:0:0:0:
448,192,295316,1,0,0:0:0:0:
192,192,295330,1,0,0:0:0:0:
64,192,295344,1,0,0:0:0:0:
320,192,295358,1,0,0:0:0:0:
448,192,295381,1,0,0:0:0:0:
64,192,295426,1,0,0:0:0:0:
192,192,295426,1,0,0:0:0:0:
320,192,295457,1,0,0:0:0:0:
448,192,295471,1,0,0:0:0:0:
64,192,295500,1,0,0:0:0:0:
192,192,295514,1,0,0:0:0:0:
320,192,295556,1,0,0:0:0:0:
448,192,295562,1,0,0:0:0:0:
192,192,295599,1,0,0:0:0:0:
64,192,295599,1,0,0:0:0:0:
320,192,295655,1,0,0:0:0:0:
448,192,295655,1,0,0:0:0:0:
192,192,295683,1,0,0:0:0:0:
64,192,295698,1,0,0:0:0:0:
320,192,295726,1,0,0:0:0:0:
448,192,295740,1,0,0:0:0:0:
64,192,295797,1,0,0:0:0:0:
192,192,295797,1,0,0:0:0:0:
320,192,295811,1,0,0:0:0:0:
448,192,295825,1,0,0:0:0:0:
64,192,295879,1,0,0:0:0:0:
192,192,295879,1,0,0:0:0:0:
448,192,295924,1,0,0:0:0:0:
320,192,295938,1,0,0:0:0:0:
192,192,295966,1,0,0:0:0:0:
64,192,295981,1,0,0:0:0:0:
448,192,296015,1,0,0:0:0:0:
320,192,296023,1,0,0:0:0:0:
192,192,296051,1,0,0:0:0:0:
64,192,296051,1,0,0:0:0:0:
320,192,296108,1,0,0:0:0:0:
448,192,296108,1,0,0:0:0:0:
192,192,296150,1,0,0:0:0:0:
64,192,296377,1,0,0:0:0:0:
192,192,296490,1,0,0:0:0:0:
320,192,296603,1,0,0:0:0:0:
192,192,296716,1,0,0:0:0:0:
64,192,296830,1,0,0:0:0:0:
320,192,296943,1,0,0:0:0:0:
192,192,297169,1,0,0:0:0:0:
320,192,297283,1,0,0:0:0:0:
64,192,297396,1,0,0:0:0:0:
320,192,297509,1,0,0:0:0:0:
448,192,297735,1,0,0:0:0:0:
64,192,297962,128,0,298867:0:0:0:0:
192,192,298415,128,0,299773:0:0:0:0:
320,192,299773,1,0,0:0:0:0:
448,192,299773,1,0,0:0:0:0:
320,192,299886,1,0,0:0:0:0:
448,192,299886,1,0,0:0:0:0:
64,192,299943,1,0,0:0:0:0:
192,192,299943,1,0,0:0:0:0:
320,192,300000,1,0,0:0:0:0:
448,192,300000,1,0,0:0:0:0:
320,192,300113,1,0,0:0:0:0:
448,192,300113,1,0,0:0:0:0:
64,192,300169,1,0,0:0:0:0:
192,192,300169,1,0,0:0:0:0:
320,192,300226,1,0,0:0:0:0:
448,192,300226,1,0,0:0:0:0:
320,192,300339,1,0,0:0:0:0:
448,192,300339,1,0,0:0:0:0:
192,192,300396,1,0,0:0:0:0:
64,192,300396,1,0,0:0:0:0:
320,192,300452,1,0,0:0:0:0:
448,192,300452,1,0,0:0:0:0:
320,192,300566,1,0,0:0:0:0:
448,192,300566,1,0,0:0:0:0:
64,192,300622,1,0,0:0:0:0:
192,192,300622,1,0,0:0:0:0:
320,192,300679,1,0,0:0:0:0:
448,192,300679,1,0,0:0:0:0:
192,192,300735,1,0,0:0:0:0:
64,192,300735,1,0,0:0:0:0:
320,192,300792,1,0,0:0:0:0:
448,192,300792,1,0,0:0:0:0:
192,192,300849,1,0,0:0:0:0:
64,192,300849,1,0,0:0:0:0:
320,192,300905,1,0,0:0:0:0:
448,192,300905,1,0,0:0:0:0:
192,192,300962,1,0,0:0:0:0:
64,192,300962,1,0,0:0:0:0:
320,192,301018,1,0,0:0:0:0:
448,192,301018,1,0,0:0:0:0:
192,192,301075,1,0,0:0:0:0:
64,192,301075,1,0,0:0:0:0:
448,192,301132,128,0,301326:0:0:0:0:
320,192,301196,128,0,301358:0:0:0:0:
192,192,301261,128,0,301390:0:0:0:0:
64,192,301326,128,0,301423:0:0:0:0:
448,192,301358,128,0,301449:0:0:0:0:
320,192,301403,128,0,301494:0:0:0:0:
192,192,301455,128,0,301552:0:0:0:0:
64,192,301584,1,0,0:0:0:0:
192,192,301584,1,0,0:0:0:0:
320,192,301584,1,0,0:0:0:0:
320,192,301698,1,0,0:0:0:0:
448,192,301698,1,0,0:0:0:0:
192,192,301698,1,0,0:0:0:0:
64,192,301811,1,0,0:0:0:0:
192,192,301811,1,0,0:0:0:0:
448,192,301811,1,0,0:0:0:0:
320,192,301924,1,0,0:0:0:0:
192,192,301924,1,0,0:0:0:0:
448,192,301924,1,0,0:0:0:0:
320,192,302037,1,0,0:0:0:0:
448,192,302037,1,0,0:0:0:0:
64,192,302037,1,0,0:0:0:0:
192,192,302150,1,0,0:0:0:0:
64,192,302150,1,0,0:0:0:0:
448,192,302150,1,0,0:0:0:0:
192,192,302264,1,0,0:0:0:0:
320,192,302264,1,0,0:0:0:0:
448,192,302264,1,0,0:0:0:0:
192,192,302400,1,0,0:0:0:0:
64,192,302400,1,0,0:0:0:0:
320,192,302445,1,0,0:0:0:0:
448,192,302445,1,0,0:0:0:0:
192,192,302490,1,0,0:0:0:0:
64,192,302490,1,0,0:0:0:0:
320,192,302535,1,0,0:0:0:0:
448,192,302535,1,0,0:0:0:0:
192,192,302581,1,0,0:0:0:0:
64,192,302581,1,0,0:0:0:0:
320,192,302626,1,0,0:0:0:0:
448,192,302626,1,0,0:0:0:0:
320,192,302716,1,0,0:0:0:0:
448,192,302716,1,0,0:0:0:0:
192,192,302762,1,0,0:0:0:0:
64,192,302762,1,0,0:0:0:0:
320,192,302807,1,0,0:0:0:0:
448,192,302807,1,0,0:0:0:0:
192,192,302852,1,0,0:0:0:0:
64,192,302852,1,0,0:0:0:0:
320,192,302898,1,0,0:0:0:0:
448,192,302898,1,0,0:0:0:0:
192,192,302943,1,0,0:0:0:0:
64,192,302943,1,0,0:0:0:0:
448,192,303056,1,0,0:0:0:0:
64,192,303056,1,0,0:0:0:0:
192,192,303056,1,0,0:0:0:0:
320,192,303169,1,0,0:0:0:0:
192,192,303169,1,0,0:0:0:0:
64,192,303169,1,0,0:0:0:0:
192,192,303283,1,0,0:0:0:0:
448,192,303283,1,0,0:0:0:0:
320,192,303283,1,0,0:0:0:0:
448,192,303396,1,0,0:0:0:0:
320,192,303396,1,0,0:0:0:0:
192,192,303452,1,0,0:0:0:0:
64,192,303452,1,0,0:0:0:0:
448,192,303509,1,0,0:0:0:0:
320,192,303509,1,0,0:0:0:0:
192,192,303622,1,0,0:0:0:0:
64,192,303622,1,0,0:0:0:0:
320,192,303679,1,0,0:0:0:0:
448,192,303679,1,0,0:0:0:0:
192,192,303735,1,0,0:0:0:0:
64,192,303735,1,0,0:0:0:0:
320,192,303792,1,0,0:0:0:0:
448,192,303792,1,0,0:0:0:0:
192,192,303849,1,0,0:0:0:0:
64,192,303849,1,0,0:0:0:0:
192,192,303962,1,0,0:0:0:0:
320,192,303962,1,0,0:0:0:0:
448,192,303962,1,0,0:0:0:0:
192,192,304075,1,0,0:0:0:0:
448,192,304075,1,0,0:0:0:0:
64,192,304075,1,0,0:0:0:0:
448,192,304188,1,0,0:0:0:0:
320,192,304188,1,0,0:0:0:0:
64,192,304188,1,0,0:0:0:0:
320,192,304301,1,0,0:0:0:0:
448,192,304301,1,0,0:0:0:0:
192,192,304301,1,0,0:0:0:0:
192,192,304415,1,0,0:0:0:0:
64,192,304415,1,0,0:0:0:0:
448,192,304415,1,0,0:0:0:0:
64,192,304528,1,0,0:0:0:0:
192,192,304528,1,0,0:0:0:0:
320,192,304528,1,0,0:0:0:0:
448,192,304641,1,0,0:0:0:0:
64,192,304641,1,0,0:0:0:0:
320,192,304641,1,0,0:0:0:0:
448,192,304754,1,0,0:0:0:0:
320,192,304754,1,0,0:0:0:0:
192,192,304754,1,0,0:0:0:0:
320,192,304867,1,0,0:0:0:0:
64,192,304867,1,0,0:0:0:0:
192,192,304867,1,0,0:0:0:0:
192,192,304981,1,0,0:0:0:0:
448,192,304981,1,0,0:0:0:0:
64,192,304981,1,0,0:0:0:0:
192,192,305094,1,0,0:0:0:0:
448,192,305094,1,0,0:0:0:0:
320,192,305094,1,0,0:0:0:0:
64,192,305207,1,0,0:0:0:0:
320,192,305207,1,0,0:0:0:0:
448,192,305207,1,0,0:0:0:0:
192,192,305320,1,0,0:0:0:0:
320,192,305433,1,0,0:0:0:0:
64,192,305433,1,0,0:0:0:0:
192,192,305433,1,0,0:0:0:0:
448,192,305547,1,0,0:0:0:0:
192,192,305660,1,0,0:0:0:0:
64,192,305660,1,0,0:0:0:0:
448,192,305660,1,0,0:0:0:0:
320,192,305773,1,0,0:0:0:0:
448,192,305886,1,0,0:0:0:0:
320,192,305886,1,0,0:0:0:0:
64,192,305886,1,0,0:0:0:0:
192,192,306000,1,0,0:0:0:0:
64,192,306113,1,0,0:0:0:0:
192,192,306113,1,0,0:0:0:0:
320,192,306113,1,0,0:0:0:0:
448,192,306226,1,0,0:0:0:0:
448,192,306339,1,0,0:0:0:0:
320,192,306339,1,0,0:0:0:0:
192,192,306339,1,0,0:0:0:0:
64,192,306452,1,0,0:0:0:0:
64,192,306566,1,0,0:0:0:0:
192,192,306566,1,0,0:0:0:0:
448,192,306566,1,0,0:0:0:0:
320,192,306679,1,0,0:0:0:0:
320,192,306792,1,0,0:0:0:0:
64,192,306792,1,0,0:0:0:0:
448,192,306792,1,0,0:0:0:0:
192,192,306905,1,0,0:0:0:0:
64,192,307018,128,0,307245:0:0:0:0:
448,192,307018,128,0,307245:0:0:0:0:
320,192,307018,128,0,307245:0:0:0:0:
192,192,307245,128,0,307471:0:0:0:0:
448,192,307471,128,0,307698:0:0:0:0:
64,192,307471,1,0,0:0:0:0:
320,192,307698,128,0,308377:0:0:0:0:
64,192,307698,1,0,0:0:0:0:
192,192,307924,1,0,0:0:0:0:
448,192,307924,1,0,0:0:0:0:
192,192,308150,1,0,0:0:0:0:
64,192,308150,1,0,0:0:0:0:
192,192,308377,1,0,0:0:0:0:
64,192,308377,1,0,0:0:0:0:
192,192,308490,1,0,0:0:0:0:
320,192,308490,1,0,0:0:0:0:
320,192,308603,1,0,0:0:0:0:
448,192,308603,1,0,0:0:0:0:
320,192,308816,1,0,0:0:0:0:
448,192,308830,1,0,0:0:0:0:
192,192,308886,1,0,0:0:0:0:
64,192,308886,1,0,0:0:0:0:
320,192,308929,1,0,0:0:0:0:
448,192,308943,1,0,0:0:0:0:
192,192,309000,1,0,0:0:0:0:
64,192,309000,1,0,0:0:0:0:
320,192,309042,1,0,0:0:0:0:
448,192,309056,1,0,0:0:0:0:
192,192,309113,1,0,0:0:0:0:
64,192,309113,1,0,0:0:0:0:
320,192,309155,1,0,0:0:0:0:
448,192,309169,1,0,0:0:0:0:
192,192,309226,1,0,0:0:0:0:
64,192,309226,1,0,0:0:0:0:
320,192,309268,1,0,0:0:0:0:
448,192,309283,1,0,0:0:0:0:
192,192,309339,1,0,0:0:0:0:
64,192,309339,1,0,0:0:0:0:
320,192,309382,1,0,0:0:0:0:
448,192,309396,1,0,0:0:0:0:
192,192,309452,1,0,0:0:0:0:
64,192,309452,1,0,0:0:0:0:
320,192,309495,1,0,0:0:0:0:
448,192,309509,1,0,0:0:0:0:
192,192,309566,1,0,0:0:0:0:
64,192,309566,1,0,0:0:0:0:
320,192,309608,1,0,0:0:0:0:
448,192,309622,1,0,0:0:0:0:
192,192,309679,1,0,0:0:0:0:
64,192,309679,1,0,0:0:0:0:
320,192,309721,1,0,0:0:0:0:
448,192,309735,1,0,0:0:0:0:
192,192,309778,1,0,0:0:0:0:
64,192,309778,1,0,0:0:0:0:
320,192,309820,1,0,0:0:0:0:
448,192,309834,1,0,0:0:0:0:
192,192,309863,1,0,0:0:0:0:
64,192,309863,1,0,0:0:0:0:
320,192,309905,1,0,0:0:0:0:
448,192,309919,1,0,0:0:0:0:
192,192,309962,1,0,0:0:0:0:
64,192,309962,1,0,0:0:0:0:
320,192,310004,1,0,0:0:0:0:
448,192,310018,1,0,0:0:0:0:
192,192,310075,1,0,0:0:0:0:
64,192,310075,1,0,0:0:0:0:
320,192,310117,1,0,0:0:0:0:
448,192,310132,1,0,0:0:0:0:
192,192,310188,1,0,0:0:0:0:
64,192,310188,1,0,0:0:0:0:
320,192,310231,1,0,0:0:0:0:
448,192,310245,1,0,0:0:0:0:
192,192,310301,1,0,0:0:0:0:
64,192,310301,1,0,0:0:0:0:
320,192,310344,1,0,0:0:0:0:
448,192,310358,1,0,0:0:0:0:
192,192,310415,1,0,0:0:0:0:
64,192,310415,1,0,0:0:0:0:
320,192,310457,1,0,0:0:0:0:
448,192,310471,1,0,0:0:0:0:
192,192,310528,1,0,0:0:0:0:
64,192,310528,1,0,0:0:0:0:
320,192,310570,1,0,0:0:0:0:
448,192,310584,1,0,0:0:0:0:
192,192,310641,1,0,0:0:0:0:
64,192,310641,1,0,0:0:0:0:
320,192,310683,1,0,0:0:0:0:
448,192,310698,1,0,0:0:0:0:
192,192,310754,1,0,0:0:0:0:
64,192,310754,1,0,0:0:0:0:
320,192,310797,1,0,0:0:0:0:
448,192,310811,1,0,0:0:0:0:
192,192,310867,1,0,0:0:0:0:
64,192,310867,1,0,0:0:0:0:
320,192,310896,1,0,0:0:0:0:
448,192,310910,1,0,0:0:0:0:
192,192,310966,1,0,0:0:0:0:
64,192,310966,1,0,0:0:0:0:
320,192,310981,1,0,0:0:0:0:
448,192,311000,1,0,0:0:0:0:
192,192,311051,1,0,0:0:0:0:
64,192,311051,1,0,0:0:0:0:
320,192,311080,1,0,0:0:0:0:
448,192,311094,1,0,0:0:0:0:
192,192,311150,1,0,0:0:0:0:
64,192,311150,1,0,0:0:0:0:
320,192,311193,1,0,0:0:0:0:
448,192,311207,1,0,0:0:0:0:
192,192,311264,1,0,0:0:0:0:
64,192,311264,1,0,0:0:0:0:
320,192,311306,1,0,0:0:0:0:
448,192,311320,1,0,0:0:0:0:
192,192,311363,1,0,0:0:0:0:
64,192,311363,1,0,0:0:0:0:
320,192,311405,1,0,0:0:0:0:
448,192,311419,1,0,0:0:0:0:
192,192,311448,1,0,0:0:0:0:
64,192,311448,1,0,0:0:0:0:
320,192,311490,1,0,0:0:0:0:
448,192,311504,1,0,0:0:0:0:
192,192,311547,1,0,0:0:0:0:
64,192,311547,1,0,0:0:0:0:
320,192,311589,1,0,0:0:0:0:
448,192,311603,1,0,0:0:0:0:
192,192,311660,1,0,0:0:0:0:
64,192,311660,1,0,0:0:0:0:
320,192,311702,1,0,0:0:0:0:
448,192,311716,1,0,0:0:0:0:
192,192,311773,1,0,0:0:0:0:
64,192,311773,1,0,0:0:0:0:
320,192,311816,1,0,0:0:0:0:
448,192,311830,1,0,0:0:0:0:
192,192,311886,1,0,0:0:0:0:
64,192,311886,1,0,0:0:0:0:
320,192,311929,1,0,0:0:0:0:
448,192,311943,1,0,0:0:0:0:
192,192,312000,1,0,0:0:0:0:
64,192,312000,1,0,0:0:0:0:
320,192,312042,1,0,0:0:0:0:
448,192,312056,1,0,0:0:0:0:
192,192,312113,1,0,0:0:0:0:
64,192,312113,1,0,0:0:0:0:
320,192,312155,1,0,0:0:0:0:
448,192,312169,1,0,0:0:0:0:
192,192,312226,1,0,0:0:0:0:
64,192,312226,1,0,0:0:0:0:
320,192,312339,1,0,0:0:0:0:
448,192,312339,1,0,0:0:0:0:
192,192,312452,1,0,0:0:0:0:
64,192,312452,1,0,0:0:0:0:
448,192,312566,1,0,0:0:0:0:
192,192,312566,1,0,0:0:0:0:
320,192,312679,1,0,0:0:0:0:
192,192,312679,1,0,0:0:0:0:
448,192,312679,1,0,0:0:0:0:
192,192,312792,1,0,0:0:0:0:
64,192,312792,1,0,0:0:0:0:
320,192,312905,1,0,0:0:0:0:
64,192,312905,1,0,0:0:0:0:
448,192,312905,1,0,0:0:0:0:
320,192,313018,1,0,0:0:0:0:
64,192,313018,1,0,0:0:0:0:
192,192,313132,1,0,0:0:0:0:
64,192,313132,1,0,0:0:0:0:
448,192,313132,1,0,0:0:0:0:
192,192,313245,1,0,0:0:0:0:
320,192,313245,1,0,0:0:0:0:
320,192,313358,1,0,0:0:0:0:
64,192,313358,1,0,0:0:0:0:
192,192,313358,1,0,0:0:0:0:
320,192,313471,1,0,0:0:0:0:
448,192,313471,1,0,0:0:0:0:
448,192,313584,1,0,0:0:0:0:
192,192,313584,1,0,0:0:0:0:
64,192,313584,1,0,0:0:0:0:
320,192,313698,1,0,0:0:0:0:
64,192,313698,1,0,0:0:0:0:
192,192,313811,1,0,0:0:0:0:
320,192,313811,1,0,0:0:0:0:
448,192,313811,1,0,0:0:0:0:
192,192,313924,1,0,0:0:0:0:
448,192,313924,1,0,0:0:0:0:
320,192,314037,1,0,0:0:0:0:
64,192,314037,1,0,0:0:0:0:
448,192,314037,1,0,0:0:0:0:
320,192,314150,1,0,0:0:0:0:
64,192,314150,1,0,0:0:0:0:
192,192,314264,128,0,314547:0:0:0:0:
320,192,314264,128,0,314547:0:0:0:0:
448,192,314264,128,0,314603:0:0:0:0:
64,192,314377,1,0,0:0:0:0:
320,192,314603,128,0,315113:0:0:0:0:
192,192,314603,128,0,315113:0:0:0:0:
64,192,314603,128,0,315169:0:0:0:0:
448,192,314886,1,0,0:0:0:0:
192,192,315169,128,0,316075:0:0:0:0:
320,192,315169,128,0,316075:0:0:0:0:
448,192,315169,128,0,316075:0:0:0:0:
64,192,316075,1,0,0:0:0:0:
192,192,316132,1,0,0:0:0:0:
320,192,316188,1,0,0:0:0:0:
448,192,316245,1,0,0:0:0:0:
192,192,316301,1,0,0:0:0:0:
320,192,316358,1,0,0:0:0:0:
448,192,316415,1,0,0:0:0:0:
192,192,316471,1,0,0:0:0:0:
64,192,316528,1,0,0:0:0:0:
320,192,316584,1,0,0:0:0:0:
192,192,316641,1,0,0:0:0:0:
448,192,316698,1,0,0:0:0:0:
64,192,316754,1,0,0:0:0:0:
192,192,316811,1,0,0:0:0:0:
320,192,316867,1,0,0:0:0:0:
448,192,316924,1,0,0:0:0:0:
192,192,316981,1,0,0:0:0:0:
320,192,317037,1,0,0:0:0:0:
448,192,317094,1,0,0:0:0:0:
192,192,317150,1,0,0:0:0:0:
320,192,317207,1,0,0:0:0:0:
64,192,317264,1,0,0:0:0:0:
320,192,317320,1,0,0:0:0:0:
192,192,317377,1,0,0:0:0:0:
64,192,317433,1,0,0:0:0:0:
448,192,317490,1,0,0:0:0:0:
64,192,317547,1,0,0:0:0:0:
192,192,317603,1,0,0:0:0:0:
320,192,317660,1,0,0:0:0:0:
64,192,317716,1,0,0:0:0:0:
448,192,317773,1,0,0:0:0:0:
320,192,317830,1,0,0:0:0:0:
64,192,317886,1,0,0:0:0:0:
192,192,317886,1,0,0:0:0:0:
448,192,317886,1,0,0:0:0:0:
192,192,318000,1,0,0:0:0:0:
320,192,318113,1,0,0:0:0:0:
448,192,318113,1,0,0:0:0:0:
64,192,318113,1,0,0:0:0:0:
64,192,318226,1,0,0:0:0:0:
192,192,318339,1,0,0:0:0:0:
320,192,318339,1,0,0:0:0:0:
448,192,318339,1,0,0:0:0:0:
320,192,318452,1,0,0:0:0:0:
192,192,318566,1,0,0:0:0:0:
64,192,318566,1,0,0:0:0:0:
448,192,318566,1,0,0:0:0:0:
192,192,318679,1,0,0:0:0:0:
64,192,318792,1,0,0:0:0:0:
320,192,318792,1,0,0:0:0:0:
448,192,318792,1,0,0:0:0:0:
320,192,318905,1,0,0:0:0:0:
192,192,319018,1,0,0:0:0:0:
64,192,319018,1,0,0:0:0:0:
448,192,319018,1,0,0:0:0:0:
448,192,319132,1,0,0:0:0:0:
320,192,319245,1,0,0:0:0:0:
192,192,319245,1,0,0:0:0:0:
64,192,319245,1,0,0:0:0:0:
192,192,319358,1,0,0:0:0:0:
64,192,319471,1,0,0:0:0:0:
320,192,319471,1,0,0:0:0:0:
448,192,319471,1,0,0:0:0:0:
64,192,319584,1,0,0:0:0:0:
192,192,319698,1,0,0:0:0:0:
320,192,319698,1,0,0:0:0:0:
448,192,319698,1,0,0:0:0:0:
448,192,319811,1,0,0:0:0:0:
320,192,319924,1,0,0:0:0:0:
192,192,319924,1,0,0:0:0:0:
64,192,319924,1,0,0:0:0:0:
320,192,320037,1,0,0:0:0:0:
192,192,320150,1,0,0:0:0:0:
64,192,320150,1,0,0:0:0:0:
448,192,320150,1,0,0:0:0:0:
64,192,320264,1,0,0:0:0:0:
192,192,320377,1,0,0:0:0:0:
320,192,320377,1,0,0:0:0:0:
448,192,320377,1,0,0:0:0:0:
192,192,320490,1,0,0:0:0:0:
64,192,320603,1,0,0:0:0:0:
320,192,320603,1,0,0:0:0:0:
448,192,320603,1,0,0:0:0:0:
64,192,320716,1,0,0:0:0:0:
192,192,320830,1,0,0:0:0:0:
320,192,320830,1,0,0:0:0:0:
448,192,320830,1,0,0:0:0:0:
448,192,320943,1,0,0:0:0:0:
320,192,321056,1,0,0:0:0:0:
192,192,321056,1,0,0:0:0:0:
64,192,321056,1,0,0:0:0:0:
320,192,321169,1,0,0:0:0:0:
192,192,321283,1,0,0:0:0:0:
64,192,321283,1,0,0:0:0:0:
448,192,321283,1,0,0:0:0:0:
192,192,321396,1,0,0:0:0:0:
448,192,321509,1,0,0:0:0:0:
64,192,321509,1,0,0:0:0:0:
192,192,321509,1,0,0:0:0:0:
320,192,321566,1,0,0:0:0:0:
192,192,321622,1,0,0:0:0:0:
320,192,321679,1,0,0:0:0:0:
448,192,321735,1,0,0:0:0:0:
320,192,321792,1,0,0:0:0:0:
192,192,321849,1,0,0:0:0:0:
64,192,321905,1,0,0:0:0:0:
192,192,321962,1,0,0:0:0:0:
320,192,322018,1,0,0:0:0:0:
448,192,322075,1,0,0:0:0:0:
64,192,322132,1,0,0:0:0:0:
192,192,322188,1,0,0:0:0:0:
320,192,322245,1,0,0:0:0:0:
64,192,322301,1,0,0:0:0:0:
448,192,322358,1,0,0:0:0:0:
64,192,322415,1,0,0:0:0:0:
192,192,322415,1,0,0:0:0:0:
320,192,322415,1,0,0:0:0:0:
64,192,322528,1,0,0:0:0:0:
192,192,322528,1,0,0:0:0:0:
320,192,322528,1,0,0:0:0:0:
192,192,322641,1,0,0:0:0:0:
320,192,322641,1,0,0:0:0:0:
448,192,322641,1,0,0:0:0:0:
192,192,322754,1,0,0:0:0:0:
320,192,322754,1,0,0:0:0:0:
448,192,322754,1,0,0:0:0:0:
320,192,322867,1,0,0:0:0:0:
448,192,322867,1,0,0:0:0:0:
448,192,322981,1,0,0:0:0:0:
320,192,322981,1,0,0:0:0:0:
448,192,323094,1,0,0:0:0:0:
448,192,323207,1,0,0:0:0:0:
448,192,323320,1,0,0:0:0:0:
320,192,323320,1,0,0:0:0:0:
192,192,323320,1,0,0:0:0:0:
320,192,323433,1,0,0:0:0:0:
192,192,323547,1,0,0:0:0:0:
64,192,323547,1,0,0:0:0:0:
448,192,323547,1,0,0:0:0:0:
192,192,323660,1,0,0:0:0:0:
64,192,323773,1,0,0:0:0:0:
320,192,323773,1,0,0:0:0:0:
448,192,323773,1,0,0:0:0:0:
64,192,323886,1,0,0:0:0:0:
192,192,324000,1,0,0:0:0:0:
320,192,324000,1,0,0:0:0:0:
448,192,324000,1,0,0:0:0:0:
192,192,324113,1,0,0:0:0:0:
64,192,324226,1,0,0:0:0:0:
320,192,324226,1,0,0:0:0:0:
448,192,324226,1,0,0:0:0:0:
448,192,324339,1,0,0:0:0:0:
320,192,324452,1,0,0:0:0:0:
192,192,324452,1,0,0:0:0:0:
64,192,324452,1,0,0:0:0:0:
320,192,324566,1,0,0:0:0:0:
192,192,324679,1,0,0:0:0:0:
64,192,324679,1,0,0:0:0:0:
448,192,324679,1,0,0:0:0:0:
64,192,324792,1,0,0:0:0:0:
192,192,324905,1,0,0:0:0:0:
320,192,324905,1,0,0:0:0:0:
448,192,324905,1,0,0:0:0:0:
192,192,325018,1,0,0:0:0:0:
64,192,325132,1,0,0:0:0:0:
320,192,325132,1,0,0:0:0:0:
448,192,325132,1,0,0:0:0:0:
320,192,325245,1,0,0:0:0:0:
64,192,325358,1,0,0:0:0:0:
192,192,325358,1,0,0:0:0:0:
448,192,325358,1,0,0:0:0:0:
448,192,325471,1,0,0:0:0:0:
320,192,325584,1,0,0:0:0:0:
192,192,325641,1,0,0:0:0:0:
64,192,325698,1,0,0:0:0:0:
320,192,325754,1,0,0:0:0:0:
448,192,325811,1,0,0:0:0:0:
192,192,325867,1,0,0:0:0:0:
320,192,325924,1,0,0:0:0:0:
64,192,325981,1,0,0:0:0:0:
192,192,326037,1,0,0:0:0:0:
448,192,326094,1,0,0:0:0:0:
320,192,326150,1,0,0:0:0:0:
192,192,326207,1,0,0:0:0:0:
448,192,326264,1,0,0:0:0:0:
64,192,326320,1,0,0:0:0:0:
192,192,326377,1,0,0:0:0:0:
320,192,326433,1,0,0:0:0:0:
64,192,326490,1,0,0:0:0:0:
192,192,326547,1,0,0:0:0:0:
448,192,326603,1,0,0:0:0:0:
64,192,326660,1,0,0:0:0:0:
192,192,326716,1,0,0:0:0:0:
448,192,326773,1,0,0:0:0:0:
320,192,326830,1,0,0:0:0:0:
192,192,326886,1,0,0:0:0:0:
64,192,326943,1,0,0:0:0:0:
448,192,326943,1,0,0:0:0:0:
320,192,326943,1,0,0:0:0:0:
320,192,327056,1,0,0:0:0:0:
320,192,327169,1,0,0:0:0:0:
64,192,327169,1,0,0:0:0:0:
448,192,327169,1,0,0:0:0:0:
320,192,327283,1,0,0:0:0:0:
320,192,327396,1,0,0:0:0:0:
192,192,327396,1,0,0:0:0:0:
448,192,327396,1,0,0:0:0:0:
320,192,327509,1,0,0:0:0:0:
320,192,327622,1,0,0:0:0:0:
192,192,327622,1,0,0:0:0:0:
64,192,327622,1,0,0:0:0:0:
320,192,327735,1,0,0:0:0:0:
448,192,327735,1,0,0:0:0:0:
192,192,327735,1,0,0:0:0:0:
64,192,327849,1,0,0:0:0:0:
192,192,327849,1,0,0:0:0:0:
320,192,327849,1,0,0:0:0:0:
320,192,327962,1,0,0:0:0:0:
192,192,327962,1,0,0:0:0:0:
64,192,327962,1,0,0:0:0:0:
64,192,328075,1,0,0:0:0:0:
192,192,328075,1,0,0:0:0:0:
320,192,328075,1,0,0:0:0:0:
320,192,328188,1,0,0:0:0:0:
448,192,328188,1,0,0:0:0:0:
64,192,328188,1,0,0:0:0:0:
320,192,328301,1,0,0:0:0:0:
448,192,328301,1,0,0:0:0:0:
64,192,328301,1,0,0:0:0:0:
320,192,328415,1,0,0:0:0:0:
448,192,328415,1,0,0:0:0:0:
64,192,328415,1,0,0:0:0:0:
192,192,328528,1,0,0:0:0:0:
64,192,328641,1,0,0:0:0:0:
320,192,328641,1,0,0:0:0:0:
448,192,328641,1,0,0:0:0:0:
320,192,328754,1,0,0:0:0:0:
448,192,328754,1,0,0:0:0:0:
64,192,328754,1,0,0:0:0:0:
192,192,328867,1,0,0:0:0:0:
192,192,328981,1,0,0:0:0:0:
448,192,329094,1,0,0:0:0:0:
320,192,329094,1,0,0:0:0:0:
64,192,329094,1,0,0:0:0:0:
64,192,329207,1,0,0:0:0:0:
448,192,329207,1,0,0:0:0:0:
320,192,329207,1,0,0:0:0:0:
192,192,329320,1,0,0:0:0:0:
192,192,329433,1,0,0:0:0:0:
192,192,329547,1,0,0:0:0:0:
448,192,329660,128,0,330566:0:0:0:0:
320,192,329660,128,0,330566:0:0:0:0:
192,192,329660,128,0,330566:0:0:0:0:
64,192,330566,1,0,0:0:0:0:
64,192,330679,1,0,0:0:0:0:
64,192,330792,1,0,0:0:0:0:
192,192,330792,1,0,0:0:0:0:
320,192,330905,1,0,0:0:0:0:
320,192,331018,1,0,0:0:0:0:
448,192,331018,1,0,0:0:0:0:
192,192,331075,1,0,0:0:0:0:
64,192,331075,1,0,0:0:0:0:
320,192,331132,1,0,0:0:0:0:
448,192,331132,1,0,0:0:0:0:
192,192,331245,1,0,0:0:0:0:
64,192,331245,1,0,0:0:0:0:
320,192,331358,1,0,0:0:0:0:
64,192,331471,1,0,0:0:0:0:
320,192,331500,1,0,0:0:0:0:
448,192,331528,1,0,0:0:0:0:
192,192,331556,1,0,0:0:0:0:
64,192,331584,1,0,0:0:0:0:
320,192,331613,1,0,0:0:0:0:
448,192,331641,1,0,0:0:0:0:
192,192,331669,1,0,0:0:0:0:
64,192,331698,1,0,0:0:0:0:
320,192,331754,1,0,0:0:0:0:
448,192,331811,1,0,0:0:0:0:
192,192,331867,1,0,0:0:0:0:
64,192,331924,1,0,0:0:0:0:
320,192,331952,1,0,0:0:0:0:
448,192,331981,1,0,0:0:0:0:
192,192,332009,1,0,0:0:0:0:
64,192,332037,1,0,0:0:0:0:
448,192,332066,1,0,0:0:0:0:
320,192,332094,1,0,0:0:0:0:
192,192,332122,1,0,0:0:0:0:
64,192,332150,1,0,0:0:0:0:
448,192,332207,1,0,0:0:0:0:
192,192,332264,1,0,0:0:0:0:
320,192,332320,1,0,0:0:0:0:
64,192,332377,128,0,332603:0:0:0:0:
192,192,332377,128,0,332603:0:0:0:0:
320,192,332547,1,0,0:0:0:0:
448,192,332547,1,0,0:0:0:0:
320,192,332660,128,0,332830:0:0:0:0:
448,192,332660,128,0,332830:0:0:0:0:
192,192,332830,1,0,0:0:0:0:
64,192,332830,1,0,0:0:0:0:
320,192,332943,1,0,0:0:0:0:
192,192,333056,1,0,0:0:0:0:
320,192,333056,1,0,0:0:0:0:
320,192,333169,1,0,0:0:0:0:
64,192,333283,1,0,0:0:0:0:
448,192,333283,1,0,0:0:0:0:
320,192,333396,1,0,0:0:0:0:
192,192,333509,1,0,0:0:0:0:
320,192,333509,1,0,0:0:0:0:
448,192,333622,1,0,0:0:0:0:
320,192,333735,1,0,0:0:0:0:
448,192,333735,1,0,0:0:0:0:
320,192,333849,1,0,0:0:0:0:
448,192,333962,1,0,0:0:0:0:
192,192,333962,1,0,0:0:0:0:
320,192,334075,1,0,0:0:0:0:
192,192,334075,1,0,0:0:0:0:
320,192,334188,1,0,0:0:0:0:
64,192,334188,1,0,0:0:0:0:
320,192,334301,1,0,0:0:0:0:
192,192,334415,1,0,0:0:0:0:
448,192,334415,1,0,0:0:0:0:
192,192,334528,1,0,0:0:0:0:
64,192,334641,1,0,0:0:0:0:
320,192,334641,1,0,0:0:0:0:
64,192,334754,1,0,0:0:0:0:
320,192,334867,1,0,0:0:0:0:
448,192,334867,1,0,0:0:0:0:
320,192,334981,1,0,0:0:0:0:
192,192,335094,1,0,0:0:0:0:
448,192,335094,1,0,0:0:0:0:
192,192,335207,1,0,0:0:0:0:
64,192,335320,1,0,0:0:0:0:
320,192,335320,1,0,0:0:0:0:
192,192,335433,1,0,0:0:0:0:
448,192,335547,1,0,0:0:0:0:
320,192,335547,1,0,0:0:0:0:
192,192,335603,1,0,0:0:0:0:
64,192,335603,1,0,0:0:0:0:
320,192,335660,1,0,0:0:0:0:
448,192,335660,1,0,0:0:0:0:
192,192,335716,1,0,0:0:0:0:
64,192,335716,1,0,0:0:0:0:
320,192,335773,1,0,0:0:0:0:
448,192,335773,1,0,0:0:0:0:
192,192,335830,1,0,0:0:0:0:
64,192,335830,1,0,0:0:0:0:
320,192,335886,1,0,0:0:0:0:
448,192,335886,1,0,0:0:0:0:
192,192,335943,1,0,0:0:0:0:
64,192,335943,1,0,0:0:0:0:
320,192,336000,1,0,0:0:0:0:
448,192,336000,1,0,0:0:0:0:
320,192,336226,1,0,0:0:0:0:
192,192,336339,1,0,0:0:0:0:
320,192,336452,1,0,0:0:0:0:
448,192,336566,1,0,0:0:0:0:
192,192,336679,1,0,0:0:0:0:
64,192,336792,1,0,0:0:0:0:
320,192,337018,1,0,0:0:0:0:
448,192,337132,1,0,0:0:0:0:
192,192,337245,1,0,0:0:0:0:
64,192,337358,1,0,0:0:0:0:
448,192,337584,1,0,0:0:0:0:
64,192,337811,1,0,0:0:0:0:
192,192,337811,1,0,0:0:0:0:
64,192,337924,1,0,0:0:0:0:
192,192,337924,1,0,0:0:0:0:
64,192,338037,1,0,0:0:0:0:
192,192,338037,1,0,0:0:0:0:
320,192,338094,1,0,0:0:0:0:
448,192,338094,1,0,0:0:0:0:
320,192,338207,1,0,0:0:0:0:
448,192,338207,1,0,0:0:0:0:
320,192,338320,1,0,0:0:0:0:
448,192,338320,1,0,0:0:0:0:
448,192,338433,1,0,0:0:0:0:
320,192,338433,1,0,0:0:0:0:
320,192,338547,1,0,0:0:0:0:
448,192,338547,1,0,0:0:0:0:
192,192,338603,1,0,0:0:0:0:
64,192,338603,1,0,0:0:0:0:
64,192,338716,1,0,0:0:0:0:
192,192,338716,1,0,0:0:0:0:
64,192,338830,1,0,0:0:0:0:
192,192,338830,1,0,0:0:0:0:
320,192,338886,1,0,0:0:0:0:
448,192,338886,1,0,0:0:0:0:
320,192,339000,1,0,0:0:0:0:
64,192,339000,1,0,0:0:0:0:
320,192,339113,1,0,0:0:0:0:
64,192,339113,1,0,0:0:0:0:
320,192,339226,1,0,0:0:0:0:
64,192,339226,1,0,0:0:0:0:
320,192,339339,1,0,0:0:0:0:
64,192,339339,1,0,0:0:0:0:
64,192,339452,1,0,0:0:0:0:
320,192,339452,1,0,0:0:0:0:
192,192,339509,1,0,0:0:0:0:
448,192,339509,1,0,0:0:0:0:
192,192,339622,1,0,0:0:0:0:
448,192,339622,1,0,0:0:0:0:
448,192,339735,1,0,0:0:0:0:
192,192,339735,1,0,0:0:0:0:
320,192,339792,1,0,0:0:0:0:
64,192,339792,1,0,0:0:0:0:
64,192,339905,1,0,0:0:0:0:
448,192,339905,1,0,0:0:0:0:
64,192,340018,1,0,0:0:0:0:
448,192,340018,1,0,0:0:0:0:
64,192,340132,1,0,0:0:0:0:
448,192,340132,1,0,0:0:0:0:
64,192,340245,1,0,0:0:0:0:
448,192,340245,1,0,0:0:0:0:
64,192,340358,1,0,0:0:0:0:
448,192,340358,1,0,0:0:0:0:
64,192,340471,128,0,342735:0:0:0:0:
448,192,340471,128,0,342735:0:0:0:0:
448,192,342792,1,0,0:0:0:0:
320,192,342792,1,0,0:0:0:0:
192,192,342849,1,0,0:0:0:0:
64,192,342905,1,0,0:0:0:0:
320,192,342905,1,0,0:0:0:0:
448,192,342962,1,0,0:0:0:0:
192,192,343018,1,0,0:0:0:0:
64,192,343018,1,0,0:0:0:0:
320,192,343075,1,0,0:0:0:0:
448,192,343132,1,0,0:0:0:0:
192,192,343132,1,0,0:0:0:0:
64,192,343245,1,0,0:0:0:0:
192,192,343245,1,0,0:0:0:0:
320,192,343245,1,0,0:0:0:0:
448,192,343245,1,0,0:0:0:0:
