osu file format v14

[General]
AudioFilename: audio.mp3
AudioLeadIn: 0
PreviewTime: 300686
Countdown: 0
SampleSet: Normal
StackLeniency: 0.7
Mode: 3
LetterboxInBreaks: 0
SpecialStyle: 0
WidescreenStoryboard: 1

[Editor]
DistanceSpacing: 1.7
BeatDivisor: 4
GridSize: 4
TimelineZoom: 2.000006

[Metadata]
Title:Rude Buster (Camellia Remix)
TitleUnicode:Rude Buster (Camellia Remix)
Artist:Toby Fox
ArtistUnicode:Toby Fox
Creator:joser14
Version:Not Rude
Source:deltarune
Tags:deltarune undertale rude buster camellia toby fox
BeatmapID:3613484
BeatmapSetID:1764574

[Difficulty]
HPDrainRate:8
CircleSize:4
OverallDifficulty:8
ApproachRate:5
SliderMultiplier:1.4
SliderTickRate:1

[Events]
//Background and Video events
0,0,"deltarune.png",0,0
//Break Periods
//Storyboard Layer 0 (Background)
//Storyboard Layer 1 (Fail)
//Storyboard Layer 2 (Pass)
//Storyboard Layer 3 (Foreground)
//Storyboard Layer 4 (Overlay)
//Storyboard Sound Samples

[TimingPoints]
0,226.415094339623,4,1,0,15,1,0
44377,-100,4,1,0,15,0,1
58867,-100,4,1,0,15,0,0
66113,-100,4,1,0,15,0,1
80603,-100,4,1,0,15,0,0
109584,-100,4,1,0,15,0,1
124075,-100,4,1,0,15,0,0
160301,-100,4,1,0,15,0,1
174792,-100,4,1,0,15,0,0
301584,-100,4,1,0,15,0,1
330566,-100,4,1,0,15,0,0

[HitObjects]
320,192,905,128,0,4188:0:0:0:0:
192,192,905,1,0,0:0:0:0:
64,192,905,1,0,0:0:0:0:
192,192,4245,1,0,0:0:0:0:
320,192,4301,1,0,0:0:0:0:
448,192,4358,1,0,0:0:0:0:
64,192,4415,128,0,4528:0:0:0:0:
192,192,4415,128,0,4528:0:0:0:0:
320,192,5433,1,0,0:0:0:0:
448,192,5433,1,0,0:0:0:0:
320,192,6339,1,0,0:0:0:0:
64,192,6339,1,0,0:0:0:0:
64,192,7245,128,0,8150:0:0:0:0:
448,192,7698,128,0,8150:0:0:0:0:
192,192,8150,1,0,0:0:0:0:
192,192,8377,1,0,0:0:0:0:
320,192,8377,1,0,0:0:0:0:
192,192,8603,1,0,0:0:0:0:
320,192,8603,1,0,0:0:0:0:
448,192,8603,1,0,0:0:0:0:
448,192,8830,1,0,0:0:0:0:
320,192,8830,1,0,0:0:0:0:
192,192,9056,1,0,0:0:0:0:
64,192,9056,1,0,0:0:0:0:
320,192,9056,1,0,0:0:0:0:
320,192,9283,1,0,0:0:0:0:
64,192,9283,1,0,0:0:0:0:
64,192,9509,1,0,0:0:0:0:
320,192,9509,1,0,0:0:0:0:
448,192,9509,1,0,0:0:0:0:
192,192,9735,1,0,0:0:0:0:
448,192,9735,1,0,0:0:0:0:
192,192,9962,1,0,0:0:0:0:
64,192,9962,1,0,0:0:0:0:
320,192,9962,1,0,0:0:0:0:
320,192,10188,1,0,0:0:0:0:
192,192,10188,1,0,0:0:0:0:
192,192,10415,1,0,0:0:0:0:
448,192,10415,1,0,0:0:0:0:
320,192,10415,1,0,0:0:0:0:
448,192,10641,1,0,0:0:0:0:
64,192,10641,1,0,0:0:0:0:
64,192,10867,1,0,0:0:0:0:
192,192,10867,1,0,0:0:0:0:
320,192,10867,1,0,0:0:0:0:
320,192,11094,1,0,0:0:0:0:
64,192,11094,1,0,0:0:0:0:
64,192,11320,1,0,0:0:0:0:
192,192,11320,1,0,0:0:0:0:
320,192,11320,1,0,0:0:0:0:
320,192,11547,1,0,0:0:0:0:
448,192,11547,1,0,0:0:0:0:
448,192,11773,1,0,0:0:0:0:
192,192,11773,1,0,0:0:0:0:
64,192,11773,1,0,0:0:0:0:
192,192,12000,1,0,0:0:0:0:
448,192,12000,1,0,0:0:0:0:
448,192,12226,1,0,0:0:0:0:
320,192,12226,1,0,0:0:0:0:
192,192,12226,1,0,0:0:0:0:
192,192,12452,1,0,0:0:0:0:
64,192,12452,1,0,0:0:0:0:
64,192,12679,1,0,0:0:0:0:
192,192,12679,1,0,0:0:0:0:
320,192,12679,1,0,0:0:0:0:
320,192,12905,1,0,0:0:0:0:
192,192,12905,1,0,0:0:0:0:
192,192,13132,1,0,0:0:0:0:
64,192,13132,1,0,0:0:0:0:
448,192,13132,1,0,0:0:0:0:
448,192,13358,1,0,0:0:0:0:
320,192,13358,1,0,0:0:0:0:
192,192,13358,1,0,0:0:0:0:
192,192,13584,128,0,14433:0:0:0:0:
320,192,13584,128,0,14433:0:0:0:0:
448,192,14490,1,0,0:0:0:0:
64,192,14547,1,0,0:0:0:0:
192,192,14603,1,0,0:0:0:0:
320,192,14660,1,0,0:0:0:0:
448,192,14716,1,0,0:0:0:0:
320,192,14773,1,0,0:0:0:0:
192,192,14830,1,0,0:0:0:0:
64,192,14886,1,0,0:0:0:0:
320,192,14943,1,0,0:0:0:0:
448,192,15000,1,0,0:0:0:0:
192,192,15056,1,0,0:0:0:0:
64,192,15113,1,0,0:0:0:0:
448,192,15169,1,0,0:0:0:0:
320,192,15226,1,0,0:0:0:0:
192,192,15283,1,0,0:0:0:0:
64,192,15339,128,0,15566:0:0:0:0:
64,192,15679,1,0,0:0:0:0:
192,192,15792,1,0,0:0:0:0:
320,192,15905,1,0,0:0:0:0:
448,192,16018,1,0,0:0:0:0:
192,192,16132,128,0,16245:0:0:0:0:
192,192,16415,1,0,0:0:0:0:
320,192,16528,1,0,0:0:0:0:
64,192,16641,1,0,0:0:0:0:
320,192,16754,1,0,0:0:0:0:
64,192,16981,128,0,17094:0:0:0:0:
192,192,17207,1,0,0:0:0:0:
320,192,17433,1,0,0:0:0:0:
64,192,17547,1,0,0:0:0:0:
320,192,17660,1,0,0:0:0:0:
192,192,17773,1,0,0:0:0:0:
320,192,17886,1,0,0:0:0:0:
64,192,18000,128,0,18113:0:0:0:0:
192,192,18226,1,0,0:0:0:0:
320,192,18339,1,0,0:0:0:0:
64,192,18452,1,0,0:0:0:0:
448,192,18566,1,0,0:0:0:0:
320,192,18792,128,0,18905:0:0:0:0:
192,192,19018,1,0,0:0:0:0:
448,192,19245,1,0,0:0:0:0:
64,192,19358,1,0,0:0:0:0:
320,192,19471,1,0,0:0:0:0:
192,192,19584,1,0,0:0:0:0:
320,192,19698,1,0,0:0:0:0:
64,192,19811,128,0,19924:0:0:0:0:
320,192,20037,1,0,0:0:0:0:
192,192,20150,1,0,0:0:0:0:
448,192,20264,1,0,0:0:0:0:
64,192,20377,1,0,0:0:0:0:
448,192,20603,128,0,20716:0:0:0:0:
192,192,20773,128,0,21679:0:0:0:0:
320,192,21169,128,0,21566:0:0:0:0:
64,192,21509,1,0,0:0:0:0:
448,192,21735,128,0,22641:0:0:0:0:
64,192,21735,1,0,0:0:0:0:
192,192,21792,1,0,0:0:0:0:
320,192,21849,1,0,0:0:0:0:
64,192,21905,1,0,0:0:0:0:
192,192,21962,1,0,0:0:0:0:
320,192,22018,1,0,0:0:0:0:
64,192,22075,1,0,0:0:0:0:
192,192,22132,1,0,0:0:0:0:
320,192,22188,1,0,0:0:0:0:
64,192,22245,1,0,0:0:0:0:
192,192,22301,1,0,0:0:0:0:
320,192,22358,1,0,0:0:0:0:
64,192,22415,1,0,0:0:0:0:
192,192,22471,1,0,0:0:0:0:
320,192,22528,1,0,0:0:0:0:
64,192,22584,1,0,0:0:0:0:
192,192,22641,1,0,0:0:0:0:
320,192,22867,1,0,0:0:0:0:
192,192,22981,1,0,0:0:0:0:
64,192,23094,1,0,0:0:0:0:
448,192,23207,1,0,0:0:0:0:
192,192,23320,1,0,0:0:0:0:
448,192,23433,128,0,23547:0:0:0:0:
448,192,23660,1,0,0:0:0:0:
64,192,23773,1,0,0:0:0:0:
320,192,23886,1,0,0:0:0:0:
64,192,24000,1,0,0:0:0:0:
448,192,24226,128,0,24339:0:0:0:0:
192,192,24452,1,0,0:0:0:0:
448,192,24679,1,0,0:0:0:0:
64,192,24792,1,0,0:0:0:0:
192,192,24905,1,0,0:0:0:0:
448,192,25018,1,0,0:0:0:0:
320,192,25132,1,0,0:0:0:0:
192,192,25245,128,0,25358:0:0:0:0:
320,192,25471,1,0,0:0:0:0:
192,192,25584,1,0,0:0:0:0:
448,192,25698,1,0,0:0:0:0:
64,192,25811,1,0,0:0:0:0:
448,192,26037,128,0,26150:0:0:0:0:
192,192,26264,1,0,0:0:0:0:
448,192,26490,1,0,0:0:0:0:
320,192,26603,1,0,0:0:0:0:
64,192,26716,1,0,0:0:0:0:
320,192,26830,1,0,0:0:0:0:
192,192,26943,1,0,0:0:0:0:
320,192,27056,128,0,27169:0:0:0:0:
192,192,27283,1,0,0:0:0:0:
320,192,27396,1,0,0:0:0:0:
192,192,27509,1,0,0:0:0:0:
448,192,27622,1,0,0:0:0:0:
192,192,27849,128,0,27962:0:0:0:0:
320,192,28075,128,0,28415:0:0:0:0:
448,192,28075,128,0,28415:0:0:0:0:
64,192,28415,128,0,28754:0:0:0:0:
192,192,28415,128,0,28754:0:0:0:0:
320,192,28867,128,0,29773:0:0:0:0:
64,192,28867,1,0,0:0:0:0:
192,192,28924,1,0,0:0:0:0:
448,192,28981,1,0,0:0:0:0:
64,192,29037,1,0,0:0:0:0:
192,192,29094,1,0,0:0:0:0:
448,192,29150,1,0,0:0:0:0:
64,192,29207,1,0,0:0:0:0:
192,192,29264,1,0,0:0:0:0:
448,192,29320,1,0,0:0:0:0:
64,192,29377,1,0,0:0:0:0:
192,192,29433,1,0,0:0:0:0:
448,192,29490,1,0,0:0:0:0:
64,192,29547,1,0,0:0:0:0:
192,192,29603,1,0,0:0:0:0:
448,192,29660,1,0,0:0:0:0:
64,192,29716,1,0,0:0:0:0:
192,192,29773,1,0,0:0:0:0:
320,192,29886,1,0,0:0:0:0:
448,192,30113,1,0,0:0:0:0:
320,192,30226,1,0,0:0:0:0:
192,192,30339,1,0,0:0:0:0:
320,192,30452,1,0,0:0:0:0:
64,192,30509,128,0,30566:0:0:0:0:
192,192,30566,1,0,0:0:0:0:
320,192,30792,1,0,0:0:0:0:
320,192,31018,1,0,0:0:0:0:
192,192,31132,1,0,0:0:0:0:
448,192,31245,1,0,0:0:0:0:
320,192,31358,1,0,0:0:0:0:
64,192,31471,1,0,0:0:0:0:
192,192,31528,1,0,0:0:0:0:
320,192,31584,1,0,0:0:0:0:
192,192,31641,1,0,0:0:0:0:
448,192,31698,1,0,0:0:0:0:
320,192,31924,1,0,0:0:0:0:
448,192,32037,1,0,0:0:0:0:
320,192,32150,1,0,0:0:0:0:
192,192,32264,1,0,0:0:0:0:
448,192,32377,1,0,0:0:0:0:
320,192,32433,1,0,0:0:0:0:
192,192,32490,1,0,0:0:0:0:
320,192,32547,1,0,0:0:0:0:
64,192,32603,1,0,0:0:0:0:
192,192,32603,1,0,0:0:0:0:
448,192,32830,1,0,0:0:0:0:
192,192,32830,1,0,0:0:0:0:
448,192,32943,1,0,0:0:0:0:
64,192,32943,1,0,0:0:0:0:
320,192,33056,1,0,0:0:0:0:
192,192,33169,1,0,0:0:0:0:
448,192,33169,1,0,0:0:0:0:
64,192,33283,1,0,0:0:0:0:
192,192,33283,1,0,0:0:0:0:
448,192,33396,1,0,0:0:0:0:
320,192,33396,1,0,0:0:0:0:
448,192,33509,1,0,0:0:0:0:
320,192,33509,1,0,0:0:0:0:
448,192,33735,1,0,0:0:0:0:
320,192,33849,1,0,0:0:0:0:
192,192,33962,1,0,0:0:0:0:
64,192,34075,1,0,0:0:0:0:
320,192,34132,128,0,34358:0:0:0:0:
448,192,34132,128,0,34358:0:0:0:0:
192,192,34415,1,0,0:0:0:0:
320,192,34641,1,0,0:0:0:0:
192,192,34754,1,0,0:0:0:0:
320,192,34867,1,0,0:0:0:0:
448,192,34981,1,0,0:0:0:0:
64,192,35094,128,0,35264:0:0:0:0:
320,192,35094,128,0,35264:0:0:0:0:
192,192,35320,1,0,0:0:0:0:
448,192,35547,1,0,0:0:0:0:
192,192,35660,1,0,0:0:0:0:
320,192,35773,1,0,0:0:0:0:
64,192,35886,1,0,0:0:0:0:
448,192,36000,1,0,0:0:0:0:
320,192,36056,1,0,0:0:0:0:
64,192,36113,1,0,0:0:0:0:
192,192,36169,1,0,0:0:0:0:
448,192,36226,1,0,0:0:0:0:
320,192,36452,1,0,0:0:0:0:
192,192,36566,1,0,0:0:0:0:
64,192,36679,1,0,0:0:0:0:
448,192,36792,128,0,37132:0:0:0:0:
320,192,36792,128,0,37132:0:0:0:0:
192,192,37132,1,0,0:0:0:0:
64,192,37132,1,0,0:0:0:0:
192,192,37358,1,0,0:0:0:0:
320,192,37358,1,0,0:0:0:0:
448,192,37358,1,0,0:0:0:0:
192,192,37584,1,0,0:0:0:0:
320,192,37584,1,0,0:0:0:0:
320,192,37811,1,0,0:0:0:0:
448,192,37811,1,0,0:0:0:0:
64,192,37924,1,0,0:0:0:0:
192,192,37924,1,0,0:0:0:0:
448,192,38037,1,0,0:0:0:0:
320,192,38037,1,0,0:0:0:0:
64,192,38264,1,0,0:0:0:0:
192,192,38264,1,0,0:0:0:0:
320,192,38264,1,0,0:0:0:0:
320,192,38490,1,0,0:0:0:0:
448,192,38490,1,0,0:0:0:0:
192,192,38716,1,0,0:0:0:0:
64,192,38716,1,0,0:0:0:0:
320,192,38830,1,0,0:0:0:0:
448,192,38830,1,0,0:0:0:0:
192,192,38943,1,0,0:0:0:0:
64,192,38943,1,0,0:0:0:0:
192,192,39169,1,0,0:0:0:0:
64,192,39169,1,0,0:0:0:0:
448,192,39169,1,0,0:0:0:0:
448,192,39396,1,0,0:0:0:0:
192,192,39396,1,0,0:0:0:0:
192,192,39622,1,0,0:0:0:0:
64,192,39622,1,0,0:0:0:0:
320,192,39735,1,0,0:0:0:0:
448,192,39735,1,0,0:0:0:0:
192,192,39849,1,0,0:0:0:0:
64,192,39849,1,0,0:0:0:0:
320,192,40075,1,0,0:0:0:0:
64,192,40075,1,0,0:0:0:0:
448,192,40075,1,0,0:0:0:0:
64,192,40301,1,0,0:0:0:0:
192,192,40358,1,0,0:0:0:0:
448,192,40415,1,0,0:0:0:0:
320,192,40471,1,0,0:0:0:0:
64,192,40528,1,0,0:0:0:0:
192,192,40584,1,0,0:0:0:0:
448,192,40641,1,0,0:0:0:0:
320,192,40698,1,0,0:0:0:0:
64,192,40754,1,0,0:0:0:0:
192,192,40811,1,0,0:0:0:0:
448,192,40867,1,0,0:0:0:0:
320,192,40924,1,0,0:0:0:0:
64,192,40981,1,0,0:0:0:0:
192,192,41037,1,0,0:0:0:0:
448,192,41094,1,0,0:0:0:0:
320,192,41150,1,0,0:0:0:0:
64,192,41207,1,0,0:0:0:0:
192,192,41264,1,0,0:0:0:0:
448,192,41320,1,0,0:0:0:0:
320,192,41377,1,0,0:0:0:0:
64,192,41433,1,0,0:0:0:0:
192,192,41490,1,0,0:0:0:0:
448,192,41547,1,0,0:0:0:0:
320,192,41603,1,0,0:0:0:0:
64,192,41660,1,0,0:0:0:0:
192,192,41716,1,0,0:0:0:0:
448,192,41773,1,0,0:0:0:0:
320,192,41830,1,0,0:0:0:0:
64,192,41886,1,0,0:0:0:0:
192,192,41943,1,0,0:0:0:0:
448,192,42000,1,0,0:0:0:0:
320,192,42056,1,0,0:0:0:0:
64,192,42113,1,0,0:0:0:0:
192,192,42169,1,0,0:0:0:0:
448,192,42226,1,0,0:0:0:0:
320,192,42283,1,0,0:0:0:0:
64,192,42339,1,0,0:0:0:0:
192,192,42396,1,0,0:0:0:0:
448,192,42396,1,0,0:0:0:0:
320,192,42452,1,0,0:0:0:0:
64,192,42452,1,0,0:0:0:0:
192,192,42509,1,0,0:0:0:0:
448,192,42509,1,0,0:0:0:0:
320,192,42566,1,0,0:0:0:0:
320,192,42792,1,0,0:0:0:0:
64,192,42905,1,0,0:0:0:0:
448,192,43018,1,0,0:0:0:0:
192,192,43132,1,0,0:0:0:0:
64,192,43245,1,0,0:0:0:0:
320,192,43358,1,0,0:0:0:0:
192,192,43584,1,0,0:0:0:0:
320,192,43698,1,0,0:0:0:0:
64,192,43811,1,0,0:0:0:0:
192,192,43924,1,0,0:0:0:0:
64,192,44150,128,0,44320:0:0:0:0:
320,192,44377,1,0,0:0:0:0:
448,192,44377,1,0,0:0:0:0:
192,192,44377,1,0,0:0:0:0:
64,192,44490,1,0,0:0:0:0:
320,192,44603,1,0,0:0:0:0:
192,192,44716,1,0,0:0:0:0:
320,192,44830,1,0,0:0:0:0:
64,192,44830,1,0,0:0:0:0:
448,192,44943,1,0,0:0:0:0:
64,192,45056,1,0,0:0:0:0:
320,192,45169,1,0,0:0:0:0:
64,192,45283,1,0,0:0:0:0:
448,192,45283,1,0,0:0:0:0:
192,192,45283,1,0,0:0:0:0:
320,192,45396,1,0,0:0:0:0:
448,192,45509,1,0,0:0:0:0:
192,192,45622,1,0,0:0:0:0:
64,192,45735,1,0,0:0:0:0:
320,192,45735,1,0,0:0:0:0:
448,192,45849,1,0,0:0:0:0:
192,192,45962,1,0,0:0:0:0:
320,192,46075,1,0,0:0:0:0:
64,192,46188,1,0,0:0:0:0:
192,192,46188,1,0,0:0:0:0:
448,192,46188,1,0,0:0:0:0:
320,192,46301,1,0,0:0:0:0:
448,192,46415,1,0,0:0:0:0:
192,192,46528,1,0,0:0:0:0:
320,192,46641,1,0,0:0:0:0:
448,192,46641,1,0,0:0:0:0:
64,192,46754,1,0,0:0:0:0:
320,192,46867,1,0,0:0:0:0:
192,192,46981,1,0,0:0:0:0:
64,192,47094,1,0,0:0:0:0:
448,192,47094,1,0,0:0:0:0:
320,192,47094,1,0,0:0:0:0:
192,192,47207,1,0,0:0:0:0:
448,192,47320,1,0,0:0:0:0:
64,192,47433,1,0,0:0:0:0:
192,192,47547,1,0,0:0:0:0:
448,192,47547,1,0,0:0:0:0:
320,192,47660,1,0,0:0:0:0:
192,192,47773,1,0,0:0:0:0:
448,192,47886,1,0,0:0:0:0:
64,192,48000,1,0,0:0:0:0:
192,192,48000,1,0,0:0:0:0:
448,192,48000,1,0,0:0:0:0:
320,192,48113,1,0,0:0:0:0:
448,192,48226,1,0,0:0:0:0:
320,192,48339,1,0,0:0:0:0:
64,192,48452,1,0,0:0:0:0:
192,192,48452,1,0,0:0:0:0:
320,192,48566,1,0,0:0:0:0:
448,192,48679,1,0,0:0:0:0:
320,192,48792,1,0,0:0:0:0:
64,192,48905,1,0,0:0:0:0:
448,192,48905,1,0,0:0:0:0:
192,192,48905,1,0,0:0:0:0:
320,192,49018,1,0,0:0:0:0:
448,192,49132,1,0,0:0:0:0:
192,192,49132,1,0,0:0:0:0:
64,192,49245,1,0,0:0:0:0:
320,192,49358,1,0,0:0:0:0:
448,192,49358,1,0,0:0:0:0:
192,192,49471,1,0,0:0:0:0:
64,192,49584,1,0,0:0:0:0:
448,192,49698,1,0,0:0:0:0:
64,192,49811,128,0,50150:0:0:0:0:
448,192,49811,128,0,50150:0:0:0:0:
320,192,50150,128,0,50547:0:0:0:0:
64,192,50547,128,0,51509:0:0:0:0:
192,192,50547,128,0,51509:0:0:0:0:
320,192,51622,1,0,0:0:0:0:
192,192,51622,1,0,0:0:0:0:
64,192,51622,1,0,0:0:0:0:
448,192,51735,1,0,0:0:0:0:
64,192,51849,1,0,0:0:0:0:
320,192,51962,1,0,0:0:0:0:
192,192,52075,1,0,0:0:0:0:
448,192,52075,1,0,0:0:0:0:
64,192,52188,1,0,0:0:0:0:
448,192,52301,1,0,0:0:0:0:
320,192,52301,1,0,0:0:0:0:
192,192,52415,1,0,0:0:0:0:
64,192,52528,1,0,0:0:0:0:
448,192,52528,1,0,0:0:0:0:
320,192,52528,1,0,0:0:0:0:
192,192,52641,1,0,0:0:0:0:
320,192,52754,1,0,0:0:0:0:
192,192,52867,1,0,0:0:0:0:
320,192,52981,1,0,0:0:0:0:
448,192,52981,1,0,0:0:0:0:
64,192,53094,1,0,0:0:0:0:
320,192,53207,1,0,0:0:0:0:
192,192,53320,1,0,0:0:0:0:
448,192,53433,1,0,0:0:0:0:
320,192,53433,1,0,0:0:0:0:
64,192,53433,1,0,0:0:0:0:
192,192,53547,1,0,0:0:0:0:
448,192,53660,1,0,0:0:0:0:
64,192,53773,1,0,0:0:0:0:
192,192,53886,1,0,0:0:0:0:
448,192,53886,1,0,0:0:0:0:
64,192,54000,1,0,0:0:0:0:
320,192,54113,1,0,0:0:0:0:
448,192,54226,1,0,0:0:0:0:
64,192,54339,1,0,0:0:0:0:
192,192,54339,1,0,0:0:0:0:
320,192,54339,1,0,0:0:0:0:
448,192,54452,1,0,0:0:0:0:
64,192,54566,1,0,0:0:0:0:
320,192,54679,1,0,0:0:0:0:
64,192,54792,1,0,0:0:0:0:
448,192,54792,1,0,0:0:0:0:
192,192,54905,1,0,0:0:0:0:
448,192,55018,1,0,0:0:0:0:
320,192,55132,1,0,0:0:0:0:
448,192,55245,1,0,0:0:0:0:
192,192,55245,1,0,0:0:0:0:
64,192,55245,1,0,0:0:0:0:
320,192,55358,1,0,0:0:0:0:
64,192,55471,1,0,0:0:0:0:
192,192,55584,1,0,0:0:0:0:
320,192,55698,1,0,0:0:0:0:
448,192,55698,1,0,0:0:0:0:
192,192,55811,1,0,0:0:0:0:
64,192,55924,1,0,0:0:0:0:
448,192,56037,1,0,0:0:0:0:
64,192,56150,1,0,0:0:0:0:
192,192,56150,1,0,0:0:0:0:
320,192,56150,1,0,0:0:0:0:
448,192,56264,1,0,0:0:0:0:
192,192,56377,1,0,0:0:0:0:
320,192,56490,1,0,0:0:0:0:
448,192,56603,1,0,0:0:0:0:
64,192,56603,1,0,0:0:0:0:
192,192,56716,1,0,0:0:0:0:
448,192,56830,1,0,0:0:0:0:
192,192,56943,1,0,0:0:0:0:
448,192,57056,128,0,57509:0:0:0:0:
320,192,57056,128,0,57509:0:0:0:0:
192,192,57509,128,0,57792:0:0:0:0:
320,192,57792,128,0,58811:0:0:0:0:
64,192,57792,128,0,58811:0:0:0:0:
192,192,58867,128,0,59320:0:0:0:0:
64,192,58867,128,0,59320:0:0:0:0:
320,192,59320,128,0,59433:0:0:0:0:
448,192,59320,128,0,59433:0:0:0:0:
64,192,59490,1,0,0:0:0:0:
192,192,59547,1,0,0:0:0:0:
448,192,59603,1,0,0:0:0:0:
320,192,59660,1,0,0:0:0:0:
192,192,59716,1,0,0:0:0:0:
64,192,59716,1,0,0:0:0:0:
448,192,59773,1,0,0:0:0:0:
192,192,59886,1,0,0:0:0:0:
64,192,60000,1,0,0:0:0:0:
320,192,60000,1,0,0:0:0:0:
448,192,60113,1,0,0:0:0:0:
192,192,60226,1,0,0:0:0:0:
64,192,60283,1,0,0:0:0:0:
320,192,60339,1,0,0:0:0:0:
448,192,60396,1,0,0:0:0:0:
192,192,60452,1,0,0:0:0:0:
64,192,60509,1,0,0:0:0:0:
320,192,60566,1,0,0:0:0:0:
448,192,60622,128,0,60905:0:0:0:0:
192,192,60905,128,0,61018:0:0:0:0:
64,192,60905,128,0,61018:0:0:0:0:
448,192,61075,1,0,0:0:0:0:
320,192,61132,1,0,0:0:0:0:
64,192,61188,1,0,0:0:0:0:
192,192,61245,1,0,0:0:0:0:
448,192,61301,1,0,0:0:0:0:
320,192,61358,1,0,0:0:0:0:
64,192,61415,1,0,0:0:0:0:
192,192,61471,1,0,0:0:0:0:
448,192,61528,1,0,0:0:0:0:
320,192,61584,1,0,0:0:0:0:
64,192,61641,1,0,0:0:0:0:
192,192,61698,1,0,0:0:0:0:
320,192,61754,1,0,0:0:0:0:
448,192,61754,128,0,62037:0:0:0:0:
64,192,62037,1,0,0:0:0:0:
192,192,62037,1,0,0:0:0:0:
320,192,62150,1,0,0:0:0:0:
448,192,62150,1,0,0:0:0:0:
192,192,62264,1,0,0:0:0:0:
64,192,62264,1,0,0:0:0:0:
320,192,62377,1,0,0:0:0:0:
448,192,62377,1,0,0:0:0:0:
64,192,62490,128,0,62943:0:0:0:0:
192,192,62490,128,0,62943:0:0:0:0:
448,192,62943,1,0,0:0:0:0:
64,192,63056,1,0,0:0:0:0:
192,192,63113,1,0,0:0:0:0:
320,192,63169,1,0,0:0:0:0:
448,192,63226,1,0,0:0:0:0:
64,192,63283,1,0,0:0:0:0:
192,192,63339,1,0,0:0:0:0:
320,192,63396,1,0,0:0:0:0:
448,192,63452,1,0,0:0:0:0:
64,192,63509,1,0,0:0:0:0:
192,192,63622,1,0,0:0:0:0:
320,192,63735,1,0,0:0:0:0:
448,192,63849,1,0,0:0:0:0:
64,192,63924,1,0,0:0:0:0:
192,192,63924,1,0,0:0:0:0:
320,192,64000,1,0,0:0:0:0:
448,192,64000,1,0,0:0:0:0:
192,192,64075,1,0,0:0:0:0:
64,192,64075,1,0,0:0:0:0:
320,192,64150,1,0,0:0:0:0:
448,192,64150,1,0,0:0:0:0:
192,192,64226,1,0,0:0:0:0:
64,192,64226,1,0,0:0:0:0:
320,192,64301,128,0,64528:0:0:0:0:
448,192,64301,1,0,0:0:0:0:
192,192,64528,1,0,0:0:0:0:
64,192,64641,1,0,0:0:0:0:
192,192,64754,1,0,0:0:0:0:
320,192,64867,1,0,0:0:0:0:
64,192,64981,128,0,65094:0:0:0:0:
320,192,65094,1,0,0:0:0:0:
192,192,65320,1,0,0:0:0:0:
64,192,65433,1,0,0:0:0:0:
320,192,65547,1,0,0:0:0:0:
64,192,65660,128,0,65886:0:0:0:0:
320,192,65886,128,0,66056:0:0:0:0:
448,192,65886,128,0,66056:0:0:0:0:
64,192,66113,1,0,0:0:0:0:
320,192,66113,1,0,0:0:0:0:
448,192,66226,1,0,0:0:0:0:
192,192,66339,1,0,0:0:0:0:
320,192,66339,1,0,0:0:0:0:
64,192,66452,1,0,0:0:0:0:
320,192,66566,1,0,0:0:0:0:
448,192,66566,1,0,0:0:0:0:
192,192,66679,1,0,0:0:0:0:
320,192,66792,1,0,0:0:0:0:
64,192,66792,1,0,0:0:0:0:
192,192,66905,1,0,0:0:0:0:
64,192,67018,1,0,0:0:0:0:
320,192,67018,1,0,0:0:0:0:
448,192,67132,1,0,0:0:0:0:
64,192,67245,1,0,0:0:0:0:
192,192,67245,1,0,0:0:0:0:
320,192,67358,1,0,0:0:0:0:
64,192,67471,1,0,0:0:0:0:
448,192,67471,1,0,0:0:0:0:
192,192,67584,1,0,0:0:0:0:
64,192,67698,1,0,0:0:0:0:
320,192,67698,1,0,0:0:0:0:
192,192,67811,1,0,0:0:0:0:
320,192,67924,1,0,0:0:0:0:
448,192,67924,1,0,0:0:0:0:
192,192,68037,1,0,0:0:0:0:
64,192,68150,1,0,0:0:0:0:
448,192,68150,1,0,0:0:0:0:
192,192,68264,1,0,0:0:0:0:
448,192,68377,1,0,0:0:0:0:
320,192,68377,1,0,0:0:0:0:
192,192,68490,1,0,0:0:0:0:
320,192,68603,1,0,0:0:0:0:
64,192,68603,1,0,0:0:0:0:
192,192,68830,1,0,0:0:0:0:
320,192,68830,1,0,0:0:0:0:
64,192,68943,1,0,0:0:0:0:
320,192,69056,1,0,0:0:0:0:
448,192,69056,1,0,0:0:0:0:
64,192,69169,1,0,0:0:0:0:
192,192,69283,1,0,0:0:0:0:
448,192,69283,1,0,0:0:0:0:
320,192,69396,1,0,0:0:0:0:
64,192,69509,1,0,0:0:0:0:
448,192,69509,1,0,0:0:0:0:
192,192,69622,1,0,0:0:0:0:
320,192,69735,1,0,0:0:0:0:
448,192,69735,1,0,0:0:0:0:
192,192,69849,1,0,0:0:0:0:
64,192,69962,1,0,0:0:0:0:
320,192,69962,1,0,0:0:0:0:
448,192,70075,1,0,0:0:0:0:
320,192,70188,1,0,0:0:0:0:
192,192,70188,1,0,0:0:0:0:
64,192,70301,1,0,0:0:0:0:
448,192,70415,1,0,0:0:0:0:
320,192,70415,1,0,0:0:0:0:
192,192,70528,1,0,0:0:0:0:
448,192,70641,1,0,0:0:0:0:
64,192,70641,1,0,0:0:0:0:
192,192,70754,1,0,0:0:0:0:
64,192,70867,1,0,0:0:0:0:
320,192,70867,1,0,0:0:0:0:
448,192,70981,1,0,0:0:0:0:
320,192,71094,1,0,0:0:0:0:
192,192,71094,1,0,0:0:0:0:
64,192,71207,1,0,0:0:0:0:
320,192,71320,1,0,0:0:0:0:
448,192,71320,1,0,0:0:0:0:
192,192,71433,1,0,0:0:0:0:
192,192,71547,128,0,71773:0:0:0:0:
320,192,71547,128,0,71773:0:0:0:0:
448,192,71773,128,0,72000:0:0:0:0:
192,192,72000,128,0,72226:0:0:0:0:
320,192,72226,128,0,73358:0:0:0:0:
64,192,73358,1,0,0:0:0:0:
192,192,73358,1,0,0:0:0:0:
320,192,73471,1,0,0:0:0:0:
192,192,73584,1,0,0:0:0:0:
448,192,73584,1,0,0:0:0:0:
320,192,73698,1,0,0:0:0:0:
64,192,73811,1,0,0:0:0:0:
192,192,73811,1,0,0:0:0:0:
320,192,73924,1,0,0:0:0:0:
64,192,74037,1,0,0:0:0:0:
448,192,74037,1,0,0:0:0:0:
192,192,74150,1,0,0:0:0:0:
320,192,74264,1,0,0:0:0:0:
64,192,74264,1,0,0:0:0:0:
448,192,74377,1,0,0:0:0:0:
64,192,74490,1,0,0:0:0:0:
192,192,74490,1,0,0:0:0:0:
448,192,74603,1,0,0:0:0:0:
320,192,74716,1,0,0:0:0:0:
192,192,74716,1,0,0:0:0:0:
448,192,74830,1,0,0:0:0:0:
320,192,74943,1,0,0:0:0:0:
64,192,74943,1,0,0:0:0:0:
192,192,75056,1,0,0:0:0:0:
320,192,75169,1,0,0:0:0:0:
448,192,75169,1,0,0:0:0:0:
192,192,75283,1,0,0:0:0:0:
64,192,75396,1,0,0:0:0:0:
320,192,75396,1,0,0:0:0:0:
448,192,75509,1,0,0:0:0:0:
320,192,75622,1,0,0:0:0:0:
192,192,75622,1,0,0:0:0:0:
448,192,75735,1,0,0:0:0:0:
192,192,75849,1,0,0:0:0:0:
64,192,75849,1,0,0:0:0:0:
320,192,75962,1,0,0:0:0:0:
448,192,76075,1,0,0:0:0:0:
192,192,76075,1,0,0:0:0:0:
64,192,76188,1,0,0:0:0:0:
192,192,76301,1,0,0:0:0:0:
320,192,76301,1,0,0:0:0:0:
448,192,76415,1,0,0:0:0:0:
64,192,76528,1,0,0:0:0:0:
192,192,76528,1,0,0:0:0:0:
320,192,76641,1,0,0:0:0:0:
448,192,76754,1,0,0:0:0:0:
192,192,76754,1,0,0:0:0:0:
64,192,76867,1,0,0:0:0:0:
320,192,76981,1,0,0:0:0:0:
192,192,76981,1,0,0:0:0:0:
448,192,77094,1,0,0:0:0:0:
64,192,77207,1,0,0:0:0:0:
192,192,77207,1,0,0:0:0:0:
320,192,77320,1,0,0:0:0:0:
64,192,77433,1,0,0:0:0:0:
448,192,77433,1,0,0:0:0:0:
192,192,77547,1,0,0:0:0:0:
320,192,77660,1,0,0:0:0:0:
448,192,77660,1,0,0:0:0:0:
192,192,77773,1,0,0:0:0:0:
448,192,77886,1,0,0:0:0:0:
64,192,77886,1,0,0:0:0:0:
320,192,78000,1,0,0:0:0:0:
192,192,78113,1,0,0:0:0:0:
64,192,78113,1,0,0:0:0:0:
320,192,78226,1,0,0:0:0:0:
64,192,78339,1,0,0:0:0:0:
448,192,78339,1,0,0:0:0:0:
192,192,78452,1,0,0:0:0:0:
320,192,78566,1,0,0:0:0:0:
448,192,78566,1,0,0:0:0:0:
64,192,78679,1,0,0:0:0:0:
448,192,78792,1,0,0:0:0:0:
192,192,78792,1,0,0:0:0:0:
320,192,78905,1,0,0:0:0:0:
192,192,79018,1,0,0:0:0:0:
64,192,79018,1,0,0:0:0:0:
448,192,79132,1,0,0:0:0:0:
320,192,79245,1,0,0:0:0:0:
192,192,79245,1,0,0:0:0:0:
448,192,79358,1,0,0:0:0:0:
64,192,79471,1,0,0:0:0:0:
320,192,79471,1,0,0:0:0:0:
192,192,79584,1,0,0:0:0:0:
448,192,79698,1,0,0:0:0:0:
320,192,79698,1,0,0:0:0:0:
192,192,79811,1,0,0:0:0:0:
320,192,79924,1,0,0:0:0:0:
64,192,79924,1,0,0:0:0:0:
448,192,80037,1,0,0:0:0:0:
192,192,80150,1,0,0:0:0:0:
320,192,80150,1,0,0:0:0:0:
64,192,80264,1,0,0:0:0:0:
448,192,80377,1,0,0:0:0:0:
320,192,80377,1,0,0:0:0:0:
192,192,80490,1,0,0:0:0:0:
448,192,80603,128,0,80830:0:0:0:0:
320,192,80603,128,0,80830:0:0:0:0:
64,192,80603,128,0,80830:0:0:0:0:
192,192,80943,1,0,0:0:0:0:
64,192,80943,1,0,0:0:0:0:
320,192,81056,1,0,0:0:0:0:
448,192,81169,1,0,0:0:0:0:
320,192,81283,1,0,0:0:0:0:
448,192,81396,1,0,0:0:0:0:
192,192,81509,1,0,0:0:0:0:
64,192,81509,1,0,0:0:0:0:
64,192,81849,128,0,82415:0:0:0:0:
192,192,81849,128,0,82415:0:0:0:0:
320,192,82415,128,0,82754:0:0:0:0:
448,192,82415,128,0,82754:0:0:0:0:
192,192,82754,1,0,0:0:0:0:
64,192,82867,1,0,0:0:0:0:
192,192,82981,1,0,0:0:0:0:
64,192,83094,1,0,0:0:0:0:
192,192,83207,1,0,0:0:0:0:
320,192,83320,1,0,0:0:0:0:
448,192,83320,1,0,0:0:0:0:
448,192,83660,128,0,84226:0:0:0:0:
320,192,83660,128,0,84226:0:0:0:0:
192,192,84226,128,0,84566:0:0:0:0:
64,192,84226,128,0,84566:0:0:0:0:
320,192,84566,1,0,0:0:0:0:
192,192,84679,1,0,0:0:0:0:
320,192,84792,1,0,0:0:0:0:
192,192,84905,1,0,0:0:0:0:
320,192,85018,1,0,0:0:0:0:
192,192,85132,1,0,0:0:0:0:
448,192,85132,1,0,0:0:0:0:
192,192,85471,128,0,85698:0:0:0:0:
448,192,85698,128,0,85924:0:0:0:0:
64,192,85811,1,0,0:0:0:0:
320,192,85924,1,0,0:0:0:0:
448,192,86037,1,0,0:0:0:0:
192,192,86037,1,0,0:0:0:0:
64,192,86150,1,0,0:0:0:0:
192,192,86264,1,0,0:0:0:0:
320,192,86264,1,0,0:0:0:0:
448,192,86377,1,0,0:0:0:0:
192,192,86490,1,0,0:0:0:0:
64,192,86490,1,0,0:0:0:0:
448,192,86603,1,0,0:0:0:0:
320,192,86716,1,0,0:0:0:0:
64,192,86716,1,0,0:0:0:0:
192,192,86830,1,0,0:0:0:0:
448,192,86886,1,0,0:0:0:0:
320,192,86943,1,0,0:0:0:0:
192,192,87000,1,0,0:0:0:0:
64,192,87000,1,0,0:0:0:0:
320,192,87113,128,0,87849:0:0:0:0:
448,192,87113,128,0,87849:0:0:0:0:
192,192,87849,128,0,88188:0:0:0:0:
64,192,87849,128,0,88188:0:0:0:0:
320,192,88188,1,0,0:0:0:0:
64,192,88301,1,0,0:0:0:0:
320,192,88415,1,0,0:0:0:0:
64,192,88528,1,0,0:0:0:0:
320,192,88641,1,0,0:0:0:0:
64,192,88754,1,0,0:0:0:0:
448,192,88754,1,0,0:0:0:0:
448,192,89094,128,0,89660:0:0:0:0:
192,192,89094,1,0,0:0:0:0:
320,192,89094,1,0,0:0:0:0:
320,192,89660,128,0,90000:0:0:0:0:
192,192,89660,128,0,90000:0:0:0:0:
64,192,90000,1,0,0:0:0:0:
448,192,90113,1,0,0:0:0:0:
64,192,90226,1,0,0:0:0:0:
448,192,90339,1,0,0:0:0:0:
64,192,90452,1,0,0:0:0:0:
192,192,90566,1,0,0:0:0:0:
320,192,90566,1,0,0:0:0:0:
192,192,90905,128,0,91415:0:0:0:0:
320,192,90905,128,0,91415:0:0:0:0:
448,192,91811,1,0,0:0:0:0:
192,192,91924,1,0,0:0:0:0:
448,192,92037,1,0,0:0:0:0:
192,192,92150,1,0,0:0:0:0:
448,192,92264,1,0,0:0:0:0:
64,192,92377,128,0,92716:0:0:0:0:
192,192,92377,128,0,92716:0:0:0:0:
192,192,92773,1,0,0:0:0:0:
448,192,92773,1,0,0:0:0:0:
64,192,93056,1,0,0:0:0:0:
320,192,93056,1,0,0:0:0:0:
192,192,93283,1,0,0:0:0:0:
64,192,93283,1,0,0:0:0:0:
448,192,93622,1,0,0:0:0:0:
64,192,93792,1,0,0:0:0:0:
320,192,94018,128,0,94415:0:0:0:0:
448,192,94018,128,0,94415:0:0:0:0:
64,192,94415,1,0,0:0:0:0:
64,192,94641,1,0,0:0:0:0:
320,192,94641,1,0,0:0:0:0:
320,192,94867,1,0,0:0:0:0:
192,192,94867,1,0,0:0:0:0:
448,192,95094,128,0,98660:0:0:0:0:
192,192,95094,1,0,0:0:0:0:
320,192,95094,1,0,0:0:0:0:
64,192,98716,1,0,0:0:0:0:
320,192,98943,1,0,0:0:0:0:
192,192,99056,1,0,0:0:0:0:
64,192,99169,1,0,0:0:0:0:
192,192,99283,1,0,0:0:0:0:
448,192,99396,1,0,0:0:0:0:
320,192,99509,1,0,0:0:0:0:
192,192,99735,1,0,0:0:0:0:
320,192,99849,1,0,0:0:0:0:
64,192,99962,1,0,0:0:0:0:
192,192,100075,1,0,0:0:0:0:
320,192,100301,1,0,0:0:0:0:
64,192,100528,1,0,0:0:0:0:
448,192,100528,1,0,0:0:0:0:
192,192,100867,1,0,0:0:0:0:
320,192,100867,1,0,0:0:0:0:
192,192,101433,128,0,101547:0:0:0:0:
64,192,101547,128,0,101660:0:0:0:0:
320,192,101660,128,0,101773:0:0:0:0:
448,192,101773,128,0,101886:0:0:0:0:
192,192,101886,128,0,102000:0:0:0:0:
64,192,102000,128,0,102113:0:0:0:0:
320,192,102113,128,0,102226:0:0:0:0:
448,192,102226,128,0,102339:0:0:0:0:
448,192,102452,1,0,0:0:0:0:
192,192,102566,1,0,0:0:0:0:
448,192,102679,1,0,0:0:0:0:
192,192,102792,1,0,0:0:0:0:
448,192,102905,1,0,0:0:0:0:
448,192,103018,1,0,0:0:0:0:
320,192,103018,1,0,0:0:0:0:
192,192,103132,1,0,0:0:0:0:
64,192,103132,1,0,0:0:0:0:
320,192,103245,1,0,0:0:0:0:
448,192,103245,1,0,0:0:0:0:
320,192,103358,1,0,0:0:0:0:
64,192,103471,1,0,0:0:0:0:
320,192,103584,1,0,0:0:0:0:
320,192,103698,1,0,0:0:0:0:
448,192,103698,1,0,0:0:0:0:
192,192,103811,1,0,0:0:0:0:
64,192,103811,1,0,0:0:0:0:
320,192,103924,1,0,0:0:0:0:
448,192,103924,1,0,0:0:0:0:
192,192,104037,1,0,0:0:0:0:
64,192,104037,1,0,0:0:0:0:
320,192,104150,1,0,0:0:0:0:
448,192,104150,1,0,0:0:0:0:
320,192,104264,1,0,0:0:0:0:
448,192,104377,1,0,0:0:0:0:
320,192,104490,1,0,0:0:0:0:
448,192,104603,1,0,0:0:0:0:
320,192,104716,1,0,0:0:0:0:
64,192,104830,1,0,0:0:0:0:
192,192,104830,1,0,0:0:0:0:
320,192,104943,1,0,0:0:0:0:
448,192,104943,1,0,0:0:0:0:
192,192,105056,1,0,0:0:0:0:
64,192,105056,1,0,0:0:0:0:
192,192,105169,1,0,0:0:0:0:
320,192,105283,1,0,0:0:0:0:
192,192,105396,1,0,0:0:0:0:
64,192,105509,1,0,0:0:0:0:
192,192,105509,1,0,0:0:0:0:
320,192,105600,1,0,0:0:0:0:
448,192,105600,1,0,0:0:0:0:
192,192,105690,1,0,0:0:0:0:
64,192,105690,1,0,0:0:0:0:
320,192,105781,1,0,0:0:0:0:
448,192,105781,1,0,0:0:0:0:
64,192,105871,1,0,0:0:0:0:
192,192,105871,1,0,0:0:0:0:
320,192,105962,1,0,0:0:0:0:
448,192,105962,1,0,0:0:0:0:
64,192,106052,1,0,0:0:0:0:
192,192,106052,1,0,0:0:0:0:
448,192,106143,1,0,0:0:0:0:
320,192,106143,1,0,0:0:0:0:
192,192,106233,1,0,0:0:0:0:
64,192,106233,1,0,0:0:0:0:
448,192,106324,1,0,0:0:0:0:
320,192,106324,1,0,0:0:0:0:
192,192,106415,1,0,0:0:0:0:
64,192,106415,1,0,0:0:0:0:
320,192,106505,1,0,0:0:0:0:
448,192,106505,1,0,0:0:0:0:
64,192,106596,1,0,0:0:0:0:
192,192,106596,1,0,0:0:0:0:
448,192,106686,1,0,0:0:0:0:
320,192,106686,1,0,0:0:0:0:
64,192,106777,1,0,0:0:0:0:
192,192,106777,1,0,0:0:0:0:
448,192,106867,1,0,0:0:0:0:
320,192,106867,1,0,0:0:0:0:
64,192,106958,1,0,0:0:0:0:
192,192,106958,1,0,0:0:0:0:
320,192,107049,1,0,0:0:0:0:
448,192,107049,1,0,0:0:0:0:
64,192,107139,1,0,0:0:0:0:
192,192,107139,1,0,0:0:0:0:
448,192,107230,1,0,0:0:0:0:
320,192,107230,1,0,0:0:0:0:
192,192,107320,1,0,0:0:0:0:
64,192,107320,1,0,0:0:0:0:
448,192,107411,1,0,0:0:0:0:
320,192,107411,1,0,0:0:0:0:
192,192,107501,1,0,0:0:0:0:
64,192,107501,1,0,0:0:0:0:
320,192,107592,1,0,0:0:0:0:
448,192,107592,1,0,0:0:0:0:
192,192,107683,1,0,0:0:0:0:
64,192,107683,1,0,0:0:0:0:
320,192,107773,1,0,0:0:0:0:
192,192,108000,1,0,0:0:0:0:
320,192,108113,1,0,0:0:0:0:
64,192,108226,1,0,0:0:0:0:
448,192,108339,1,0,0:0:0:0:
320,192,108452,1,0,0:0:0:0:
192,192,108566,1,0,0:0:0:0:
320,192,108792,1,0,0:0:0:0:
192,192,108905,1,0,0:0:0:0:
192,192,109018,1,0,0:0:0:0:
448,192,109132,1,0,0:0:0:0:
64,192,109358,1,0,0:0:0:0:
448,192,109584,1,0,0:0:0:0:
320,192,109584,1,0,0:0:0:0:
192,192,109698,1,0,0:0:0:0:
64,192,109811,1,0,0:0:0:0:
320,192,109811,1,0,0:0:0:0:
192,192,109924,1,0,0:0:0:0:
448,192,110037,1,0,0:0:0:0:
64,192,110037,1,0,0:0:0:0:
320,192,110150,1,0,0:0:0:0:
192,192,110264,1,0,0:0:0:0:
448,192,110264,1,0,0:0:0:0:
320,192,110377,1,0,0:0:0:0:
64,192,110490,1,0,0:0:0:0:
192,192,110490,1,0,0:0:0:0:
448,192,110603,1,0,0:0:0:0:
64,192,110716,1,0,0:0:0:0:
320,192,110716,1,0,0:0:0:0:
192,192,110830,1,0,0:0:0:0:
448,192,110943,1,0,0:0:0:0:
64,192,110943,1,0,0:0:0:0:
320,192,111056,1,0,0:0:0:0:
448,192,111169,1,0,0:0:0:0:
64,192,111169,1,0,0:0:0:0:
192,192,111283,1,0,0:0:0:0:
320,192,111396,1,0,0:0:0:0:
448,192,111396,1,0,0:0:0:0:
64,192,111509,1,0,0:0:0:0:
448,192,111622,1,0,0:0:0:0:
192,192,111622,1,0,0:0:0:0:
320,192,111622,1,0,0:0:0:0:
64,192,111735,1,0,0:0:0:0:
448,192,111849,1,0,0:0:0:0:
192,192,111849,1,0,0:0:0:0:
320,192,111962,1,0,0:0:0:0:
192,192,112075,1,0,0:0:0:0:
64,192,112075,1,0,0:0:0:0:
448,192,112188,1,0,0:0:0:0:
64,192,112301,1,0,0:0:0:0:
320,192,112301,1,0,0:0:0:0:
192,192,112415,1,0,0:0:0:0:
448,192,112528,1,0,0:0:0:0:
64,192,112528,1,0,0:0:0:0:
320,192,112641,1,0,0:0:0:0:
192,192,112754,1,0,0:0:0:0:
448,192,112754,1,0,0:0:0:0:
64,192,112867,1,0,0:0:0:0:
192,192,112981,1,0,0:0:0:0:
448,192,112981,1,0,0:0:0:0:
320,192,113094,1,0,0:0:0:0:
64,192,113207,1,0,0:0:0:0:
448,192,113207,1,0,0:0:0:0:
192,192,113320,1,0,0:0:0:0:
448,192,113433,1,0,0:0:0:0:
320,192,113433,1,0,0:0:0:0:
64,192,113547,1,0,0:0:0:0:
320,192,113660,1,0,0:0:0:0:
192,192,113660,1,0,0:0:0:0:
448,192,113773,1,0,0:0:0:0:
64,192,113886,1,0,0:0:0:0:
320,192,113886,1,0,0:0:0:0:
192,192,114000,1,0,0:0:0:0:
448,192,114113,1,0,0:0:0:0:
64,192,114113,1,0,0:0:0:0:
320,192,114226,1,0,0:0:0:0:
64,192,114339,1,0,0:0:0:0:
192,192,114339,1,0,0:0:0:0:
448,192,114452,1,0,0:0:0:0:
320,192,114566,1,0,0:0:0:0:
64,192,114566,1,0,0:0:0:0:
192,192,114679,1,0,0:0:0:0:
320,192,114792,1,0,0:0:0:0:
448,192,114792,1,0,0:0:0:0:
64,192,114905,1,0,0:0:0:0:
192,192,115018,128,0,115245:0:0:0:0:
448,192,115018,128,0,115245:0:0:0:0:
320,192,115245,128,0,115471:0:0:0:0:
64,192,115471,128,0,115698:0:0:0:0:
448,192,115698,128,0,116377:0:0:0:0:
192,192,116377,1,0,0:0:0:0:
64,192,116377,1,0,0:0:0:0:
192,192,116603,1,0,0:0:0:0:
64,192,116603,1,0,0:0:0:0:
320,192,116660,1,0,0:0:0:0:
448,192,116660,1,0,0:0:0:0:
192,192,116716,1,0,0:0:0:0:
64,192,116716,1,0,0:0:0:0:
320,192,116773,1,0,0:0:0:0:
448,192,116773,1,0,0:0:0:0:
192,192,117056,1,0,0:0:0:0:
448,192,117056,1,0,0:0:0:0:
320,192,117169,1,0,0:0:0:0:
192,192,117283,1,0,0:0:0:0:
64,192,117283,1,0,0:0:0:0:
448,192,117396,1,0,0:0:0:0:
320,192,117509,1,0,0:0:0:0:
64,192,117509,1,0,0:0:0:0:
192,192,117622,1,0,0:0:0:0:
448,192,117735,1,0,0:0:0:0:
320,192,117735,1,0,0:0:0:0:
64,192,117849,1,0,0:0:0:0:
320,192,117962,1,0,0:0:0:0:
192,192,117962,1,0,0:0:0:0:
448,192,118075,1,0,0:0:0:0:
64,192,118188,1,0,0:0:0:0:
192,192,118188,1,0,0:0:0:0:
320,192,118301,1,0,0:0:0:0:
448,192,118415,1,0,0:0:0:0:
64,192,118415,1,0,0:0:0:0:
320,192,118528,1,0,0:0:0:0:
192,192,118641,1,0,0:0:0:0:
448,192,118641,1,0,0:0:0:0:
64,192,118754,1,0,0:0:0:0:
320,192,118867,1,0,0:0:0:0:
448,192,118867,1,0,0:0:0:0:
192,192,118981,1,0,0:0:0:0:
64,192,119094,1,0,0:0:0:0:
448,192,119094,1,0,0:0:0:0:
320,192,119207,1,0,0:0:0:0:
192,192,119320,1,0,0:0:0:0:
64,192,119320,1,0,0:0:0:0:
448,192,119433,1,0,0:0:0:0:
320,192,119547,1,0,0:0:0:0:
192,192,119547,1,0,0:0:0:0:
448,192,119660,1,0,0:0:0:0:
64,192,119773,1,0,0:0:0:0:
320,192,119773,1,0,0:0:0:0:
192,192,119886,1,0,0:0:0:0:
448,192,120000,1,0,0:0:0:0:
64,192,120000,1,0,0:0:0:0:
320,192,120113,1,0,0:0:0:0:
192,192,120226,1,0,0:0:0:0:
448,192,120226,1,0,0:0:0:0:
64,192,120339,1,0,0:0:0:0:
448,192,120452,1,0,0:0:0:0:
192,192,120452,1,0,0:0:0:0:
320,192,120566,1,0,0:0:0:0:
64,192,120679,1,0,0:0:0:0:
192,192,120679,1,0,0:0:0:0:
448,192,120792,1,0,0:0:0:0:
320,192,120905,1,0,0:0:0:0:
192,192,120905,1,0,0:0:0:0:
64,192,121018,1,0,0:0:0:0:
448,192,121132,1,0,0:0:0:0:
320,192,121132,1,0,0:0:0:0:
192,192,121245,1,0,0:0:0:0:
64,192,121358,1,0,0:0:0:0:
448,192,121358,1,0,0:0:0:0:
320,192,121471,1,0,0:0:0:0:
192,192,121584,1,0,0:0:0:0:
64,192,121584,1,0,0:0:0:0:
320,192,121698,1,0,0:0:0:0:
64,192,121811,1,0,0:0:0:0:
448,192,121811,1,0,0:0:0:0:
192,192,121924,1,0,0:0:0:0:
448,192,122037,1,0,0:0:0:0:
320,192,122037,1,0,0:0:0:0:
192,192,122150,1,0,0:0:0:0:
448,192,122264,128,0,122490:0:0:0:0:
320,192,122264,128,0,122490:0:0:0:0:
192,192,122490,128,0,122716:0:0:0:0:
320,192,122716,128,0,122943:0:0:0:0:
448,192,122716,128,0,122943:0:0:0:0:
64,192,122943,128,0,123396:0:0:0:0:
192,192,122943,128,0,123396:0:0:0:0:
320,192,123396,1,0,0:0:0:0:
448,192,123396,1,0,0:0:0:0:
320,192,123622,1,0,0:0:0:0:
448,192,123622,1,0,0:0:0:0:
320,192,123849,1,0,0:0:0:0:
448,192,123849,1,0,0:0:0:0:
192,192,123905,1,0,0:0:0:0:
64,192,123905,1,0,0:0:0:0:
320,192,123962,1,0,0:0:0:0:
448,192,123962,1,0,0:0:0:0:
192,192,124018,1,0,0:0:0:0:
64,192,124018,1,0,0:0:0:0:
448,192,124301,1,0,0:0:0:0:
192,192,124301,1,0,0:0:0:0:
64,192,124415,1,0,0:0:0:0:
192,192,124415,1,0,0:0:0:0:
320,192,124528,1,0,0:0:0:0:
448,192,124528,1,0,0:0:0:0:
320,192,124641,1,0,0:0:0:0:
64,192,124754,1,0,0:0:0:0:
448,192,124754,1,0,0:0:0:0:
320,192,124867,1,0,0:0:0:0:
192,192,124981,1,0,0:0:0:0:
448,192,124981,1,0,0:0:0:0:
64,192,125320,128,0,125886:0:0:0:0:
192,192,125320,128,0,125886:0:0:0:0:
320,192,126113,1,0,0:0:0:0:
448,192,126113,1,0,0:0:0:0:
192,192,126226,1,0,0:0:0:0:
320,192,126339,1,0,0:0:0:0:
64,192,126339,1,0,0:0:0:0:
192,192,126452,1,0,0:0:0:0:
448,192,126566,1,0,0:0:0:0:
64,192,126566,1,0,0:0:0:0:
192,192,126679,1,0,0:0:0:0:
64,192,126792,1,0,0:0:0:0:
320,192,126792,1,0,0:0:0:0:
448,192,127132,128,0,127698:0:0:0:0:
320,192,127132,128,0,127698:0:0:0:0:
192,192,127924,1,0,0:0:0:0:
64,192,127924,1,0,0:0:0:0:
320,192,128037,1,0,0:0:0:0:
192,192,128150,1,0,0:0:0:0:
448,192,128150,1,0,0:0:0:0:
320,192,128264,1,0,0:0:0:0:
448,192,128377,1,0,0:0:0:0:
64,192,128377,1,0,0:0:0:0:
320,192,128490,1,0,0:0:0:0:
448,192,128603,1,0,0:0:0:0:
192,192,128603,1,0,0:0:0:0:
192,192,128943,128,0,129283:0:0:0:0:
448,192,128943,128,0,129283:0:0:0:0:
64,192,129283,128,0,129509:0:0:0:0:
320,192,129509,1,0,0:0:0:0:
448,192,129735,1,0,0:0:0:0:
192,192,129735,1,0,0:0:0:0:
192,192,129849,1,0,0:0:0:0:
320,192,129962,1,0,0:0:0:0:
64,192,129962,1,0,0:0:0:0:
192,192,130075,1,0,0:0:0:0:
320,192,130188,1,0,0:0:0:0:
448,192,130188,1,0,0:0:0:0:
64,192,130301,1,0,0:0:0:0:
192,192,130301,1,0,0:0:0:0:
448,192,130415,128,0,131320:0:0:0:0:
320,192,130415,128,0,131320:0:0:0:0:
64,192,131320,1,0,0:0:0:0:
192,192,131433,1,0,0:0:0:0:
64,192,131547,1,0,0:0:0:0:
448,192,131660,1,0,0:0:0:0:
320,192,131773,1,0,0:0:0:0:
192,192,131886,1,0,0:0:0:0:
64,192,132000,1,0,0:0:0:0:
192,192,132113,1,0,0:0:0:0:
448,192,132226,1,0,0:0:0:0:
64,192,132226,1,0,0:0:0:0:
192,192,132339,1,0,0:0:0:0:
448,192,132452,1,0,0:0:0:0:
64,192,132452,1,0,0:0:0:0:
320,192,132566,1,0,0:0:0:0:
192,192,132679,1,0,0:0:0:0:
64,192,132792,1,0,0:0:0:0:
192,192,132905,1,0,0:0:0:0:
64,192,133018,1,0,0:0:0:0:
320,192,133132,1,0,0:0:0:0:
448,192,133245,1,0,0:0:0:0:
320,192,133358,1,0,0:0:0:0:
64,192,133471,1,0,0:0:0:0:
192,192,133584,1,0,0:0:0:0:
320,192,133698,1,0,0:0:0:0:
448,192,133811,1,0,0:0:0:0:
320,192,133924,1,0,0:0:0:0:
192,192,134037,1,0,0:0:0:0:
64,192,134037,1,0,0:0:0:0:
320,192,134150,1,0,0:0:0:0:
192,192,134264,1,0,0:0:0:0:
64,192,134264,1,0,0:0:0:0:
320,192,134377,1,0,0:0:0:0:
448,192,134490,1,0,0:0:0:0:
64,192,134603,1,0,0:0:0:0:
448,192,134716,1,0,0:0:0:0:
320,192,134830,1,0,0:0:0:0:
192,192,134943,1,0,0:0:0:0:
320,192,135056,1,0,0:0:0:0:
192,192,135169,1,0,0:0:0:0:
64,192,135283,1,0,0:0:0:0:
448,192,135396,1,0,0:0:0:0:
320,192,135509,1,0,0:0:0:0:
192,192,135622,1,0,0:0:0:0:
64,192,135735,1,0,0:0:0:0:
192,192,135849,1,0,0:0:0:0:
320,192,135849,1,0,0:0:0:0:
64,192,135962,1,0,0:0:0:0:
320,192,136075,1,0,0:0:0:0:
448,192,136075,1,0,0:0:0:0:
192,192,136188,1,0,0:0:0:0:
448,192,136301,1,0,0:0:0:0:
320,192,136415,1,0,0:0:0:0:
64,192,136528,1,0,0:0:0:0:
192,192,136641,1,0,0:0:0:0:
320,192,136754,1,0,0:0:0:0:
64,192,137037,1,0,0:0:0:0:
192,192,137037,1,0,0:0:0:0:
192,192,137264,1,0,0:0:0:0:
448,192,137264,1,0,0:0:0:0:
320,192,137490,128,0,137886:0:0:0:0:
448,192,137490,128,0,137886:0:0:0:0:
64,192,138113,1,0,0:0:0:0:
320,192,138339,1,0,0:0:0:0:
448,192,138339,1,0,0:0:0:0:
192,192,138452,1,0,0:0:0:0:
64,192,138452,1,0,0:0:0:0:
448,192,138566,1,0,0:0:0:0:
320,192,138566,128,0,141283:0:0:0:0:
64,192,143094,128,0,143660:0:0:0:0:
448,192,143547,128,0,144849:0:0:0:0:
64,192,144905,128,0,145018:0:0:0:0:
192,192,145018,128,0,145132:0:0:0:0:
320,192,145132,128,0,145245:0:0:0:0:
448,192,145245,128,0,145358:0:0:0:0:
64,192,145358,128,0,145471:0:0:0:0:
192,192,145471,128,0,145584:0:0:0:0:
320,192,145584,128,0,145698:0:0:0:0:
448,192,145698,128,0,145811:0:0:0:0:
64,192,145811,1,0,0:0:0:0:
192,192,146037,1,0,0:0:0:0:
448,192,146150,1,0,0:0:0:0:
320,192,146264,1,0,0:0:0:0:
192,192,146377,1,0,0:0:0:0:
320,192,146490,128,0,146716:0:0:0:0:
448,192,146490,128,0,146716:0:0:0:0:
192,192,146716,1,0,0:0:0:0:
64,192,146943,1,0,0:0:0:0:
320,192,147056,1,0,0:0:0:0:
192,192,147169,1,0,0:0:0:0:
448,192,147283,1,0,0:0:0:0:
448,192,147396,128,0,147452:0:0:0:0:
64,192,147396,128,0,147452:0:0:0:0:
192,192,147509,1,0,0:0:0:0:
320,192,147622,1,0,0:0:0:0:
192,192,147849,1,0,0:0:0:0:
64,192,147962,1,0,0:0:0:0:
192,192,148075,1,0,0:0:0:0:
448,192,148188,1,0,0:0:0:0:
64,192,148301,128,0,148471:0:0:0:0:
448,192,148301,128,0,148471:0:0:0:0:
320,192,148528,1,0,0:0:0:0:
64,192,148754,1,0,0:0:0:0:
448,192,148754,1,0,0:0:0:0:
320,192,148867,1,0,0:0:0:0:
192,192,148981,1,0,0:0:0:0:
64,192,149094,1,0,0:0:0:0:
448,192,149094,1,0,0:0:0:0:
448,192,149207,1,0,0:0:0:0:
320,192,149207,1,0,0:0:0:0:
64,192,149320,1,0,0:0:0:0:
192,192,149320,1,0,0:0:0:0:
320,192,149433,1,0,0:0:0:0:
448,192,149433,1,0,0:0:0:0:
192,192,149660,1,0,0:0:0:0:
320,192,149773,1,0,0:0:0:0:
192,192,149886,1,0,0:0:0:0:
64,192,150000,1,0,0:0:0:0:
448,192,150113,128,0,150245:0:0:0:0:
320,192,150150,128,0,150283:0:0:0:0:
64,192,150339,1,0,0:0:0:0:
320,192,150566,1,0,0:0:0:0:
64,192,150679,1,0,0:0:0:0:
320,192,150792,1,0,0:0:0:0:
192,192,150905,1,0,0:0:0:0:
448,192,151018,128,0,151245:0:0:0:0:
320,192,151075,128,0,151245:0:0:0:0:
192,192,151132,128,0,151245:0:0:0:0:
64,192,151245,1,0,0:0:0:0:
448,192,151471,1,0,0:0:0:0:
320,192,151584,1,0,0:0:0:0:
192,192,151698,1,0,0:0:0:0:
64,192,151811,1,0,0:0:0:0:
192,192,151924,128,0,152037:0:0:0:0:
64,192,152150,1,0,0:0:0:0:
448,192,152226,1,0,0:0:0:0:
192,192,152301,1,0,0:0:0:0:
320,192,152377,1,0,0:0:0:0:
64,192,152452,1,0,0:0:0:0:
448,192,152528,1,0,0:0:0:0:
192,192,152603,1,0,0:0:0:0:
320,192,152679,1,0,0:0:0:0:
64,192,152754,1,0,0:0:0:0:
448,192,152830,1,0,0:0:0:0:
192,192,152905,1,0,0:0:0:0:
320,192,152981,1,0,0:0:0:0:
64,192,153056,1,0,0:0:0:0:
192,192,153169,1,0,0:0:0:0:
64,192,153283,1,0,0:0:0:0:
192,192,153396,1,0,0:0:0:0:
64,192,153509,1,0,0:0:0:0:
192,192,153622,1,0,0:0:0:0:
448,192,153735,1,0,0:0:0:0:
320,192,153735,1,0,0:0:0:0:
64,192,153849,1,0,0:0:0:0:
192,192,153849,1,0,0:0:0:0:
448,192,153962,1,0,0:0:0:0:
320,192,153962,1,0,0:0:0:0:
192,192,154075,1,0,0:0:0:0:
320,192,154188,1,0,0:0:0:0:
192,192,154301,1,0,0:0:0:0:
320,192,154415,1,0,0:0:0:0:
448,192,154415,1,0,0:0:0:0:
192,192,154528,1,0,0:0:0:0:
64,192,154528,1,0,0:0:0:0:
320,192,154641,1,0,0:0:0:0:
448,192,154641,1,0,0:0:0:0:
192,192,154754,1,0,0:0:0:0:
64,192,154754,1,0,0:0:0:0:
64,192,154867,1,0,0:0:0:0:
320,192,154867,1,0,0:0:0:0:
448,192,154867,1,0,0:0:0:0:
192,192,154981,1,0,0:0:0:0:
64,192,155094,1,0,0:0:0:0:
192,192,155207,1,0,0:0:0:0:
64,192,155320,1,0,0:0:0:0:
192,192,155433,1,0,0:0:0:0:
320,192,155547,1,0,0:0:0:0:
448,192,155547,1,0,0:0:0:0:
64,192,155660,1,0,0:0:0:0:
192,192,155660,1,0,0:0:0:0:
448,192,155773,1,0,0:0:0:0:
320,192,155773,1,0,0:0:0:0:
320,192,155886,1,0,0:0:0:0:
192,192,156000,1,0,0:0:0:0:
320,192,156113,1,0,0:0:0:0:
64,192,156226,1,0,0:0:0:0:
192,192,156226,1,0,0:0:0:0:
320,192,156301,1,0,0:0:0:0:
448,192,156301,1,0,0:0:0:0:
192,192,156377,1,0,0:0:0:0:
64,192,156377,1,0,0:0:0:0:
320,192,156452,1,0,0:0:0:0:
448,192,156452,1,0,0:0:0:0:
192,192,156528,1,0,0:0:0:0:
64,192,156528,1,0,0:0:0:0:
320,192,156603,1,0,0:0:0:0:
448,192,156603,1,0,0:0:0:0:
192,192,156679,1,0,0:0:0:0:
64,192,156679,1,0,0:0:0:0:
320,192,156754,1,0,0:0:0:0:
448,192,156754,1,0,0:0:0:0:
64,192,156830,1,0,0:0:0:0:
192,192,156830,1,0,0:0:0:0:
320,192,156905,1,0,0:0:0:0:
448,192,156905,1,0,0:0:0:0:
192,192,156981,1,0,0:0:0:0:
64,192,156981,1,0,0:0:0:0:
320,192,157056,1,0,0:0:0:0:
448,192,157056,1,0,0:0:0:0:
192,192,157132,1,0,0:0:0:0:
64,192,157132,1,0,0:0:0:0:
320,192,157207,1,0,0:0:0:0:
448,192,157207,1,0,0:0:0:0:
192,192,157283,1,0,0:0:0:0:
64,192,157283,1,0,0:0:0:0:
320,192,157358,1,0,0:0:0:0:
448,192,157358,1,0,0:0:0:0:
192,192,157433,1,0,0:0:0:0:
64,192,157433,1,0,0:0:0:0:
320,192,157509,1,0,0:0:0:0:
448,192,157509,1,0,0:0:0:0:
192,192,157584,1,0,0:0:0:0:
64,192,157584,1,0,0:0:0:0:
320,192,157660,1,0,0:0:0:0:
448,192,157660,1,0,0:0:0:0:
192,192,157735,1,0,0:0:0:0:
64,192,157735,1,0,0:0:0:0:
320,192,157811,1,0,0:0:0:0:
448,192,157811,1,0,0:0:0:0:
192,192,157886,1,0,0:0:0:0:
64,192,157886,1,0,0:0:0:0:
320,192,157962,1,0,0:0:0:0:
448,192,157962,1,0,0:0:0:0:
192,192,158037,1,0,0:0:0:0:
64,192,158037,1,0,0:0:0:0:
320,192,158113,1,0,0:0:0:0:
448,192,158113,1,0,0:0:0:0:
192,192,158188,1,0,0:0:0:0:
64,192,158188,1,0,0:0:0:0:
320,192,158264,1,0,0:0:0:0:
448,192,158264,1,0,0:0:0:0:
192,192,158339,1,0,0:0:0:0:
64,192,158339,1,0,0:0:0:0:
320,192,158415,1,0,0:0:0:0:
448,192,158415,1,0,0:0:0:0:
192,192,158490,1,0,0:0:0:0:
64,192,158716,1,0,0:0:0:0:
320,192,158830,1,0,0:0:0:0:
320,192,158943,128,0,159396:0:0:0:0:
448,192,158943,128,0,159396:0:0:0:0:
64,192,159396,1,0,0:0:0:0:
320,192,159622,1,0,0:0:0:0:
192,192,159735,1,0,0:0:0:0:
320,192,159962,1,0,0:0:0:0:
64,192,160075,1,0,0:0:0:0:
320,192,160188,1,0,0:0:0:0:
448,192,160301,1,0,0:0:0:0:
320,192,160358,1,0,0:0:0:0:
192,192,160415,1,0,0:0:0:0:
64,192,160471,1,0,0:0:0:0:
320,192,160528,1,0,0:0:0:0:
448,192,160584,1,0,0:0:0:0:
320,192,160641,1,0,0:0:0:0:
192,192,160698,1,0,0:0:0:0:
64,192,160754,1,0,0:0:0:0:
320,192,160811,1,0,0:0:0:0:
448,192,160867,1,0,0:0:0:0:
64,192,160924,1,0,0:0:0:0:
320,192,160981,1,0,0:0:0:0:
192,192,161037,1,0,0:0:0:0:
448,192,161094,1,0,0:0:0:0:
64,192,161150,1,0,0:0:0:0:
192,192,161207,1,0,0:0:0:0:
448,192,161264,1,0,0:0:0:0:
64,192,161320,1,0,0:0:0:0:
192,192,161377,1,0,0:0:0:0:
320,192,161433,1,0,0:0:0:0:
448,192,161490,1,0,0:0:0:0:
320,192,161547,1,0,0:0:0:0:
192,192,161603,1,0,0:0:0:0:
64,192,161660,1,0,0:0:0:0:
320,192,161716,1,0,0:0:0:0:
192,192,161773,1,0,0:0:0:0:
64,192,161830,1,0,0:0:0:0:
448,192,161886,1,0,0:0:0:0:
320,192,161943,1,0,0:0:0:0:
192,192,162000,1,0,0:0:0:0:
64,192,162056,1,0,0:0:0:0:
448,192,162113,1,0,0:0:0:0:
192,192,162169,1,0,0:0:0:0:
320,192,162226,1,0,0:0:0:0:
64,192,162283,1,0,0:0:0:0:
448,192,162339,1,0,0:0:0:0:
320,192,162396,1,0,0:0:0:0:
192,192,162452,1,0,0:0:0:0:
448,192,162509,1,0,0:0:0:0:
320,192,162566,1,0,0:0:0:0:
64,192,162622,1,0,0:0:0:0:
448,192,162679,1,0,0:0:0:0:
320,192,162735,1,0,0:0:0:0:
64,192,162792,1,0,0:0:0:0:
192,192,162849,1,0,0:0:0:0:
448,192,162905,1,0,0:0:0:0:
64,192,162962,1,0,0:0:0:0:
320,192,163018,1,0,0:0:0:0:
64,192,163075,1,0,0:0:0:0:
448,192,163132,1,0,0:0:0:0:
320,192,163188,1,0,0:0:0:0:
192,192,163245,1,0,0:0:0:0:
448,192,163301,1,0,0:0:0:0:
320,192,163358,1,0,0:0:0:0:
192,192,163415,1,0,0:0:0:0:
448,192,163471,1,0,0:0:0:0:
320,192,163528,1,0,0:0:0:0:
64,192,163584,1,0,0:0:0:0:
448,192,163641,1,0,0:0:0:0:
192,192,163698,1,0,0:0:0:0:
448,192,163754,1,0,0:0:0:0:
320,192,163811,1,0,0:0:0:0:
64,192,163867,1,0,0:0:0:0:
320,192,163924,1,0,0:0:0:0:
192,192,163981,1,0,0:0:0:0:
448,192,164037,1,0,0:0:0:0:
64,192,164037,1,0,0:0:0:0:
320,192,164094,1,0,0:0:0:0:
192,192,164150,1,0,0:0:0:0:
320,192,164207,1,0,0:0:0:0:
448,192,164264,1,0,0:0:0:0:
64,192,164377,1,0,0:0:0:0:
320,192,164377,1,0,0:0:0:0:
192,192,164490,1,0,0:0:0:0:
64,192,164603,1,0,0:0:0:0:
320,192,164603,1,0,0:0:0:0:
448,192,164716,1,0,0:0:0:0:
192,192,164830,1,0,0:0:0:0:
320,192,164830,1,0,0:0:0:0:
448,192,164943,1,0,0:0:0:0:
320,192,165056,1,0,0:0:0:0:
192,192,165056,1,0,0:0:0:0:
448,192,165169,1,0,0:0:0:0:
64,192,165283,1,0,0:0:0:0:
320,192,165283,1,0,0:0:0:0:
192,192,165396,1,0,0:0:0:0:
448,192,165509,1,0,0:0:0:0:
320,192,165509,1,0,0:0:0:0:
64,192,165622,1,0,0:0:0:0:
192,192,165735,1,0,0:0:0:0:
448,192,165735,1,0,0:0:0:0:
320,192,165849,1,0,0:0:0:0:
448,192,165962,1,0,0:0:0:0:
192,192,165962,1,0,0:0:0:0:
64,192,166075,1,0,0:0:0:0:
320,192,166188,1,0,0:0:0:0:
448,192,166188,1,0,0:0:0:0:
192,192,166301,1,0,0:0:0:0:
320,192,166415,1,0,0:0:0:0:
64,192,166415,1,0,0:0:0:0:
192,192,166528,1,0,0:0:0:0:
320,192,166641,1,0,0:0:0:0:
448,192,166641,1,0,0:0:0:0:
192,192,166754,1,0,0:0:0:0:
64,192,166867,1,0,0:0:0:0:
448,192,166867,1,0,0:0:0:0:
192,192,166981,1,0,0:0:0:0:
320,192,167094,1,0,0:0:0:0:
448,192,167094,1,0,0:0:0:0:
448,192,167207,1,0,0:0:0:0:
64,192,167207,1,0,0:0:0:0:
192,192,167320,1,0,0:0:0:0:
320,192,167320,1,0,0:0:0:0:
448,192,167433,1,0,0:0:0:0:
64,192,167547,1,0,0:0:0:0:
320,192,167603,1,0,0:0:0:0:
192,192,167660,1,0,0:0:0:0:
64,192,167716,1,0,0:0:0:0:
448,192,167773,1,0,0:0:0:0:
320,192,167830,1,0,0:0:0:0:
64,192,167886,1,0,0:0:0:0:
192,192,167943,1,0,0:0:0:0:
448,192,168000,1,0,0:0:0:0:
320,192,168056,1,0,0:0:0:0:
192,192,168113,1,0,0:0:0:0:
448,192,168169,1,0,0:0:0:0:
64,192,168226,1,0,0:0:0:0:
320,192,168283,1,0,0:0:0:0:
448,192,168339,1,0,0:0:0:0:
192,192,168396,1,0,0:0:0:0:
448,192,168452,1,0,0:0:0:0:
64,192,168509,1,0,0:0:0:0:
320,192,168566,1,0,0:0:0:0:
192,192,168622,1,0,0:0:0:0:
448,192,168679,1,0,0:0:0:0:
64,192,168735,1,0,0:0:0:0:
320,192,168792,1,0,0:0:0:0:
448,192,168849,1,0,0:0:0:0:
64,192,168905,1,0,0:0:0:0:
192,192,168962,1,0,0:0:0:0:
320,192,169018,1,0,0:0:0:0:
448,192,169075,1,0,0:0:0:0:
192,192,169132,1,0,0:0:0:0:
320,192,169188,1,0,0:0:0:0:
448,192,169245,1,0,0:0:0:0:
64,192,169301,1,0,0:0:0:0:
448,192,169358,1,0,0:0:0:0:
192,192,169415,1,0,0:0:0:0:
448,192,169471,1,0,0:0:0:0:
64,192,169528,1,0,0:0:0:0:
320,192,169584,1,0,0:0:0:0:
448,192,169641,1,0,0:0:0:0:
192,192,169698,1,0,0:0:0:0:
448,192,169754,1,0,0:0:0:0:
64,192,169811,1,0,0:0:0:0:
320,192,169867,1,0,0:0:0:0:
192,192,169924,1,0,0:0:0:0:
448,192,169981,1,0,0:0:0:0:
64,192,170037,1,0,0:0:0:0:
320,192,170094,1,0,0:0:0:0:
448,192,170150,1,0,0:0:0:0:
192,192,170207,1,0,0:0:0:0:
320,192,170264,1,0,0:0:0:0:
448,192,170320,1,0,0:0:0:0:
64,192,170377,1,0,0:0:0:0:
192,192,170433,1,0,0:0:0:0:
448,192,170490,1,0,0:0:0:0:
320,192,170547,1,0,0:0:0:0:
64,192,170603,1,0,0:0:0:0:
192,192,170660,1,0,0:0:0:0:
64,192,170716,1,0,0:0:0:0:
448,192,170716,1,0,0:0:0:0:
320,192,170773,1,0,0:0:0:0:
192,192,170830,1,0,0:0:0:0:
64,192,170886,1,0,0:0:0:0:
448,192,170943,1,0,0:0:0:0:
320,192,171000,1,0,0:0:0:0:
448,192,171056,1,0,0:0:0:0:
64,192,171113,1,0,0:0:0:0:
320,192,171169,1,0,0:0:0:0:
64,192,171226,1,0,0:0:0:0:
320,192,171283,1,0,0:0:0:0:
192,192,171339,1,0,0:0:0:0:
448,192,171396,1,0,0:0:0:0:
64,192,171396,1,0,0:0:0:0:
320,192,171452,1,0,0:0:0:0:
448,192,171509,1,0,0:0:0:0:
64,192,171566,1,0,0:0:0:0:
320,192,171622,1,0,0:0:0:0:
448,192,171679,1,0,0:0:0:0:
64,192,171735,1,0,0:0:0:0:
448,192,171792,1,0,0:0:0:0:
320,192,171849,1,0,0:0:0:0:
192,192,171905,1,0,0:0:0:0:
64,192,171962,1,0,0:0:0:0:
448,192,171962,1,0,0:0:0:0:
320,192,172018,1,0,0:0:0:0:
192,192,172075,1,0,0:0:0:0:
320,192,172132,1,0,0:0:0:0:
192,192,172188,1,0,0:0:0:0:
64,192,172245,1,0,0:0:0:0:
448,192,172301,1,0,0:0:0:0:
192,192,172358,1,0,0:0:0:0:
64,192,172415,1,0,0:0:0:0:
320,192,172471,1,0,0:0:0:0:
192,192,172528,1,0,0:0:0:0:
448,192,172584,1,0,0:0:0:0:
320,192,172641,1,0,0:0:0:0:
448,192,172698,1,0,0:0:0:0:
192,192,172754,1,0,0:0:0:0:
320,192,172811,1,0,0:0:0:0:
448,192,172867,1,0,0:0:0:0:
64,192,172867,1,0,0:0:0:0:
192,192,172924,1,0,0:0:0:0:
448,192,172981,1,0,0:0:0:0:
64,192,172981,128,0,173830:0:0:0:0:
320,192,173207,1,0,0:0:0:0:
448,192,173433,1,0,0:0:0:0:
192,192,173660,1,0,0:0:0:0:
320,192,173886,1,0,0:0:0:0:
192,192,174000,1,0,0:0:0:0:
64,192,174000,1,0,0:0:0:0:
320,192,174169,1,0,0:0:0:0:
448,192,174169,1,0,0:0:0:0:
192,192,174283,1,0,0:0:0:0:
64,192,174283,1,0,0:0:0:0:
320,192,174396,1,0,0:0:0:0:
448,192,174396,1,0,0:0:0:0:
192,192,174509,1,0,0:0:0:0:
64,192,174509,1,0,0:0:0:0:
320,192,174622,1,0,0:0:0:0:
448,192,174622,1,0,0:0:0:0:
192,192,174735,1,0,0:0:0:0:
64,192,174735,1,0,0:0:0:0:
320,192,174792,1,0,0:0:0:0:
448,192,175018,1,0,0:0:0:0:
64,192,175245,1,0,0:0:0:0:
448,192,175358,1,0,0:0:0:0:
192,192,175471,1,0,0:0:0:0:
64,192,175584,1,0,0:0:0:0:
448,192,175698,1,0,0:0:0:0:
320,192,175698,1,0,0:0:0:0:
64,192,175754,1,0,0:0:0:0:
192,192,175811,1,0,0:0:0:0:
320,192,175924,1,0,0:0:0:0:
64,192,176037,1,0,0:0:0:0:
192,192,176150,1,0,0:0:0:0:
64,192,176264,1,0,0:0:0:0:
448,192,176377,1,0,0:0:0:0:
320,192,176490,1,0,0:0:0:0:
64,192,176603,1,0,0:0:0:0:
192,192,176603,1,0,0:0:0:0:
192,192,177056,1,0,0:0:0:0:
448,192,177169,1,0,0:0:0:0:
64,192,177283,1,0,0:0:0:0:
448,192,177509,1,0,0:0:0:0:
192,192,177509,1,0,0:0:0:0:
320,192,177622,1,0,0:0:0:0:
64,192,177735,1,0,0:0:0:0:
448,192,177849,1,0,0:0:0:0:
448,192,178188,1,0,0:0:0:0:
448,192,178415,1,0,0:0:0:0:
320,192,178415,1,0,0:0:0:0:
448,192,178641,1,0,0:0:0:0:
192,192,178754,1,0,0:0:0:0:
320,192,178867,1,0,0:0:0:0:
448,192,179094,1,0,0:0:0:0:
192,192,179207,1,0,0:0:0:0:
64,192,179320,1,0,0:0:0:0:
448,192,179320,1,0,0:0:0:0:
448,192,179547,1,0,0:0:0:0:
192,192,179660,1,0,0:0:0:0:
320,192,179773,1,0,0:0:0:0:
448,192,180000,1,0,0:0:0:0:
320,192,180226,1,0,0:0:0:0:
448,192,180226,1,0,0:0:0:0:
320,192,180452,1,0,0:0:0:0:
192,192,180566,1,0,0:0:0:0:
448,192,180679,1,0,0:0:0:0:
320,192,180792,1,0,0:0:0:0:
64,192,180905,1,0,0:0:0:0:
192,192,181018,1,0,0:0:0:0:
320,192,181018,128,0,182037:0:0:0:0:
448,192,182037,1,0,0:0:0:0:
192,192,182490,1,0,0:0:0:0:
320,192,182603,1,0,0:0:0:0:
64,192,182716,1,0,0:0:0:0:
448,192,182830,1,0,0:0:0:0:
320,192,182886,1,0,0:0:0:0:
192,192,182943,1,0,0:0:0:0:
64,192,183000,1,0,0:0:0:0:
320,192,183169,1,0,0:0:0:0:
192,192,183396,1,0,0:0:0:0:
320,192,183622,1,0,0:0:0:0:
320,192,183849,1,0,0:0:0:0:
64,192,184075,1,0,0:0:0:0:
448,192,184188,1,0,0:0:0:0:
192,192,184301,1,0,0:0:0:0:
448,192,184415,1,0,0:0:0:0:
448,192,184698,128,0,185150:0:0:0:0:
448,192,185433,1,0,0:0:0:0:
192,192,185547,1,0,0:0:0:0:
320,192,185660,1,0,0:0:0:0:
448,192,185660,1,0,0:0:0:0:
64,192,185773,1,0,0:0:0:0:
320,192,185886,1,0,0:0:0:0:
448,192,186000,1,0,0:0:0:0:
192,192,186113,1,0,0:0:0:0:
320,192,186113,1,0,0:0:0:0:
64,192,186226,1,0,0:0:0:0:
448,192,186339,1,0,0:0:0:0:
192,192,186452,1,0,0:0:0:0:
64,192,186566,1,0,0:0:0:0:
320,192,186566,1,0,0:0:0:0:
448,192,186679,1,0,0:0:0:0:
192,192,186792,1,0,0:0:0:0:
64,192,186905,1,0,0:0:0:0:
448,192,187018,1,0,0:0:0:0:
192,192,187132,1,0,0:0:0:0:
320,192,187245,1,0,0:0:0:0:
192,192,187358,1,0,0:0:0:0:
64,192,187471,1,0,0:0:0:0:
192,192,187471,1,0,0:0:0:0:
320,192,187584,1,0,0:0:0:0:
448,192,187698,1,0,0:0:0:0:
320,192,187811,1,0,0:0:0:0:
64,192,187924,1,0,0:0:0:0:
448,192,188037,1,0,0:0:0:0:
64,192,188150,1,0,0:0:0:0:
320,192,188150,1,0,0:0:0:0:
192,192,188264,1,0,0:0:0:0:
448,192,188264,1,0,0:0:0:0:
320,192,188377,128,0,189226:0:0:0:0:
448,192,188377,128,0,189226:0:0:0:0:
64,192,188377,128,0,189226:0:0:0:0:
192,192,188377,128,0,189226:0:0:0:0:
192,192,189283,5,0,0:0:0:0:
320,192,189283,1,0,0:0:0:0:
448,192,189283,1,0,0:0:0:0:
64,192,189283,1,0,0:0:0:0:
192,192,189962,1,0,0:0:0:0:
448,192,190867,1,0,0:0:0:0:
320,192,190924,1,0,0:0:0:0:
192,192,190981,1,0,0:0:0:0:
64,192,191037,1,0,0:0:0:0:
320,192,191094,1,0,0:0:0:0:
448,192,191150,1,0,0:0:0:0:
192,192,191320,1,0,0:0:0:0:
448,192,191547,1,0,0:0:0:0:
192,192,191773,1,0,0:0:0:0:
64,192,192000,1,0,0:0:0:0:
192,192,192056,1,0,0:0:0:0:
320,192,192113,1,0,0:0:0:0:
448,192,192169,1,0,0:0:0:0:
192,192,192226,1,0,0:0:0:0:
320,192,192283,1,0,0:0:0:0:
192,192,192452,1,0,0:0:0:0:
448,192,192679,1,0,0:0:0:0:
64,192,192905,1,0,0:0:0:0:
448,192,193018,1,0,0:0:0:0:
320,192,193132,1,0,0:0:0:0:
192,192,193245,1,0,0:0:0:0:
320,192,193358,1,0,0:0:0:0:
64,192,193471,1,0,0:0:0:0:
192,192,193584,1,0,0:0:0:0:
320,192,193698,1,0,0:0:0:0:
64,192,193811,1,0,0:0:0:0:
448,192,193924,1,0,0:0:0:0:
320,192,194037,1,0,0:0:0:0:
64,192,194150,1,0,0:0:0:0:
448,192,194264,1,0,0:0:0:0:
192,192,194377,1,0,0:0:0:0:
320,192,194490,128,0,195169:0:0:0:0:
64,192,195169,1,0,0:0:0:0:
192,192,195226,1,0,0:0:0:0:
448,192,195283,1,0,0:0:0:0:
320,192,195339,1,0,0:0:0:0:
64,192,195396,1,0,0:0:0:0:
448,192,195452,1,0,0:0:0:0:
192,192,195509,1,0,0:0:0:0:
64,192,195566,1,0,0:0:0:0:
448,192,195622,1,0,0:0:0:0:
192,192,195679,1,0,0:0:0:0:
448,192,195735,1,0,0:0:0:0:
320,192,195792,1,0,0:0:0:0:
64,192,195849,1,0,0:0:0:0:
320,192,196075,1,0,0:0:0:0:
448,192,196075,1,0,0:0:0:0:
64,192,196301,1,0,0:0:0:0:
448,192,196301,1,0,0:0:0:0:
192,192,196415,1,0,0:0:0:0:
320,192,196415,1,0,0:0:0:0:
64,192,196754,1,0,0:0:0:0:
192,192,196754,1,0,0:0:0:0:
448,192,197094,1,0,0:0:0:0:
320,192,197094,1,0,0:0:0:0:
64,192,197433,1,0,0:0:0:0:
448,192,197547,1,0,0:0:0:0:
320,192,197660,1,0,0:0:0:0:
192,192,197773,1,0,0:0:0:0:
448,192,197886,1,0,0:0:0:0:
192,192,198000,1,0,0:0:0:0:
320,192,198113,1,0,0:0:0:0:
192,192,198226,1,0,0:0:0:0:
448,192,198339,1,0,0:0:0:0:
320,192,198509,1,0,0:0:0:0:
64,192,198679,1,0,0:0:0:0:
320,192,198849,1,0,0:0:0:0:
64,192,199018,1,0,0:0:0:0:
448,192,199188,1,0,0:0:0:0:
320,192,199358,1,0,0:0:0:0:
448,192,199528,1,0,0:0:0:0:
192,192,199698,1,0,0:0:0:0:
320,192,199867,1,0,0:0:0:0:
192,192,200037,1,0,0:0:0:0:
64,192,200207,1,0,0:0:0:0:
192,192,200377,1,0,0:0:0:0:
64,192,200547,1,0,0:0:0:0:
320,192,200716,128,0,203773:0:0:0:0:
64,192,206490,128,0,206943:0:0:0:0:
320,192,206943,128,0,207396:0:0:0:0:
64,192,207396,5,0,0:0:0:0:
192,192,207396,1,0,0:0:0:0:
64,192,207622,1,0,0:0:0:0:
64,192,207849,1,0,0:0:0:0:
64,192,208075,1,0,0:0:0:0:
64,192,208301,128,0,208754:0:0:0:0:
192,192,208754,1,0,0:0:0:0:
320,192,208754,1,0,0:0:0:0:
320,192,208981,1,0,0:0:0:0:
448,192,209207,1,0,0:0:0:0:
448,192,209433,1,0,0:0:0:0:
448,192,209660,1,0,0:0:0:0:
448,192,209886,1,0,0:0:0:0:
448,192,210113,128,0,210566:0:0:0:0:
64,192,210566,1,0,0:0:0:0:
192,192,210566,1,0,0:0:0:0:
192,192,210792,1,0,0:0:0:0:
320,192,211018,1,0,0:0:0:0:
320,192,211245,1,0,0:0:0:0:
320,192,211471,1,0,0:0:0:0:
320,192,211698,1,0,0:0:0:0:
320,192,211924,128,0,212377:0:0:0:0:
448,192,212377,1,0,0:0:0:0:
64,192,212377,1,0,0:0:0:0:
448,192,212603,1,0,0:0:0:0:
448,192,212830,128,0,213509:0:0:0:0:
64,192,213509,1,0,0:0:0:0:
192,192,213735,1,0,0:0:0:0:
320,192,214188,1,0,0:0:0:0:
64,192,214188,1,0,0:0:0:0:
448,192,214415,1,0,0:0:0:0:
320,192,214415,1,0,0:0:0:0:
64,192,214641,1,0,0:0:0:0:
192,192,214641,1,0,0:0:0:0:
64,192,214867,1,0,0:0:0:0:
192,192,214867,1,0,0:0:0:0:
64,192,215094,1,0,0:0:0:0:
192,192,215094,1,0,0:0:0:0:
64,192,215320,1,0,0:0:0:0:
192,192,215320,1,0,0:0:0:0:
64,192,215547,128,0,216000:0:0:0:0:
192,192,215547,128,0,216000:0:0:0:0:
320,192,216000,1,0,0:0:0:0:
320,192,216226,1,0,0:0:0:0:
448,192,216452,1,0,0:0:0:0:
192,192,216452,1,0,0:0:0:0:
448,192,216679,1,0,0:0:0:0:
192,192,216679,1,0,0:0:0:0:
448,192,216905,1,0,0:0:0:0:
192,192,216905,1,0,0:0:0:0:
448,192,217132,1,0,0:0:0:0:
192,192,217132,1,0,0:0:0:0:
448,192,217358,128,0,217811:0:0:0:0:
192,192,217358,128,0,217811:0:0:0:0:
64,192,217811,1,0,0:0:0:0:
192,192,218037,1,0,0:0:0:0:
320,192,218264,128,0,218943:0:0:0:0:
64,192,218943,1,0,0:0:0:0:
192,192,219169,1,0,0:0:0:0:
320,192,219396,1,0,0:0:0:0:
192,192,219622,128,0,219905:0:0:0:0:
320,192,219962,1,0,0:0:0:0:
448,192,220075,128,0,221886:0:0:0:0:
64,192,223245,1,0,0:0:0:0:
192,192,223471,1,0,0:0:0:0:
320,192,223698,128,0,224377:0:0:0:0:
448,192,224377,1,0,0:0:0:0:
320,192,224603,1,0,0:0:0:0:
192,192,224830,1,0,0:0:0:0:
64,192,225056,1,0,0:0:0:0:
320,192,225396,1,0,0:0:0:0:
64,192,225509,128,0,226415:0:0:0:0:
192,192,225509,128,0,225962:0:0:0:0:
448,192,225962,128,0,226188:0:0:0:0:
320,192,226188,128,0,226415:0:0:0:0:
192,192,226415,128,0,226867:0:0:0:0:
320,192,226867,128,0,227320:0:0:0:0:
448,192,226867,1,0,0:0:0:0:
192,192,226924,1,0,0:0:0:0:
64,192,226981,1,0,0:0:0:0:
192,192,227320,128,0,227773:0:0:0:0:
448,192,227773,128,0,228226:0:0:0:0:
64,192,228226,128,0,229132:0:0:0:0:
192,192,228679,1,0,0:0:0:0:
320,192,228735,1,0,0:0:0:0:
448,192,228792,1,0,0:0:0:0:
320,192,229132,128,0,229584:0:0:0:0:
192,192,229584,128,0,229811:0:0:0:0:
448,192,229811,128,0,230037:0:0:0:0:
64,192,230037,128,0,230490:0:0:0:0:
192,192,230490,128,0,230943:0:0:0:0:
448,192,230490,1,0,0:0:0:0:
320,192,230547,1,0,0:0:0:0:
64,192,230603,1,0,0:0:0:0:
320,192,230943,128,0,231396:0:0:0:0:
448,192,231396,128,0,231849:0:0:0:0:
192,192,231849,128,0,232754:0:0:0:0:
64,192,232301,1,0,0:0:0:0:
320,192,232358,1,0,0:0:0:0:
448,192,232415,1,0,0:0:0:0:
320,192,232754,1,0,0:0:0:0:
448,192,232754,1,0,0:0:0:0:
64,192,232867,1,0,0:0:0:0:
320,192,232981,1,0,0:0:0:0:
448,192,233094,1,0,0:0:0:0:
64,192,233207,1,0,0:0:0:0:
448,192,233320,1,0,0:0:0:0:
320,192,233433,1,0,0:0:0:0:
192,192,233547,1,0,0:0:0:0:
320,192,233660,1,0,0:0:0:0:
64,192,233660,1,0,0:0:0:0:
448,192,233773,1,0,0:0:0:0:
192,192,233886,1,0,0:0:0:0:
64,192,234000,1,0,0:0:0:0:
320,192,234113,1,0,0:0:0:0:
448,192,234226,1,0,0:0:0:0:
64,192,234339,1,0,0:0:0:0:
320,192,234452,1,0,0:0:0:0:
448,192,234566,1,0,0:0:0:0:
192,192,234566,1,0,0:0:0:0:
320,192,234679,1,0,0:0:0:0:
448,192,234792,1,0,0:0:0:0:
64,192,234905,1,0,0:0:0:0:
192,192,235018,1,0,0:0:0:0:
320,192,235132,1,0,0:0:0:0:
192,192,235245,1,0,0:0:0:0:
64,192,235358,1,0,0:0:0:0:
192,192,235471,1,0,0:0:0:0:
320,192,235471,1,0,0:0:0:0:
448,192,235584,1,0,0:0:0:0:
320,192,235698,1,0,0:0:0:0:
192,192,235811,1,0,0:0:0:0:
320,192,235924,1,0,0:0:0:0:
64,192,236037,1,0,0:0:0:0:
448,192,236150,1,0,0:0:0:0:
192,192,236264,1,0,0:0:0:0:
320,192,236377,1,0,0:0:0:0:
448,192,236377,1,0,0:0:0:0:
192,192,236603,1,0,0:0:0:0:
64,192,236603,1,0,0:0:0:0:
192,192,236830,1,0,0:0:0:0:
448,192,236830,1,0,0:0:0:0:
320,192,237056,1,0,0:0:0:0:
64,192,237056,1,0,0:0:0:0:
64,192,237283,1,0,0:0:0:0:
448,192,237283,1,0,0:0:0:0:
192,192,237509,1,0,0:0:0:0:
320,192,237509,1,0,0:0:0:0:
448,192,237735,1,0,0:0:0:0:
320,192,237735,1,0,0:0:0:0:
192,192,237962,1,0,0:0:0:0:
64,192,237962,1,0,0:0:0:0:
192,192,238132,128,0,238301:0:0:0:0:
64,192,238132,128,0,238301:0:0:0:0:
320,192,238245,1,0,0:0:0:0:
448,192,238245,1,0,0:0:0:0:
64,192,238358,128,0,238528:0:0:0:0:
192,192,238358,128,0,238528:0:0:0:0:
320,192,238471,1,0,0:0:0:0:
448,192,238471,1,0,0:0:0:0:
64,192,238584,128,0,238754:0:0:0:0:
192,192,238584,128,0,238754:0:0:0:0:
320,192,238698,1,0,0:0:0:0:
448,192,238698,1,0,0:0:0:0:
64,192,238811,128,0,238981:0:0:0:0:
192,192,238811,128,0,238981:0:0:0:0:
320,192,238924,1,0,0:0:0:0:
448,192,238924,1,0,0:0:0:0:
320,192,239094,128,0,239547:0:0:0:0:
448,192,239094,128,0,239547:0:0:0:0:
192,192,239320,1,0,0:0:0:0:
192,192,239547,128,0,239773:0:0:0:0:
64,192,239547,128,0,239773:0:0:0:0:
448,192,239773,1,0,0:0:0:0:
64,192,240000,5,0,0:0:0:0:
192,192,240000,1,0,0:0:0:0:
448,192,240000,1,0,0:0:0:0:
64,192,240150,1,0,0:0:0:0:
192,192,240150,1,0,0:0:0:0:
448,192,240150,1,0,0:0:0:0:
320,192,240301,1,0,0:0:0:0:
448,192,240452,1,0,0:0:0:0:
320,192,240452,1,0,0:0:0:0:
192,192,240452,1,0,0:0:0:0:
448,192,240603,1,0,0:0:0:0:
320,192,240603,1,0,0:0:0:0:
192,192,240603,1,0,0:0:0:0:
64,192,240735,1,0,0:0:0:0:
64,192,240905,1,0,0:0:0:0:
448,192,240905,1,0,0:0:0:0:
192,192,240905,1,0,0:0:0:0:
320,192,241132,1,0,0:0:0:0:
192,192,241132,1,0,0:0:0:0:
320,192,241358,1,0,0:0:0:0:
64,192,241358,1,0,0:0:0:0:
448,192,241358,1,0,0:0:0:0:
448,192,241471,1,0,0:0:0:0:
320,192,241584,1,0,0:0:0:0:
192,192,241584,1,0,0:0:0:0:
448,192,241584,1,0,0:0:0:0:
192,192,241811,1,0,0:0:0:0:
448,192,241811,1,0,0:0:0:0:
320,192,241811,1,0,0:0:0:0:
192,192,241962,1,0,0:0:0:0:
320,192,241962,1,0,0:0:0:0:
448,192,241962,1,0,0:0:0:0:
64,192,242113,1,0,0:0:0:0:
448,192,242264,1,0,0:0:0:0:
320,192,242264,1,0,0:0:0:0:
64,192,242264,1,0,0:0:0:0:
64,192,242415,1,0,0:0:0:0:
320,192,242415,1,0,0:0:0:0:
448,192,242415,1,0,0:0:0:0:
192,192,242566,1,0,0:0:0:0:
320,192,242716,1,0,0:0:0:0:
192,192,242716,1,0,0:0:0:0:
64,192,242716,1,0,0:0:0:0:
448,192,242943,1,0,0:0:0:0:
192,192,242943,1,0,0:0:0:0:
192,192,243056,1,0,0:0:0:0:
448,192,243169,1,0,0:0:0:0:
64,192,243169,1,0,0:0:0:0:
192,192,243169,1,0,0:0:0:0:
320,192,243396,1,0,0:0:0:0:
448,192,243396,1,0,0:0:0:0:
192,192,243396,1,0,0:0:0:0:
64,192,243622,1,0,0:0:0:0:
320,192,243622,1,0,0:0:0:0:
448,192,243622,1,0,0:0:0:0:
448,192,243849,1,0,0:0:0:0:
320,192,243849,1,0,0:0:0:0:
64,192,243849,1,0,0:0:0:0:
320,192,244075,1,0,0:0:0:0:
448,192,244075,1,0,0:0:0:0:
192,192,244075,1,0,0:0:0:0:
320,192,244301,1,0,0:0:0:0:
448,192,244301,1,0,0:0:0:0:
192,192,244301,1,0,0:0:0:0:
192,192,244528,1,0,0:0:0:0:
320,192,244528,1,0,0:0:0:0:
448,192,244528,1,0,0:0:0:0:
192,192,244754,1,0,0:0:0:0:
448,192,244754,1,0,0:0:0:0:
192,192,244867,1,0,0:0:0:0:
320,192,244981,1,0,0:0:0:0:
192,192,244981,1,0,0:0:0:0:
64,192,244981,1,0,0:0:0:0:
448,192,245207,1,0,0:0:0:0:
64,192,245207,1,0,0:0:0:0:
448,192,245433,1,0,0:0:0:0:
192,192,245433,1,0,0:0:0:0:
64,192,245433,1,0,0:0:0:0:
448,192,245660,1,0,0:0:0:0:
64,192,245660,1,0,0:0:0:0:
192,192,245660,1,0,0:0:0:0:
320,192,245886,1,0,0:0:0:0:
192,192,245886,1,0,0:0:0:0:
64,192,245886,1,0,0:0:0:0:
448,192,246113,128,0,246339:0:0:0:0:
192,192,246113,128,0,246339:0:0:0:0:
320,192,246339,128,0,246566:0:0:0:0:
448,192,246679,1,0,0:0:0:0:
192,192,246792,1,0,0:0:0:0:
320,192,246792,1,0,0:0:0:0:
64,192,247018,1,0,0:0:0:0:
192,192,247018,1,0,0:0:0:0:
192,192,247245,1,0,0:0:0:0:
64,192,247245,1,0,0:0:0:0:
448,192,247245,1,0,0:0:0:0:
448,192,247396,1,0,0:0:0:0:
192,192,247396,1,0,0:0:0:0:
64,192,247396,1,0,0:0:0:0:
320,192,247547,1,0,0:0:0:0:
192,192,247698,1,0,0:0:0:0:
320,192,247698,1,0,0:0:0:0:
448,192,247698,1,0,0:0:0:0:
192,192,247849,1,0,0:0:0:0:
320,192,247849,1,0,0:0:0:0:
448,192,247849,1,0,0:0:0:0:
64,192,247981,1,0,0:0:0:0:
64,192,248150,1,0,0:0:0:0:
192,192,248150,1,0,0:0:0:0:
320,192,248150,1,0,0:0:0:0:
448,192,248377,1,0,0:0:0:0:
320,192,248377,1,0,0:0:0:0:
64,192,248603,1,0,0:0:0:0:
320,192,248603,1,0,0:0:0:0:
448,192,248603,1,0,0:0:0:0:
320,192,248716,1,0,0:0:0:0:
64,192,248830,1,0,0:0:0:0:
320,192,248830,1,0,0:0:0:0:
64,192,249056,1,0,0:0:0:0:
320,192,249056,1,0,0:0:0:0:
448,192,249056,1,0,0:0:0:0:
64,192,249207,1,0,0:0:0:0:
320,192,249207,1,0,0:0:0:0:
448,192,249207,1,0,0:0:0:0:
192,192,249358,1,0,0:0:0:0:
320,192,249509,1,0,0:0:0:0:
448,192,249509,1,0,0:0:0:0:
192,192,249509,1,0,0:0:0:0:
320,192,249660,1,0,0:0:0:0:
448,192,249660,1,0,0:0:0:0:
192,192,249660,1,0,0:0:0:0:
448,192,249792,1,0,0:0:0:0:
64,192,249962,128,0,250188:0:0:0:0:
192,192,249962,1,0,0:0:0:0:
320,192,249962,1,0,0:0:0:0:
320,192,250188,1,0,0:0:0:0:
448,192,250415,1,0,0:0:0:0:
64,192,250415,1,0,0:0:0:0:
192,192,250415,1,0,0:0:0:0:
64,192,250641,1,0,0:0:0:0:
192,192,250641,1,0,0:0:0:0:
448,192,250641,1,0,0:0:0:0:
320,192,250754,1,0,0:0:0:0:
64,192,250867,1,0,0:0:0:0:
448,192,250867,1,0,0:0:0:0:
320,192,250867,1,0,0:0:0:0:
64,192,251094,1,0,0:0:0:0:
448,192,251094,128,0,251320:0:0:0:0:
192,192,251207,1,0,0:0:0:0:
64,192,251320,1,0,0:0:0:0:
320,192,251320,1,0,0:0:0:0:
192,192,251433,1,0,0:0:0:0:
448,192,251547,1,0,0:0:0:0:
192,192,251660,1,0,0:0:0:0:
320,192,251773,1,0,0:0:0:0:
192,192,251886,1,0,0:0:0:0:
448,192,252000,1,0,0:0:0:0:
192,192,252113,1,0,0:0:0:0:
448,192,252226,1,0,0:0:0:0:
320,192,252339,1,0,0:0:0:0:
192,192,252339,1,0,0:0:0:0:
320,192,252452,1,0,0:0:0:0:
64,192,252452,1,0,0:0:0:0:
64,192,252566,1,0,0:0:0:0:
448,192,252566,1,0,0:0:0:0:
64,192,252679,128,0,254490:0:0:0:0:
192,192,252679,128,0,254377:0:0:0:0:
320,192,254490,1,0,0:0:0:0:
448,192,254490,1,0,0:0:0:0:
64,192,254603,1,0,0:0:0:0:
320,192,254603,1,0,0:0:0:0:
192,192,254716,1,0,0:0:0:0:
448,192,254716,1,0,0:0:0:0:
192,192,254830,1,0,0:0:0:0:
320,192,254830,1,0,0:0:0:0:
192,192,254943,1,0,0:0:0:0:
64,192,254943,1,0,0:0:0:0:
448,192,255056,1,0,0:0:0:0:
320,192,255056,1,0,0:0:0:0:
192,192,255169,1,0,0:0:0:0:
448,192,255169,1,0,0:0:0:0:
192,192,255283,1,0,0:0:0:0:
64,192,255283,1,0,0:0:0:0:
64,192,255396,1,0,0:0:0:0:
448,192,255452,1,0,0:0:0:0:
192,192,255509,1,0,0:0:0:0:
320,192,255566,1,0,0:0:0:0:
64,192,255622,1,0,0:0:0:0:
448,192,255679,1,0,0:0:0:0:
192,192,255735,1,0,0:0:0:0:
320,192,255792,1,0,0:0:0:0:
64,192,255849,1,0,0:0:0:0:
448,192,255905,1,0,0:0:0:0:
192,192,255962,1,0,0:0:0:0:
320,192,256018,1,0,0:0:0:0:
64,192,256075,1,0,0:0:0:0:
448,192,256132,1,0,0:0:0:0:
192,192,256188,1,0,0:0:0:0:
64,192,256245,1,0,0:0:0:0:
320,192,256301,128,0,257150:0:0:0:0:
448,192,256301,128,0,257150:0:0:0:0:
192,192,256301,128,0,256528:0:0:0:0:
64,192,256528,128,0,256754:0:0:0:0:
192,192,256754,128,0,256981:0:0:0:0:
64,192,256981,128,0,257207:0:0:0:0:
192,192,257207,1,0,0:0:0:0:
320,192,257207,128,0,257433:0:0:0:0:
64,192,257433,1,0,0:0:0:0:
192,192,257433,128,0,257660:0:0:0:0:
320,192,257660,1,0,0:0:0:0:
448,192,257660,128,0,257886:0:0:0:0:
448,192,258000,1,0,0:0:0:0:
448,192,258113,128,0,259018:0:0:0:0:
320,192,258113,128,0,258339:0:0:0:0:
192,192,258339,128,0,258566:0:0:0:0:
320,192,258566,128,0,258792:0:0:0:0:
64,192,258792,128,0,259018:0:0:0:0:
320,192,259018,128,0,259245:0:0:0:0:
448,192,259245,128,0,259471:0:0:0:0:
192,192,259471,128,0,259698:0:0:0:0:
64,192,259471,1,0,0:0:0:0:
64,192,259698,128,0,259924:0:0:0:0:
448,192,259698,1,0,0:0:0:0:
320,192,259924,128,0,260150:0:0:0:0:
192,192,259924,1,0,0:0:0:0:
64,192,260150,128,0,260377:0:0:0:0:
320,192,260377,128,0,260603:0:0:0:0:
448,192,260603,128,0,260830:0:0:0:0:
320,192,260830,128,0,261056:0:0:0:0:
192,192,260830,1,0,0:0:0:0:
64,192,261056,128,0,261283:0:0:0:0:
448,192,261056,1,0,0:0:0:0:
320,192,261283,1,0,0:0:0:0:
448,192,261283,128,0,261735:0:0:0:0:
64,192,261735,128,0,264452:0:0:0:0:
192,192,261735,128,0,264452:0:0:0:0:
448,192,263094,128,0,263547:0:0:0:0:
320,192,263547,128,0,264000:0:0:0:0:
448,192,264000,128,0,264452:0:0:0:0:
320,192,264452,128,0,264905:0:0:0:0:
448,192,264905,128,0,265358:0:0:0:0:
320,192,265358,128,0,265811:0:0:0:0:
64,192,265811,128,0,266264:0:0:0:0:
192,192,266264,128,0,266716:0:0:0:0:
320,192,266716,128,0,267169:0:0:0:0:
64,192,267169,128,0,267622:0:0:0:0:
320,192,267622,128,0,268075:0:0:0:0:
448,192,268075,128,0,268528:0:0:0:0:
64,192,268528,128,0,268981:0:0:0:0:
448,192,268981,1,0,0:0:0:0:
192,192,269207,1,0,0:0:0:0:
448,192,269320,1,0,0:0:0:0:
192,192,269433,1,0,0:0:0:0:
448,192,269547,1,0,0:0:0:0:
320,192,269660,1,0,0:0:0:0:
192,192,269773,1,0,0:0:0:0:
448,192,270000,1,0,0:0:0:0:
64,192,270113,1,0,0:0:0:0:
320,192,270226,1,0,0:0:0:0:
448,192,270339,1,0,0:0:0:0:
64,192,270566,1,0,0:0:0:0:
192,192,270792,1,0,0:0:0:0:
320,192,271018,1,0,0:0:0:0:
192,192,271132,1,0,0:0:0:0:
320,192,271245,1,0,0:0:0:0:
448,192,271358,1,0,0:0:0:0:
64,192,271471,1,0,0:0:0:0:
320,192,271584,1,0,0:0:0:0:
320,192,271811,1,0,0:0:0:0:
192,192,271924,1,0,0:0:0:0:
64,192,272037,1,0,0:0:0:0:
192,192,272150,1,0,0:0:0:0:
320,192,272377,1,0,0:0:0:0:
192,192,272603,1,0,0:0:0:0:
320,192,272830,1,0,0:0:0:0:
64,192,272943,1,0,0:0:0:0:
192,192,273056,1,0,0:0:0:0:
64,192,273169,1,0,0:0:0:0:
448,192,273283,1,0,0:0:0:0:
64,192,273396,1,0,0:0:0:0:
192,192,273622,1,0,0:0:0:0:
320,192,273735,1,0,0:0:0:0:
192,192,273849,1,0,0:0:0:0:
64,192,273962,1,0,0:0:0:0:
192,192,274188,1,0,0:0:0:0:
192,192,274415,1,0,0:0:0:0:
64,192,274415,1,0,0:0:0:0:
192,192,274641,1,0,0:0:0:0:
64,192,274641,1,0,0:0:0:0:
320,192,274754,1,0,0:0:0:0:
448,192,274754,1,0,0:0:0:0:
320,192,274867,1,0,0:0:0:0:
448,192,274867,1,0,0:0:0:0:
192,192,274981,1,0,0:0:0:0:
64,192,274981,1,0,0:0:0:0:
320,192,275094,1,0,0:0:0:0:
448,192,275094,1,0,0:0:0:0:
192,192,275264,1,0,0:0:0:0:
64,192,275264,1,0,0:0:0:0:
448,192,275320,1,0,0:0:0:0:
320,192,275320,1,0,0:0:0:0:
64,192,275433,1,0,0:0:0:0:
192,192,275433,1,0,0:0:0:0:
320,192,275547,1,0,0:0:0:0:
448,192,275547,1,0,0:0:0:0:
64,192,275660,1,0,0:0:0:0:
192,192,275660,1,0,0:0:0:0:
448,192,275773,1,0,0:0:0:0:
320,192,275773,1,0,0:0:0:0:
192,192,275886,1,0,0:0:0:0:
64,192,275886,1,0,0:0:0:0:
448,192,276000,1,0,0:0:0:0:
320,192,276000,1,0,0:0:0:0:
192,192,276056,1,0,0:0:0:0:
64,192,276056,1,0,0:0:0:0:
320,192,276113,1,0,0:0:0:0:
448,192,276113,1,0,0:0:0:0:
192,192,276169,1,0,0:0:0:0:
64,192,276169,1,0,0:0:0:0:
320,192,276226,1,0,0:0:0:0:
448,192,276226,1,0,0:0:0:0:
192,192,276452,1,0,0:0:0:0:
320,192,276566,1,0,0:0:0:0:
192,192,276679,1,0,0:0:0:0:
64,192,276792,1,0,0:0:0:0:
448,192,276905,1,0,0:0:0:0:
320,192,277018,1,0,0:0:0:0:
320,192,277245,1,0,0:0:0:0:
192,192,277358,1,0,0:0:0:0:
64,192,277471,1,0,0:0:0:0:
448,192,277584,1,0,0:0:0:0:
320,192,277811,1,0,0:0:0:0:
448,192,278037,1,0,0:0:0:0:
192,192,278264,1,0,0:0:0:0:
448,192,278377,1,0,0:0:0:0:
320,192,278490,1,0,0:0:0:0:
192,192,278603,1,0,0:0:0:0:
448,192,278716,1,0,0:0:0:0:
192,192,278830,1,0,0:0:0:0:
64,192,279056,1,0,0:0:0:0:
192,192,279169,1,0,0:0:0:0:
448,192,279283,1,0,0:0:0:0:
320,192,279396,1,0,0:0:0:0:
64,192,279622,1,0,0:0:0:0:
64,192,279849,1,0,0:0:0:0:
64,192,280075,1,0,0:0:0:0:
192,192,280188,1,0,0:0:0:0:
320,192,280301,1,0,0:0:0:0:
192,192,280415,1,0,0:0:0:0:
320,192,280528,1,0,0:0:0:0:
448,192,280641,1,0,0:0:0:0:
64,192,280867,1,0,0:0:0:0:
448,192,280981,1,0,0:0:0:0:
320,192,281094,1,0,0:0:0:0:
192,192,281207,1,0,0:0:0:0:
64,192,281433,1,0,0:0:0:0:
320,192,281660,1,0,0:0:0:0:
448,192,281660,1,0,0:0:0:0:
320,192,281773,1,0,0:0:0:0:
448,192,281773,1,0,0:0:0:0:
192,192,281886,1,0,0:0:0:0:
64,192,281886,1,0,0:0:0:0:
192,192,282000,1,0,0:0:0:0:
64,192,282000,1,0,0:0:0:0:
448,192,282113,1,0,0:0:0:0:
320,192,282113,1,0,0:0:0:0:
320,192,282226,1,0,0:0:0:0:
448,192,282226,1,0,0:0:0:0:
64,192,282339,1,0,0:0:0:0:
192,192,282339,1,0,0:0:0:0:
64,192,282452,128,0,283301:0:0:0:0:
192,192,282452,128,0,283301:0:0:0:0:
192,192,283471,1,0,0:0:0:0:
64,192,283584,1,0,0:0:0:0:
192,192,283698,1,0,0:0:0:0:
64,192,283811,1,0,0:0:0:0:
192,192,283924,1,0,0:0:0:0:
64,192,284037,1,0,0:0:0:0:
320,192,284094,1,0,0:0:0:0:
448,192,284094,1,0,0:0:0:0:
64,192,284207,1,0,0:0:0:0:
192,192,284207,1,0,0:0:0:0:
320,192,284320,1,0,0:0:0:0:
448,192,284320,1,0,0:0:0:0:
320,192,284433,1,0,0:0:0:0:
64,192,284547,1,0,0:0:0:0:
320,192,284660,1,0,0:0:0:0:
64,192,284773,1,0,0:0:0:0:
320,192,284886,1,0,0:0:0:0:
320,192,285000,128,0,285226:0:0:0:0:
64,192,285000,128,0,285226:0:0:0:0:
448,192,285283,1,0,0:0:0:0:
320,192,285396,1,0,0:0:0:0:
448,192,285509,1,0,0:0:0:0:
320,192,285622,1,0,0:0:0:0:
192,192,285735,1,0,0:0:0:0:
64,192,285735,1,0,0:0:0:0:
320,192,285792,1,0,0:0:0:0:
448,192,285792,1,0,0:0:0:0:
192,192,285849,1,0,0:0:0:0:
64,192,285849,1,0,0:0:0:0:
64,192,285962,128,0,286188:0:0:0:0:
192,192,285962,128,0,286188:0:0:0:0:
320,192,286188,1,0,0:0:0:0:
448,192,286188,1,0,0:0:0:0:
192,192,286301,1,0,0:0:0:0:
64,192,286301,1,0,0:0:0:0:
320,192,286415,1,0,0:0:0:0:
448,192,286415,1,0,0:0:0:0:
64,192,286528,1,0,0:0:0:0:
192,192,286528,1,0,0:0:0:0:
448,192,286641,1,0,0:0:0:0:
192,192,286754,1,0,0:0:0:0:
448,192,286867,1,0,0:0:0:0:
192,192,286981,1,0,0:0:0:0:
448,192,287094,1,0,0:0:0:0:
64,192,287207,1,0,0:0:0:0:
448,192,287320,1,0,0:0:0:0:
64,192,287433,1,0,0:0:0:0:
448,192,287547,1,0,0:0:0:0:
64,192,287660,1,0,0:0:0:0:
320,192,287716,1,0,0:0:0:0:
448,192,287716,1,0,0:0:0:0:
64,192,287830,128,0,287943:0:0:0:0:
320,192,288000,1,0,0:0:0:0:
192,192,288113,1,0,0:0:0:0:
320,192,288226,1,0,0:0:0:0:
192,192,288339,1,0,0:0:0:0:
320,192,288452,1,0,0:0:0:0:
192,192,288566,1,0,0:0:0:0:
64,192,288641,1,0,0:0:0:0:
320,192,288716,1,0,0:0:0:0:
64,192,288754,1,0,0:0:0:0:
320,192,288830,1,0,0:0:0:0:
448,192,288905,1,0,0:0:0:0:
64,192,289018,1,0,0:0:0:0:
448,192,289132,1,0,0:0:0:0:
64,192,289245,1,0,0:0:0:0:
448,192,289358,1,0,0:0:0:0:
64,192,289471,1,0,0:0:0:0:
320,192,289584,128,0,289754:0:0:0:0:
192,192,289811,1,0,0:0:0:0:
64,192,289924,1,0,0:0:0:0:
192,192,290037,1,0,0:0:0:0:
64,192,290150,1,0,0:0:0:0:
320,192,290264,1,0,0:0:0:0:
448,192,290264,1,0,0:0:0:0:
192,192,290377,1,0,0:0:0:0:
64,192,290377,1,0,0:0:0:0:
320,192,290490,1,0,0:0:0:0:
448,192,290490,1,0,0:0:0:0:
192,192,290603,1,0,0:0:0:0:
64,192,290603,1,0,0:0:0:0:
64,192,290716,1,0,0:0:0:0:
192,192,290716,1,0,0:0:0:0:
320,192,290830,1,0,0:0:0:0:
448,192,290830,1,0,0:0:0:0:
192,192,290943,1,0,0:0:0:0:
64,192,290943,1,0,0:0:0:0:
320,192,291056,1,0,0:0:0:0:
448,192,291056,1,0,0:0:0:0:
192,192,291169,1,0,0:0:0:0:
64,192,291169,1,0,0:0:0:0:
448,192,291283,1,0,0:0:0:0:
320,192,291283,1,0,0:0:0:0:
64,192,291396,1,0,0:0:0:0:
192,192,291396,1,0,0:0:0:0:
320,192,291509,1,0,0:0:0:0:
448,192,291509,1,0,0:0:0:0:
192,192,291622,1,0,0:0:0:0:
64,192,291622,1,0,0:0:0:0:
320,192,291735,1,0,0:0:0:0:
448,192,291735,1,0,0:0:0:0:
192,192,291849,1,0,0:0:0:0:
64,192,291849,1,0,0:0:0:0:
320,192,291962,1,0,0:0:0:0:
448,192,291962,1,0,0:0:0:0:
192,192,292075,1,0,0:0:0:0:
64,192,292075,1,0,0:0:0:0:
320,192,292188,1,0,0:0:0:0:
448,192,292188,1,0,0:0:0:0:
64,192,292301,1,0,0:0:0:0:
192,192,292301,1,0,0:0:0:0:
320,192,292415,1,0,0:0:0:0:
448,192,292415,1,0,0:0:0:0:
192,192,292528,1,0,0:0:0:0:
64,192,292528,1,0,0:0:0:0:
320,192,292618,1,0,0:0:0:0:
448,192,292618,1,0,0:0:0:0:
192,192,292709,1,0,0:0:0:0:
64,192,292709,1,0,0:0:0:0:
320,192,292800,1,0,0:0:0:0:
448,192,292800,1,0,0:0:0:0:
192,192,292890,1,0,0:0:0:0:
64,192,292890,1,0,0:0:0:0:
320,192,292981,1,0,0:0:0:0:
448,192,292981,1,0,0:0:0:0:
64,192,293071,1,0,0:0:0:0:
192,192,293071,1,0,0:0:0:0:
448,192,293162,1,0,0:0:0:0:
320,192,293162,1,0,0:0:0:0:
64,192,293252,1,0,0:0:0:0:
192,192,293252,1,0,0:0:0:0:
320,192,293343,1,0,0:0:0:0:
448,192,293343,1,0,0:0:0:0:
192,192,293433,1,0,0:0:0:0:
64,192,293433,1,0,0:0:0:0:
320,192,293524,1,0,0:0:0:0:
448,192,293524,1,0,0:0:0:0:
192,192,293615,1,0,0:0:0:0:
64,192,293615,1,0,0:0:0:0:
320,192,293705,1,0,0:0:0:0:
448,192,293705,1,0,0:0:0:0:
64,192,293796,1,0,0:0:0:0:
192,192,293796,1,0,0:0:0:0:
448,192,293886,1,0,0:0:0:0:
320,192,293886,1,0,0:0:0:0:
64,192,293977,1,0,0:0:0:0:
192,192,293977,1,0,0:0:0:0:
448,192,294067,1,0,0:0:0:0:
320,192,294067,1,0,0:0:0:0:
192,192,294158,1,0,0:0:0:0:
64,192,294158,1,0,0:0:0:0:
320,192,294249,1,0,0:0:0:0:
448,192,294249,1,0,0:0:0:0:
192,192,294339,1,0,0:0:0:0:
64,192,294339,1,0,0:0:0:0:
320,192,294415,1,0,0:0:0:0:
448,192,294415,1,0,0:0:0:0:
192,192,294490,1,0,0:0:0:0:
64,192,294490,1,0,0:0:0:0:
320,192,294566,1,0,0:0:0:0:
448,192,294566,1,0,0:0:0:0:
192,192,294641,1,0,0:0:0:0:
64,192,294641,1,0,0:0:0:0:
320,192,294716,1,0,0:0:0:0:
448,192,294716,1,0,0:0:0:0:
192,192,294792,1,0,0:0:0:0:
64,192,294792,1,0,0:0:0:0:
448,192,294867,1,0,0:0:0:0:
320,192,294867,1,0,0:0:0:0:
192,192,294943,1,0,0:0:0:0:
64,192,294943,1,0,0:0:0:0:
320,192,295018,1,0,0:0:0:0:
448,192,295018,1,0,0:0:0:0:
64,192,295094,1,0,0:0:0:0:
192,192,295094,1,0,0:0:0:0:
448,192,295169,1,0,0:0:0:0:
320,192,295169,1,0,0:0:0:0:
64,192,295245,1,0,0:0:0:0:
192,192,295245,1,0,0:0:0:0:
320,192,295320,1,0,0:0:0:0:
448,192,295320,1,0,0:0:0:0:
64,192,295396,1,0,0:0:0:0:
192,192,295396,1,0,0:0:0:0:
448,192,295471,1,0,0:0:0:0:
320,192,295471,1,0,0:0:0:0:
192,192,295547,1,0,0:0:0:0:
64,192,295547,1,0,0:0:0:0:
320,192,295622,1,0,0:0:0:0:
448,192,295622,1,0,0:0:0:0:
192,192,295698,1,0,0:0:0:0:
64,192,295698,1,0,0:0:0:0:
448,192,295773,1,0,0:0:0:0:
320,192,295773,1,0,0:0:0:0:
192,192,295849,1,0,0:0:0:0:
64,192,295849,1,0,0:0:0:0:
320,192,295924,1,0,0:0:0:0:
448,192,295924,1,0,0:0:0:0:
64,192,296000,1,0,0:0:0:0:
192,192,296000,1,0,0:0:0:0:
448,192,296075,1,0,0:0:0:0:
320,192,296075,1,0,0:0:0:0:
192,192,296150,1,0,0:0:0:0:
64,192,296377,1,0,0:0:0:0:
192,192,296490,1,0,0:0:0:0:
320,192,296603,1,0,0:0:0:0:
192,192,296716,1,0,0:0:0:0:
64,192,296830,1,0,0:0:0:0:
320,192,296943,1,0,0:0:0:0:
192,192,297169,1,0,0:0:0:0:
320,192,297283,1,0,0:0:0:0:
64,192,297396,1,0,0:0:0:0:
320,192,297509,1,0,0:0:0:0:
448,192,297735,1,0,0:0:0:0:
64,192,297962,128,0,298867:0:0:0:0:
192,192,298415,128,0,299830:0:0:0:0:
320,192,299830,128,0,300000:0:0:0:0:
448,192,299830,128,0,300000:0:0:0:0:
64,192,299943,1,0,0:0:0:0:
192,192,299943,1,0,0:0:0:0:
320,192,300056,128,0,300226:0:0:0:0:
448,192,300056,128,0,300226:0:0:0:0:
64,192,300169,1,0,0:0:0:0:
192,192,300169,1,0,0:0:0:0:
320,192,300283,128,0,300452:0:0:0:0:
448,192,300283,128,0,300452:0:0:0:0:
192,192,300396,1,0,0:0:0:0:
64,192,300396,1,0,0:0:0:0:
320,192,300490,128,0,300679:0:0:0:0:
448,192,300490,128,0,300679:0:0:0:0:
192,192,300679,1,0,0:0:0:0:
64,192,300679,1,0,0:0:0:0:
320,192,300792,1,0,0:0:0:0:
448,192,300792,1,0,0:0:0:0:
192,192,300905,1,0,0:0:0:0:
64,192,300905,1,0,0:0:0:0:
320,192,301018,1,0,0:0:0:0:
448,192,301018,1,0,0:0:0:0:
448,192,301132,1,0,0:0:0:0:
320,192,301207,1,0,0:0:0:0:
192,192,301283,1,0,0:0:0:0:
64,192,301320,1,0,0:0:0:0:
448,192,301358,1,0,0:0:0:0:
320,192,301396,1,0,0:0:0:0:
192,192,301433,1,0,0:0:0:0:
64,192,301471,1,0,0:0:0:0:
64,192,301584,1,0,0:0:0:0:
320,192,301584,1,0,0:0:0:0:
448,192,301698,1,0,0:0:0:0:
192,192,301698,1,0,0:0:0:0:
64,192,301811,1,0,0:0:0:0:
448,192,301811,1,0,0:0:0:0:
320,192,301924,1,0,0:0:0:0:
192,192,301924,1,0,0:0:0:0:
448,192,302037,1,0,0:0:0:0:
192,192,302037,1,0,0:0:0:0:
448,192,302150,1,0,0:0:0:0:
320,192,302150,1,0,0:0:0:0:
192,192,302264,1,0,0:0:0:0:
320,192,302264,1,0,0:0:0:0:
192,192,302400,1,0,0:0:0:0:
64,192,302400,1,0,0:0:0:0:
448,192,302490,1,0,0:0:0:0:
320,192,302490,1,0,0:0:0:0:
192,192,302581,1,0,0:0:0:0:
64,192,302581,1,0,0:0:0:0:
320,192,302674,1,0,0:0:0:0:
448,192,302674,1,0,0:0:0:0:
192,192,302762,1,0,0:0:0:0:
64,192,302762,1,0,0:0:0:0:
320,192,302849,1,0,0:0:0:0:
448,192,302849,1,0,0:0:0:0:
192,192,302943,1,0,0:0:0:0:
64,192,302943,1,0,0:0:0:0:
448,192,303056,1,0,0:0:0:0:
64,192,303056,1,0,0:0:0:0:
320,192,303169,1,0,0:0:0:0:
192,192,303169,1,0,0:0:0:0:
192,192,303283,1,0,0:0:0:0:
448,192,303283,1,0,0:0:0:0:
448,192,303396,1,0,0:0:0:0:
320,192,303396,1,0,0:0:0:0:
448,192,303509,1,0,0:0:0:0:
320,192,303509,1,0,0:0:0:0:
192,192,303622,1,0,0:0:0:0:
64,192,303622,1,0,0:0:0:0:
448,192,303735,1,0,0:0:0:0:
320,192,303735,1,0,0:0:0:0:
192,192,303849,1,0,0:0:0:0:
64,192,303849,1,0,0:0:0:0:
320,192,303962,1,0,0:0:0:0:
448,192,303962,1,0,0:0:0:0:
192,192,304075,1,0,0:0:0:0:
64,192,304075,1,0,0:0:0:0:
448,192,304188,1,0,0:0:0:0:
64,192,304188,1,0,0:0:0:0:
320,192,304301,1,0,0:0:0:0:
448,192,304301,1,0,0:0:0:0:
64,192,304415,1,0,0:0:0:0:
192,192,304415,1,0,0:0:0:0:
192,192,304528,1,0,0:0:0:0:
320,192,304528,1,0,0:0:0:0:
64,192,304641,1,0,0:0:0:0:
320,192,304641,1,0,0:0:0:0:
448,192,304754,1,0,0:0:0:0:
192,192,304754,1,0,0:0:0:0:
320,192,304867,1,0,0:0:0:0:
64,192,304867,1,0,0:0:0:0:
192,192,304981,1,0,0:0:0:0:
448,192,304981,1,0,0:0:0:0:
64,192,304981,1,0,0:0:0:0:
448,192,305094,1,0,0:0:0:0:
320,192,305094,1,0,0:0:0:0:
64,192,305207,1,0,0:0:0:0:
320,192,305207,1,0,0:0:0:0:
192,192,305320,1,0,0:0:0:0:
320,192,305433,1,0,0:0:0:0:
64,192,305433,1,0,0:0:0:0:
448,192,305547,1,0,0:0:0:0:
192,192,305660,1,0,0:0:0:0:
64,192,305660,1,0,0:0:0:0:
320,192,305773,1,0,0:0:0:0:
448,192,305886,1,0,0:0:0:0:
192,192,305886,1,0,0:0:0:0:
192,192,306000,1,0,0:0:0:0:
64,192,306113,1,0,0:0:0:0:
448,192,306113,1,0,0:0:0:0:
192,192,306226,1,0,0:0:0:0:
320,192,306339,1,0,0:0:0:0:
448,192,306339,1,0,0:0:0:0:
64,192,306452,1,0,0:0:0:0:
192,192,306566,1,0,0:0:0:0:
448,192,306566,1,0,0:0:0:0:
320,192,306679,1,0,0:0:0:0:
64,192,306792,1,0,0:0:0:0:
448,192,306792,1,0,0:0:0:0:
192,192,306905,1,0,0:0:0:0:
448,192,307018,128,0,307245:0:0:0:0:
192,192,307245,128,0,307471:0:0:0:0:
448,192,307471,128,0,307698:0:0:0:0:
320,192,307698,128,0,308377:0:0:0:0:
192,192,308490,1,0,0:0:0:0:
320,192,308603,1,0,0:0:0:0:
64,192,308830,1,0,0:0:0:0:
192,192,308830,1,0,0:0:0:0:
320,192,308920,1,0,0:0:0:0:
448,192,308920,1,0,0:0:0:0:
192,192,309011,1,0,0:0:0:0:
64,192,309011,1,0,0:0:0:0:
320,192,309101,1,0,0:0:0:0:
448,192,309101,1,0,0:0:0:0:
192,192,309192,1,0,0:0:0:0:
64,192,309192,1,0,0:0:0:0:
448,192,309283,1,0,0:0:0:0:
320,192,309283,1,0,0:0:0:0:
192,192,309373,1,0,0:0:0:0:
64,192,309373,1,0,0:0:0:0:
448,192,309464,1,0,0:0:0:0:
320,192,309464,1,0,0:0:0:0:
64,192,309554,1,0,0:0:0:0:
192,192,309554,1,0,0:0:0:0:
448,192,309645,1,0,0:0:0:0:
320,192,309645,1,0,0:0:0:0:
64,192,309735,1,0,0:0:0:0:
192,192,309735,1,0,0:0:0:0:
320,192,309826,1,0,0:0:0:0:
448,192,309826,1,0,0:0:0:0:
192,192,309916,1,0,0:0:0:0:
64,192,309916,1,0,0:0:0:0:
448,192,310007,1,0,0:0:0:0:
320,192,310007,1,0,0:0:0:0:
64,192,310098,1,0,0:0:0:0:
192,192,310098,1,0,0:0:0:0:
320,192,310188,1,0,0:0:0:0:
448,192,310188,1,0,0:0:0:0:
64,192,310279,1,0,0:0:0:0:
192,192,310279,1,0,0:0:0:0:
320,192,310369,1,0,0:0:0:0:
448,192,310369,1,0,0:0:0:0:
64,192,310460,1,0,0:0:0:0:
192,192,310460,1,0,0:0:0:0:
448,192,310550,1,0,0:0:0:0:
320,192,310550,1,0,0:0:0:0:
192,192,310641,1,0,0:0:0:0:
64,192,310641,1,0,0:0:0:0:
448,192,310732,1,0,0:0:0:0:
320,192,310732,1,0,0:0:0:0:
192,192,310822,1,0,0:0:0:0:
64,192,310822,1,0,0:0:0:0:
448,192,310913,1,0,0:0:0:0:
320,192,310913,1,0,0:0:0:0:
64,192,311003,1,0,0:0:0:0:
192,192,311003,1,0,0:0:0:0:
320,192,311094,1,0,0:0:0:0:
448,192,311094,1,0,0:0:0:0:
64,192,311184,1,0,0:0:0:0:
192,192,311184,1,0,0:0:0:0:
448,192,311275,1,0,0:0:0:0:
320,192,311275,1,0,0:0:0:0:
192,192,311366,1,0,0:0:0:0:
64,192,311366,1,0,0:0:0:0:
448,192,311456,1,0,0:0:0:0:
320,192,311456,1,0,0:0:0:0:
192,192,311547,1,0,0:0:0:0:
64,192,311547,1,0,0:0:0:0:
320,192,311637,1,0,0:0:0:0:
448,192,311637,1,0,0:0:0:0:
64,192,311728,1,0,0:0:0:0:
192,192,311728,1,0,0:0:0:0:
320,192,311818,1,0,0:0:0:0:
448,192,311818,1,0,0:0:0:0:
64,192,311909,1,0,0:0:0:0:
192,192,311909,1,0,0:0:0:0:
448,192,312000,1,0,0:0:0:0:
320,192,312000,1,0,0:0:0:0:
192,192,312090,1,0,0:0:0:0:
64,192,312090,1,0,0:0:0:0:
320,192,312181,1,0,0:0:0:0:
448,192,312181,1,0,0:0:0:0:
320,192,312339,1,0,0:0:0:0:
448,192,312339,1,0,0:0:0:0:
64,192,312452,1,0,0:0:0:0:
448,192,312566,1,0,0:0:0:0:
320,192,312679,1,0,0:0:0:0:
192,192,312679,1,0,0:0:0:0:
64,192,312792,1,0,0:0:0:0:
320,192,312905,1,0,0:0:0:0:
448,192,312905,1,0,0:0:0:0:
64,192,313018,1,0,0:0:0:0:
192,192,313132,1,0,0:0:0:0:
448,192,313132,1,0,0:0:0:0:
320,192,313245,1,0,0:0:0:0:
64,192,313358,1,0,0:0:0:0:
192,192,313358,1,0,0:0:0:0:
320,192,313471,1,0,0:0:0:0:
448,192,313584,1,0,0:0:0:0:
192,192,313584,1,0,0:0:0:0:
64,192,313698,1,0,0:0:0:0:
320,192,313811,1,0,0:0:0:0:
448,192,313811,1,0,0:0:0:0:
192,192,313924,1,0,0:0:0:0:
64,192,314037,1,0,0:0:0:0:
448,192,314037,1,0,0:0:0:0:
320,192,314150,1,0,0:0:0:0:
448,192,314264,128,0,314603:0:0:0:0:
64,192,314490,1,0,0:0:0:0:
64,192,314603,128,0,315169:0:0:0:0:
448,192,314943,1,0,0:0:0:0:
192,192,315169,128,0,316075:0:0:0:0:
448,192,315169,128,0,316075:0:0:0:0:
64,192,316075,1,0,0:0:0:0:
320,192,316188,1,0,0:0:0:0:
192,192,316301,1,0,0:0:0:0:
448,192,316415,1,0,0:0:0:0:
64,192,316528,1,0,0:0:0:0:
192,192,316641,1,0,0:0:0:0:
64,192,316754,1,0,0:0:0:0:
320,192,316867,1,0,0:0:0:0:
192,192,316981,1,0,0:0:0:0:
448,192,317094,1,0,0:0:0:0:
320,192,317207,1,0,0:0:0:0:
192,192,317320,1,0,0:0:0:0:
64,192,317433,1,0,0:0:0:0:
448,192,317547,1,0,0:0:0:0:
320,192,317660,1,0,0:0:0:0:
448,192,317773,1,0,0:0:0:0:
192,192,317886,1,0,0:0:0:0:
320,192,317886,1,0,0:0:0:0:
64,192,318000,1,0,0:0:0:0:
320,192,318113,1,0,0:0:0:0:
448,192,318113,1,0,0:0:0:0:
64,192,318226,1,0,0:0:0:0:
192,192,318339,1,0,0:0:0:0:
448,192,318339,1,0,0:0:0:0:
320,192,318452,1,0,0:0:0:0:
192,192,318566,1,0,0:0:0:0:
64,192,318566,1,0,0:0:0:0:
448,192,318679,1,0,0:0:0:0:
64,192,318792,1,0,0:0:0:0:
192,192,318792,1,0,0:0:0:0:
320,192,318905,1,0,0:0:0:0:
192,192,319018,1,0,0:0:0:0:
448,192,319018,1,0,0:0:0:0:
64,192,319132,1,0,0:0:0:0:
320,192,319245,1,0,0:0:0:0:
192,192,319245,1,0,0:0:0:0:
448,192,319358,1,0,0:0:0:0:
320,192,319471,1,0,0:0:0:0:
192,192,319471,1,0,0:0:0:0:
64,192,319584,1,0,0:0:0:0:
192,192,319698,1,0,0:0:0:0:
448,192,319698,1,0,0:0:0:0:
320,192,319811,1,0,0:0:0:0:
448,192,319924,1,0,0:0:0:0:
192,192,319924,1,0,0:0:0:0:
320,192,320037,1,0,0:0:0:0:
192,192,320150,1,0,0:0:0:0:
64,192,320150,1,0,0:0:0:0:
448,192,320264,1,0,0:0:0:0:
64,192,320377,1,0,0:0:0:0:
320,192,320377,1,0,0:0:0:0:
192,192,320490,1,0,0:0:0:0:
64,192,320603,1,0,0:0:0:0:
448,192,320603,1,0,0:0:0:0:
320,192,320716,1,0,0:0:0:0:
192,192,320830,1,0,0:0:0:0:
64,192,320830,1,0,0:0:0:0:
448,192,320943,1,0,0:0:0:0:
320,192,321056,1,0,0:0:0:0:
64,192,321056,1,0,0:0:0:0:
192,192,321169,1,0,0:0:0:0:
64,192,321283,1,0,0:0:0:0:
448,192,321283,1,0,0:0:0:0:
320,192,321396,1,0,0:0:0:0:
448,192,321509,1,0,0:0:0:0:
320,192,321509,1,0,0:0:0:0:
64,192,321566,1,0,0:0:0:0:
192,192,321622,1,0,0:0:0:0:
320,192,321679,1,0,0:0:0:0:
448,192,321735,1,0,0:0:0:0:
320,192,321792,1,0,0:0:0:0:
192,192,321849,1,0,0:0:0:0:
64,192,321905,1,0,0:0:0:0:
192,192,321962,1,0,0:0:0:0:
320,192,322018,1,0,0:0:0:0:
448,192,322075,1,0,0:0:0:0:
64,192,322132,1,0,0:0:0:0:
192,192,322188,1,0,0:0:0:0:
320,192,322245,1,0,0:0:0:0:
64,192,322301,1,0,0:0:0:0:
448,192,322358,1,0,0:0:0:0:
64,192,322415,1,0,0:0:0:0:
192,192,322415,1,0,0:0:0:0:
64,192,322528,1,0,0:0:0:0:
192,192,322528,1,0,0:0:0:0:
192,192,322641,1,0,0:0:0:0:
320,192,322641,1,0,0:0:0:0:
192,192,322754,1,0,0:0:0:0:
320,192,322754,1,0,0:0:0:0:
320,192,322867,1,0,0:0:0:0:
448,192,322867,1,0,0:0:0:0:
320,192,322981,1,0,0:0:0:0:
448,192,322981,1,0,0:0:0:0:
448,192,323094,1,0,0:0:0:0:
448,192,323207,1,0,0:0:0:0:
320,192,323320,1,0,0:0:0:0:
192,192,323320,1,0,0:0:0:0:
448,192,323433,1,0,0:0:0:0:
192,192,323547,1,0,0:0:0:0:
64,192,323547,1,0,0:0:0:0:
320,192,323660,1,0,0:0:0:0:
64,192,323773,1,0,0:0:0:0:
448,192,323773,1,0,0:0:0:0:
192,192,323886,1,0,0:0:0:0:
64,192,324000,1,0,0:0:0:0:
448,192,324000,1,0,0:0:0:0:
320,192,324113,1,0,0:0:0:0:
192,192,324226,1,0,0:0:0:0:
448,192,324226,1,0,0:0:0:0:
64,192,324339,1,0,0:0:0:0:
320,192,324452,1,0,0:0:0:0:
192,192,324452,1,0,0:0:0:0:
448,192,324566,1,0,0:0:0:0:
192,192,324679,1,0,0:0:0:0:
320,192,324679,1,0,0:0:0:0:
64,192,324792,1,0,0:0:0:0:
320,192,324905,1,0,0:0:0:0:
448,192,324905,1,0,0:0:0:0:
192,192,325018,1,0,0:0:0:0:
64,192,325132,1,0,0:0:0:0:
320,192,325132,1,0,0:0:0:0:
448,192,325245,1,0,0:0:0:0:
64,192,325358,1,0,0:0:0:0:
192,192,325358,1,0,0:0:0:0:
448,192,325471,1,0,0:0:0:0:
320,192,325584,1,0,0:0:0:0:
64,192,325698,1,0,0:0:0:0:
448,192,325811,1,0,0:0:0:0:
320,192,325924,1,0,0:0:0:0:
192,192,326037,1,0,0:0:0:0:
320,192,326150,1,0,0:0:0:0:
448,192,326264,1,0,0:0:0:0:
192,192,326377,1,0,0:0:0:0:
64,192,326490,1,0,0:0:0:0:
448,192,326603,1,0,0:0:0:0:
192,192,326716,1,0,0:0:0:0:
320,192,326830,1,0,0:0:0:0:
64,192,326943,1,0,0:0:0:0:
448,192,326943,1,0,0:0:0:0:
320,192,327056,1,0,0:0:0:0:
64,192,327169,1,0,0:0:0:0:
448,192,327169,1,0,0:0:0:0:
320,192,327283,1,0,0:0:0:0:
192,192,327396,1,0,0:0:0:0:
448,192,327396,1,0,0:0:0:0:
320,192,327509,1,0,0:0:0:0:
192,192,327622,1,0,0:0:0:0:
64,192,327622,1,0,0:0:0:0:
448,192,327735,1,0,0:0:0:0:
192,192,327735,1,0,0:0:0:0:
64,192,327849,1,0,0:0:0:0:
320,192,327849,1,0,0:0:0:0:
320,192,327962,1,0,0:0:0:0:
64,192,327962,1,0,0:0:0:0:
64,192,328075,1,0,0:0:0:0:
320,192,328075,1,0,0:0:0:0:
448,192,328188,1,0,0:0:0:0:
192,192,328188,1,0,0:0:0:0:
448,192,328301,1,0,0:0:0:0:
192,192,328301,1,0,0:0:0:0:
448,192,328415,1,0,0:0:0:0:
192,192,328415,1,0,0:0:0:0:
192,192,328528,1,0,0:0:0:0:
64,192,328641,1,0,0:0:0:0:
320,192,328641,1,0,0:0:0:0:
64,192,328754,1,0,0:0:0:0:
320,192,328754,1,0,0:0:0:0:
192,192,328867,1,0,0:0:0:0:
192,192,328981,1,0,0:0:0:0:
320,192,329094,1,0,0:0:0:0:
64,192,329094,1,0,0:0:0:0:
64,192,329207,1,0,0:0:0:0:
320,192,329207,1,0,0:0:0:0:
192,192,329320,1,0,0:0:0:0:
192,192,329433,1,0,0:0:0:0:
192,192,329547,1,0,0:0:0:0:
448,192,329660,128,0,330566:0:0:0:0:
64,192,330566,1,0,0:0:0:0:
64,192,330792,1,0,0:0:0:0:
192,192,330792,1,0,0:0:0:0:
320,192,331018,1,0,0:0:0:0:
448,192,331018,1,0,0:0:0:0:
64,192,331132,1,0,0:0:0:0:
192,192,331132,1,0,0:0:0:0:
448,192,331245,1,0,0:0:0:0:
320,192,331245,1,0,0:0:0:0:
320,192,331358,1,0,0:0:0:0:
64,192,331471,1,0,0:0:0:0:
448,192,331528,1,0,0:0:0:0:
64,192,331584,1,0,0:0:0:0:
320,192,331641,1,0,0:0:0:0:
192,192,331669,1,0,0:0:0:0:
320,192,331754,1,0,0:0:0:0:
448,192,331811,1,0,0:0:0:0:
64,192,331867,1,0,0:0:0:0:
320,192,331952,1,0,0:0:0:0:
448,192,332037,1,0,0:0:0:0:
320,192,332094,1,0,0:0:0:0:
64,192,332150,1,0,0:0:0:0:
448,192,332207,1,0,0:0:0:0:
192,192,332264,1,0,0:0:0:0:
320,192,332320,1,0,0:0:0:0:
64,192,332377,128,0,332660:0:0:0:0:
192,192,332377,128,0,332660:0:0:0:0:
320,192,332660,128,0,332830:0:0:0:0:
448,192,332660,128,0,332830:0:0:0:0:
192,192,332830,1,0,0:0:0:0:
64,192,332830,1,0,0:0:0:0:
320,192,332943,1,0,0:0:0:0:
192,192,333056,1,0,0:0:0:0:
64,192,333056,1,0,0:0:0:0:
320,192,333169,1,0,0:0:0:0:
64,192,333283,1,0,0:0:0:0:
448,192,333283,1,0,0:0:0:0:
320,192,333396,1,0,0:0:0:0:
192,192,333509,1,0,0:0:0:0:
64,192,333509,1,0,0:0:0:0:
448,192,333622,1,0,0:0:0:0:
320,192,333735,1,0,0:0:0:0:
192,192,333735,1,0,0:0:0:0:
64,192,333849,1,0,0:0:0:0:
448,192,333962,1,0,0:0:0:0:
192,192,333962,1,0,0:0:0:0:
320,192,334075,1,0,0:0:0:0:
448,192,334075,1,0,0:0:0:0:
192,192,334188,1,0,0:0:0:0:
64,192,334188,1,0,0:0:0:0:
320,192,334301,1,0,0:0:0:0:
192,192,334415,1,0,0:0:0:0:
448,192,334415,1,0,0:0:0:0:
64,192,334528,1,0,0:0:0:0:
192,192,334641,1,0,0:0:0:0:
320,192,334641,1,0,0:0:0:0:
64,192,334754,1,0,0:0:0:0:
320,192,334867,1,0,0:0:0:0:
448,192,334867,1,0,0:0:0:0:
192,192,334981,1,0,0:0:0:0:
320,192,335094,1,0,0:0:0:0:
448,192,335094,1,0,0:0:0:0:
192,192,335207,1,0,0:0:0:0:
64,192,335320,1,0,0:0:0:0:
320,192,335320,1,0,0:0:0:0:
192,192,335433,1,0,0:0:0:0:
448,192,335547,1,0,0:0:0:0:
320,192,335547,1,0,0:0:0:0:
192,192,335622,1,0,0:0:0:0:
64,192,335622,1,0,0:0:0:0:
320,192,335698,1,0,0:0:0:0:
448,192,335698,1,0,0:0:0:0:
192,192,335773,1,0,0:0:0:0:
64,192,335773,1,0,0:0:0:0:
320,192,335849,1,0,0:0:0:0:
448,192,335849,1,0,0:0:0:0:
192,192,335924,1,0,0:0:0:0:
64,192,335924,1,0,0:0:0:0:
448,192,336000,1,0,0:0:0:0:
320,192,336000,1,0,0:0:0:0:
320,192,336226,1,0,0:0:0:0:
192,192,336339,1,0,0:0:0:0:
320,192,336452,1,0,0:0:0:0:
448,192,336566,1,0,0:0:0:0:
192,192,336679,1,0,0:0:0:0:
64,192,336792,1,0,0:0:0:0:
320,192,337018,1,0,0:0:0:0:
448,192,337132,1,0,0:0:0:0:
192,192,337245,1,0,0:0:0:0:
64,192,337358,1,0,0:0:0:0:
448,192,337584,1,0,0:0:0:0:
64,192,337811,1,0,0:0:0:0:
192,192,337811,1,0,0:0:0:0:
448,192,337924,1,0,0:0:0:0:
64,192,338037,1,0,0:0:0:0:
192,192,338037,1,0,0:0:0:0:
64,192,338150,1,0,0:0:0:0:
320,192,338264,1,0,0:0:0:0:
448,192,338264,1,0,0:0:0:0:
64,192,338377,1,0,0:0:0:0:
320,192,338490,1,0,0:0:0:0:
448,192,338490,1,0,0:0:0:0:
64,192,338603,1,0,0:0:0:0:
64,192,338716,1,0,0:0:0:0:
320,192,338716,1,0,0:0:0:0:
192,192,338830,1,0,0:0:0:0:
320,192,338943,1,0,0:0:0:0:
64,192,338943,1,0,0:0:0:0:
192,192,339056,1,0,0:0:0:0:
320,192,339169,1,0,0:0:0:0:
64,192,339169,1,0,0:0:0:0:
192,192,339283,1,0,0:0:0:0:
64,192,339396,1,0,0:0:0:0:
320,192,339396,1,0,0:0:0:0:
192,192,339509,1,0,0:0:0:0:
64,192,339622,1,0,0:0:0:0:
448,192,339622,1,0,0:0:0:0:
320,192,339735,1,0,0:0:0:0:
448,192,339849,1,0,0:0:0:0:
64,192,339849,1,0,0:0:0:0:
320,192,339962,1,0,0:0:0:0:
448,192,340075,1,0,0:0:0:0:
64,192,340075,1,0,0:0:0:0:
320,192,340188,1,0,0:0:0:0:
448,192,340301,1,0,0:0:0:0:
64,192,340301,1,0,0:0:0:0:
64,192,340471,128,0,342735:0:0:0:0:
448,192,340471,128,0,342735:0:0:0:0:
320,192,342792,1,0,0:0:0:0:
192,192,342849,1,0,0:0:0:0:
320,192,342905,1,0,0:0:0:0:
448,192,342962,1,0,0:0:0:0:
64,192,343018,1,0,0:0:0:0:
192,192,343075,1,0,0:0:0:0:
320,192,343132,1,0,0:0:0:0:
64,192,343245,1,0,0:0:0:0:
192,192,343245,1,0,0:0:0:0:
320,192,343245,1,0,0:0:0:0:
448,192,343245,1,0,0:0:0:0:
