osu file format v14

[General]
AudioFilename: Toby Fox - Rude Buster (Camellia Remix).mp3
AudioLeadIn: 0
PreviewTime: 42595
Countdown: 0
SampleSet: Normal
StackLeniency: 0.7
Mode: 1
LetterboxInBreaks: 0
WidescreenStoryboard: 0

[Editor]
DistanceSpacing: 1.2
BeatDivisor: 4
GridSize: 16
TimelineZoom: 3.999996

[Metadata]
Title:Rude Buster (Camellia Remix)
TitleUnicode:Rude Buster (かめりあ Remix)
Artist:Toby Fox
ArtistUnicode:Toby Fox
Creator:Raytoly
Version:The Beginning of The Journey
Source:DELTARUNE
Tags:Rhytoly かめるかめりあ kamelcamellia cametek fa featured artist undertale Don't Forget battle theme official soundtrack ost video game Electronic Instrumental Deltacore
BeatmapID:2494147
BeatmapSetID:1197378

[Difficulty]
HPDrainRate:4.5
CircleSize:7
OverallDifficulty:8.5
ApproachRate:10
SliderMultiplier:1.4
SliderTickRate:1

[Events]
//Background and Video events
0,0,"1376082.png",0,50
//Break Periods
//Storyboard Layer 0 (Background)
//Storyboard Layer 1 (Fail)
//Storyboard Layer 2 (Pass)
//Storyboard Layer 3 (Foreground)
//Storyboard Layer 4 (Overlay)
//Storyboard Sound Samples

[TimingPoints]
35,226.415094339623,4,1,0,40,1,0
35,-133.333333333333,4,1,0,40,0,0
940,226.415094339623,4,1,0,40,1,0
1392,-117.647058823529,4,1,0,40,0,0
1845,-125,4,1,0,40,0,0
2751,-142.857142857143,4,1,0,40,0,0
3656,-166.666666666667,4,1,0,40,0,0
4562,-200,4,1,0,40,0,0
8185,-133.333333333333,4,1,0,60,0,0
14411,-100,4,1,0,80,0,0
15656,-142.857142857143,4,1,0,60,0,0
19053,-133.333333333333,4,1,0,60,0,0
21770,-111.111111111111,4,1,0,60,0,0
21826,-110.726643598616,4,1,0,60,0,0
21883,-110.344827586207,4,1,0,60,0,0
21940,-109.965635738832,4,1,0,60,0,0
21996,-109.58904109589,4,1,0,60,0,0
22053,-109.215017064846,4,1,0,60,0,0
22109,-108.843537414966,4,1,0,60,0,0
22166,-108.474576271186,4,1,0,60,0,0
22223,-108.108108108108,4,1,0,60,0,0
22279,-107.744107744108,4,1,0,60,0,0
22336,-107.38255033557,4,1,0,60,0,0
22392,-107.023411371237,4,1,0,60,0,0
22449,-106.666666666667,4,1,0,60,0,0
22506,-106.312292358804,4,1,0,60,0,0
22562,-105.960264900662,4,1,0,60,0,0
22619,-105.610561056106,4,1,0,60,0,0
22675,-105.263157894737,4,1,0,80,0,0
22902,-125,4,1,0,80,0,0
24487,-117.647058823529,4,1,0,80,0,0
26298,-111.111111111111,4,1,0,80,0,0
27204,-105.263157894737,4,1,0,80,0,0
28109,-66.6666666666667,4,1,0,100,0,0
29468,-100,4,1,0,100,0,0
29921,-80,4,1,0,100,0,0
30147,-133.333333333333,4,1,0,100,0,0
30826,-80,4,1,0,100,0,0
31053,-133.333333333333,4,1,0,100,0,0
31732,-80,4,1,0,100,0,0
31958,-133.333333333333,4,1,0,100,0,0
32638,-80,4,1,0,100,0,0
32864,-133.333333333333,4,1,0,100,0,0
33317,-80,4,1,0,100,0,0
33770,-133.333333333333,4,1,0,100,0,0
34223,-100,4,1,0,100,0,0
34449,-80,4,1,0,100,0,0
34675,-133.333333333333,4,1,0,100,0,0
35355,-80,4,1,0,100,0,0
35581,-133.333333333333,4,1,0,100,0,0
36260,-80,4,1,0,100,0,0
36373,-114.285714285714,4,1,0,100,0,0
37166,-100,4,1,0,100,0,1
42600,-100,4,1,0,100,0,0
42826,-133.333333333333,4,1,0,80,0,0
44411,-100,4,1,0,100,0,1
57090,-66.6666666666667,4,1,0,100,0,1
58449,-100,4,1,0,100,0,0
58902,-80,4,1,0,100,0,1
59355,-133.333333333333,4,1,0,100,0,1
64336,-133.333333333333,4,1,0,100,0,0
64562,-142.857142857143,4,1,0,80,0,0
66147,-100,4,1,0,80,0,0
66373,-125,4,1,0,80,0,0
73392,-111.111111111111,4,1,0,80,0,0
80638,-111.111111111111,4,1,0,100,0,1
80864,-133.333333333333,4,1,0,100,0,1
87883,-80,4,1,0,100,0,1
88109,-133.333333333333,4,1,0,100,0,1
88789,-100,4,1,0,100,0,0
89694,-80,4,1,0,100,0,1
89921,-133.333333333333,4,1,0,100,0,1
90600,-100,4,1,0,100,0,0
91392,-133.333333333333,4,1,0,100,0,0
91506,-80,4,1,0,100,0,1
91732,-133.333333333333,4,1,0,100,0,1
92411,-100,4,1,0,100,0,0
93090,-133.333333333333,4,1,0,100,0,0
93317,-80,4,1,0,100,0,1
93543,-100,4,1,0,100,0,1
95128,-100,4,1,0,100,0,0
96034,-111.111111111111,4,1,0,90,0,0
96940,-125,4,1,0,80,0,0
97845,-142.857142857143,4,1,0,70,0,0
98751,-166.666666666667,4,1,0,60,0,0
101468,-133.333333333333,4,1,0,60,0,0
101524,-132.780082987552,4,1,0,60,0,0
101581,-132.231404958678,4,1,0,60,0,0
101638,-131.687242798354,4,1,0,60,0,0
101694,-131.147540983607,4,1,0,60,0,0
101751,-130.612244897959,4,1,0,60,0,0
101807,-130.081300813008,4,1,0,60,0,0
101864,-129.554655870445,4,1,0,60,0,0
101921,-129.032258064516,4,1,0,60,0,0
101977,-128.5140562249,4,1,0,60,0,0
102034,-128,4,1,0,60,0,0
102090,-127.490039840637,4,1,0,60,0,0
102147,-126.984126984127,4,1,0,60,0,0
102204,-126.482213438735,4,1,0,60,0,0
102260,-125.984251968504,4,1,0,60,0,0
102317,-125.490196078431,4,1,0,60,0,0
102373,-125,4,1,0,60,0,0
102487,-125,4,1,0,60,0,0
103732,-121.951219512195,4,1,0,60,0,0
103789,-120.481927710843,4,1,0,60,0,0
103845,-119.047619047619,4,1,0,60,0,0
103902,-117.647058823529,4,1,0,60,0,0
103958,-116.279069767442,4,1,0,60,0,0
104015,-114.942528735632,4,1,0,60,0,0
104072,-113.636363636364,4,1,0,60,0,0
104128,-112.359550561798,4,1,0,60,0,0
104185,-111.111111111111,4,1,0,80,0,0
105543,-108.695652173913,4,1,0,80,0,0
105600,-107.52688172043,4,1,0,80,0,0
105656,-106.382978723404,4,1,0,80,0,0
105713,-105.263157894737,4,1,0,80,0,0
105770,-104.166666666667,4,1,0,80,0,0
105826,-103.092783505155,4,1,0,80,0,0
105883,-102.040816326531,4,1,0,80,0,0
105940,-101.010101010101,4,1,0,80,0,0
105996,-100,4,1,0,100,0,1
106109,-100,4,1,0,100,0,1
107807,-100,4,1,0,100,0,0
108034,-133.333333333333,4,1,0,100,0,0
109619,-100,4,1,0,100,0,1
122638,-66.6666666666667,4,1,0,100,0,1
123204,-100,4,1,0,100,0,1
131241,-105.263157894737,4,1,0,100,0,1
131355,-111.111111111111,4,1,0,80,0,0
132260,-80,4,1,0,100,0,1
132487,-111.111111111111,4,1,0,100,0,1
132600,-80,4,1,0,100,0,1
132826,-111.111111111111,4,1,0,100,0,1
133166,-111.111111111111,4,1,0,80,0,0
134072,-80,4,1,0,100,0,1
134298,-111.111111111111,4,1,0,100,0,1
134411,-80,4,1,0,100,0,1
134638,-111.111111111111,4,1,0,100,0,1
134977,-111.111111111111,4,1,0,80,0,0
135883,-80,4,1,0,100,0,1
136109,-111.111111111111,4,1,0,100,0,1
136223,-80,4,1,0,100,0,1
136449,-111.111111111111,4,1,0,100,0,1
136789,-80,4,1,0,100,0,1
137015,-100,4,1,0,100,0,1
137128,-66.6666666666667,4,1,0,100,0,1
137694,-100,4,1,0,100,0,1
138600,-100,4,1,0,100,0,0
139506,-111.111111111111,4,1,0,90,0,0
140411,-125,4,1,0,80,0,0
141317,-142.857142857143,4,1,0,70,0,0
142223,-166.666666666667,4,1,0,60,0,0
144940,-125,4,1,0,60,0,0
145845,-80,4,1,0,100,0,0
146072,-133.333333333333,4,1,0,100,0,0
146524,-100,4,1,0,100,0,0
146751,-80,4,1,0,100,0,0
146977,-133.333333333333,4,1,0,100,0,0
147656,-80,4,1,0,100,0,0
147883,-133.333333333333,4,1,0,100,0,0
148562,-80,4,1,0,100,0,0
148789,-133.333333333333,4,1,0,100,0,0
149241,-80,4,1,0,100,0,0
149694,-133.333333333333,4,1,0,100,0,0
150373,-80,4,1,0,100,0,0
150600,-133.333333333333,4,1,0,100,0,0
151279,-80,4,1,0,100,0,0
151506,-133.333333333333,4,1,0,100,0,0
152185,-80,4,1,0,100,0,0
152298,-114.285714285714,4,1,0,100,0,0
153090,-100,4,1,0,100,0,1
158524,-100,4,1,0,100,0,0
158751,-133.333333333333,4,1,0,80,0,0
160336,-100,4,1,0,100,0,1
175053,-133.333333333333,4,1,0,100,0,1
178449,-100,4,1,0,100,0,1
182298,-133.333333333333,4,1,0,100,0,1
185694,-100,4,1,0,100,0,1
187506,-66.6666666666667,4,1,0,100,0,1
188411,-100,4,1,0,100,0,1
189317,-100,4,1,0,100,0,0
190223,-105.263157894737,4,1,0,95,0,0
191128,-111.111111111111,4,1,0,90,0,0
192034,-117.647058823529,4,1,0,85,0,0
192940,-125,4,1,0,80,0,0
193845,-133.333333333333,4,1,0,75,0,0
194751,-142.857142857143,4,1,0,70,0,0
195656,-153.846153846154,4,1,0,65,0,0
196562,-166.666666666667,4,1,0,60,0,0
197468,-181.818181818182,4,1,0,55,0,0
197921,-190.47619047619,4,1,0,55,0,0
198373,-200,4,1,0,50,0,0
199279,-222.222222222222,4,1,0,45,0,0
200185,-250,4,1,0,40,0,0
201090,-333.333333333333,4,1,0,30,0,0
206524,-312.5,4,1,0,30,0,0
206977,-285.714285714286,4,1,0,30,0,0
207430,-250,4,1,0,20,0,0
214223,-250,4,1,0,60,0,0
214449,-243.90243902439,4,1,0,60,0,0
214506,-238.095238095238,4,1,0,60,0,0
214562,-232.558139534884,4,1,0,60,0,0
214619,-227.272727272727,4,1,0,60,0,0
214675,-222.222222222222,4,1,0,60,0,0
216260,-217.391304347826,4,1,0,60,0,0
216317,-212.765957446809,4,1,0,60,0,0
216373,-208.333333333333,4,1,0,60,0,0
216430,-204.081632653061,4,1,0,60,0,0
216487,-200,4,1,0,60,0,0
218072,-196.078431372549,4,1,0,60,0,0
218128,-192.307692307692,4,1,0,60,0,0
218185,-188.679245283019,4,1,0,60,0,0
218241,-185.185185185185,4,1,0,60,0,0
218298,-181.818181818182,4,1,0,60,0,0
225430,-173.913043478261,4,1,0,60,0,0
225487,-170.212765957447,4,1,0,60,0,0
225543,-166.666666666667,4,1,0,60,0,0
232789,-153.846153846154,4,1,0,80,0,0
236411,-133.333333333333,4,1,0,100,0,0
238223,-125,4,1,0,100,0,0
239581,-80,4,1,0,100,0,0
240034,-100,4,1,0,100,0,1
256336,-100,4,1,0,100,0,0
256562,-133.333333333333,4,1,0,60,0,0
262223,-166.666666666667,4,1,0,40,0,0
269015,-142.857142857143,4,1,0,40,0,0
272638,-125,4,1,0,40,0,0
274449,-111.111111111111,4,1,0,60,0,0
275241,-100,4,1,0,80,0,0
276487,-133.333333333333,4,1,0,80,0,0
281694,-100,4,1,0,80,0,0
283053,-100,4,1,0,80,0,0
283506,-80,4,1,0,100,0,0
283619,-100,4,1,0,100,0,0
284411,-80,4,1,0,100,0,0
284524,-100,4,1,0,100,0,0
285090,-100,4,1,0,100,0,0
285317,-80,4,1,0,100,0,0
285430,-100,4,1,0,100,0,0
286223,-100,4,1,0,100,0,1
286902,-100,4,1,0,100,0,0
287015,-100,4,1,0,100,0,0
287128,-80,4,1,0,100,0,0
287241,-100,4,1,0,100,0,0
288034,-80,4,1,0,100,0,0
288147,-100,4,1,0,100,0,0
288940,-80,4,1,0,100,0,0
289053,-100,4,1,0,100,0,0
289845,-80,4,1,0,100,0,0
289958,-100,4,1,0,100,0,0
290751,-100,4,1,0,100,0,1
292336,-100,4,1,0,100,0,0
292562,-100,4,1,0,100,0,1
294147,-100,4,1,0,100,0,0
294373,-100,4,1,0,100,0,1
296185,-100,4,1,0,100,0,0
296411,-133.333333333333,4,1,0,80,0,0
297996,-66.6666666666667,4,1,0,80,0,0
298902,-100,4,1,0,80,0,0
299807,-100,4,1,0,100,0,0
301619,-100,4,1,0,100,0,1
314298,-66.6666666666667,4,1,0,100,0,1
315090,-66.6666666666667,4,1,0,100,0,0
315204,-100,4,1,0,100,0,0
316109,-100,4,1,0,100,0,1
328789,-66.6666666666667,4,1,0,100,0,1
329581,-66.6666666666667,4,1,0,100,0,0
329694,-100,4,1,0,100,0,0
330600,-100,4,1,0,100,0,1
330713,-133.333333333333,4,1,0,100,0,1
334223,-66.6666666666667,4,1,0,100,0,1
334449,-100,4,1,0,100,0,1
336034,-100,4,1,0,100,0,0
336260,-133.333333333333,4,1,0,80,0,0
337845,-66.6666666666667,4,1,0,100,0,1
338411,-100,4,1,0,100,0,1
338751,-66.6666666666667,4,1,0,100,0,1
339317,-100,4,1,0,100,0,1
339656,-66.6666666666667,4,1,0,100,0,1
340449,-50,4,1,0,100,0,1
343279,-100,4,1,0,100,0,0

[HitObjects]
237,214,940,5,4,0:0:0:0:
256,192,1392,12,0,3656,0:0:0:0:
209,154,4562,5,0,0:0:0:0:
259,159,5468,1,0,0:0:0:0:
259,159,6373,1,0,0:0:0:0:
259,159,7279,1,0,0:0:0:0:
259,159,8185,1,4,0:0:0:0:
227,192,8411,1,0,0:0:0:0:
227,192,8638,1,8,0:0:0:0:
227,192,8864,1,0,0:0:0:0:
227,192,8977,1,8,0:0:0:0:
227,192,9090,1,0,0:0:0:0:
227,192,9204,1,8,0:0:0:0:
227,192,9317,1,0,0:0:0:0:
227,192,9543,1,8,0:0:0:0:
227,192,9770,1,0,0:0:0:0:
227,192,9883,1,0,0:0:0:0:
227,192,9996,1,0,0:0:0:0:
227,192,10223,1,0,0:0:0:0:
227,192,10449,1,8,0:0:0:0:
227,192,10675,1,0,0:0:0:0:
227,192,10789,1,8,0:0:0:0:
227,192,10902,1,0,0:0:0:0:
227,192,11015,1,0,0:0:0:0:
227,192,11128,1,8,0:0:0:0:
227,192,11355,1,0,0:0:0:0:
227,192,11581,1,8,0:0:0:0:
227,192,11694,1,8,0:0:0:0:
227,192,11807,1,0,0:0:0:0:
239,182,12034,1,0,0:0:0:0:
239,182,12260,1,8,0:0:0:0:
239,182,12487,1,0,0:0:0:0:
239,182,12600,1,8,0:0:0:0:
239,182,12713,1,0,0:0:0:0:
239,182,12826,1,8,0:0:0:0:
239,182,12940,1,0,0:0:0:0:
233,175,13166,1,8,0:0:0:0:
233,175,13392,1,0,0:0:0:0:
233,175,13506,1,0,0:0:0:0:
233,175,13619,1,8,0:0:0:0:
234,164,14072,1,8,0:0:0:0:
225,155,14411,1,0,0:0:0:0:
212,151,14468,1,0,0:0:0:0:
225,155,14524,1,8,0:0:0:0:
268,172,14600,1,0,0:0:0:0:
268,172,14675,1,0,0:0:0:0:
268,172,14751,1,8,0:0:0:0:
268,172,14826,1,0,0:0:0:0:
268,172,14902,1,0,0:0:0:0:
268,172,14977,1,8,0:0:0:0:
268,172,15053,1,8,0:0:0:0:
268,172,15128,1,0,0:0:0:0:
268,172,15204,1,8,0:0:0:0:
268,172,15279,1,8,0:0:0:0:
268,172,15355,1,8,0:0:0:0:
268,172,15430,1,4,0:0:0:0:
251,192,15656,1,8,0:0:0:0:
251,192,15770,1,0,0:0:0:0:
244,165,15883,1,0,0:0:0:0:
251,192,15996,1,8,0:0:0:0:
244,165,16109,1,8,0:0:0:0:
251,192,16223,1,0,0:0:0:0:
251,192,16449,1,8,0:0:0:0:
251,192,16562,1,0,0:0:0:0:
251,192,16675,1,0,0:0:0:0:
251,192,16789,1,8,0:0:0:0:
215,165,17015,1,8,0:0:0:0:
231,171,17241,1,0,0:0:0:0:
231,171,17468,1,8,0:0:0:0:
314,152,17581,1,0,0:0:0:0:
314,152,17694,1,0,0:0:0:0:
314,152,17807,1,8,0:0:0:0:
314,152,17921,1,0,0:0:0:0:
231,172,18034,1,0,0:0:0:0:
270,164,18260,1,8,0:0:0:0:
270,164,18373,1,0,0:0:0:0:
270,164,18487,1,0,0:0:0:0:
270,164,18600,1,8,0:0:0:0:
270,164,18826,1,8,0:0:0:0:
270,164,19053,1,0,0:0:0:0:
262,194,19166,1,0,0:0:0:0:
262,194,19279,1,8,0:0:0:0:
262,194,19392,1,0,0:0:0:0:
262,194,19506,1,0,0:0:0:0:
262,194,19619,1,8,0:0:0:0:
247,191,19732,1,0,0:0:0:0:
230,188,19845,1,0,0:0:0:0:
299,183,20072,1,8,0:0:0:0:
299,183,20185,1,0,0:0:0:0:
299,183,20298,1,0,0:0:0:0:
299,183,20411,1,8,0:0:0:0:
294,180,20524,1,0,0:0:0:0:
280,174,20638,1,8,0:0:0:0:
258,176,20864,1,8,0:0:0:0:
258,176,20977,1,0,0:0:0:0:
258,176,21090,1,0,0:0:0:0:
258,176,21204,1,8,0:0:0:0:
258,176,21317,1,0,0:0:0:0:
257,175,21430,1,0,0:0:0:0:
257,175,21543,1,0,0:0:0:0:
251,170,21656,1,8,0:0:0:0:
246,167,21770,1,0,0:0:0:0:
263,189,21826,1,0,0:0:0:0:
263,189,21883,1,0,0:0:0:0:
263,189,21940,1,0,0:0:0:0:
263,189,21996,1,8,0:0:0:0:
263,189,22053,1,8,0:0:0:0:
263,189,22109,1,0,0:0:0:0:
263,189,22166,1,0,0:0:0:0:
263,189,22223,1,8,0:0:0:0:
263,189,22279,1,0,0:0:0:0:
263,189,22336,1,8,0:0:0:0:
263,189,22392,1,8,0:0:0:0:
263,189,22449,1,0,0:0:0:0:
263,189,22506,1,8,0:0:0:0:
263,189,22562,1,8,0:0:0:0:
263,189,22619,1,8,0:0:0:0:
253,179,22675,1,0,0:0:0:0:
257,189,22902,1,8,0:0:0:0:
248,189,23015,1,0,0:0:0:0:
248,189,23241,1,0,0:0:0:0:
248,189,23355,1,8,0:0:0:0:
248,189,23581,1,0,0:0:0:0:
248,189,23694,1,0,0:0:0:0:
248,189,23807,1,8,0:0:0:0:
248,189,24034,1,0,0:0:0:0:
248,189,24147,1,0,0:0:0:0:
248,189,24260,1,8,0:0:0:0:
248,189,24487,1,0,0:0:0:0:
248,189,24713,1,8,0:0:0:0:
248,189,24826,1,0,0:0:0:0:
248,189,25053,1,0,0:0:0:0:
248,189,25166,1,8,0:0:0:0:
248,189,25392,1,0,0:0:0:0:
248,189,25506,1,0,0:0:0:0:
248,189,25619,1,8,0:0:0:0:
248,189,25845,1,8,0:0:0:0:
248,189,25958,1,0,0:0:0:0:
248,189,26072,1,8,0:0:0:0:
248,189,26298,1,0,0:0:0:0:
261,186,26524,1,8,0:0:0:0:
261,186,26638,1,0,0:0:0:0:
261,186,26864,1,0,0:0:0:0:
261,186,26977,1,8,0:0:0:0:
261,186,27204,1,0,0:0:0:0:
261,186,27317,1,0,0:0:0:0:
261,186,27430,1,8,0:0:0:0:
261,186,27656,1,0,0:0:0:0:
261,186,27770,1,0,0:0:0:0:
261,186,27883,1,8,0:0:0:0:
261,186,27996,1,8,0:0:0:0:
261,186,28109,1,4,0:0:0:0:
276,156,28449,1,4,0:0:0:0:
276,156,28902,1,12,0:0:0:0:
256,192,29015,12,0,29355,0:0:0:0:
264,171,29468,5,0,0:0:0:0:
261,172,29581,1,0,0:0:0:0:
261,172,29694,1,8,0:0:0:0:
261,172,29807,1,8,0:0:0:0:
261,172,29921,1,4,0:0:0:0:
293,152,30147,1,8,0:0:0:0:
293,152,30260,1,0,0:0:0:0:
254,139,30373,1,0,0:0:0:0:
258,191,30487,1,8,0:0:0:0:
285,198,30600,1,0,0:0:0:0:
285,198,30638,1,0,0:0:0:0:
285,198,30675,1,0,0:0:0:0:
285,198,30713,1,8,0:0:0:0:
206,130,30826,1,4,0:0:0:0:
260,181,31053,1,8,0:0:0:0:
260,181,31166,1,0,0:0:0:0:
260,181,31279,1,0,0:0:0:0:
276,147,31392,1,8,0:0:0:0:
196,166,31506,1,8,0:0:0:0:
230,165,31543,1,8,0:0:0:0:
230,165,31581,1,8,0:0:0:0:
230,165,31619,1,8,0:0:0:0:
306,140,31732,1,4,0:0:0:0:
260,181,31958,1,8,0:0:0:0:
260,181,32072,1,0,0:0:0:0:
260,181,32185,1,0,0:0:0:0:
260,181,32298,1,8,0:0:0:0:
261,183,32411,1,8,0:0:0:0:
261,183,32468,1,8,0:0:0:0:
261,183,32524,1,8,0:0:0:0:
260,178,32581,1,8,0:0:0:0:
260,178,32638,1,4,0:0:0:0:
222,154,32864,1,8,0:0:0:0:
214,154,32977,1,0,0:0:0:0:
214,154,33034,1,0,0:0:0:0:
142,140,33090,1,0,0:0:0:0:
223,141,33147,1,0,0:0:0:0:
256,144,33204,1,8,0:0:0:0:
256,144,33317,1,4,0:0:0:0:
262,147,33430,1,4,0:0:0:0:
266,130,33543,1,4,0:0:0:0:
251,181,33770,1,8,0:0:0:0:
251,181,33883,1,0,0:0:0:0:
251,181,33996,1,0,0:0:0:0:
251,181,34109,1,8,0:0:0:0:
275,138,34223,1,12,0:0:0:0:
247,186,34449,1,4,0:0:0:0:
251,181,34675,1,8,0:0:0:0:
251,181,34789,1,0,0:0:0:0:
254,177,34902,1,0,0:0:0:0:
254,177,35015,1,8,0:0:0:0:
254,177,35128,1,0,0:0:0:0:
258,167,35185,1,8,0:0:0:0:
258,167,35241,1,8,0:0:0:0:
258,167,35298,1,8,0:0:0:0:
258,167,35355,1,4,0:0:0:0:
305,169,35581,1,8,0:0:0:0:
305,169,35694,1,0,0:0:0:0:
305,169,35807,1,0,0:0:0:0:
305,169,35921,1,8,0:0:0:0:
305,169,36034,1,8,0:0:0:0:
286,152,36109,1,8,0:0:0:0:
286,152,36185,1,8,0:0:0:0:
271,140,36260,1,4,0:0:0:0:
263,177,36373,1,0,0:0:0:0:
265,140,36487,1,8,0:0:0:0:
267,150,36600,1,0,0:0:0:0:
267,150,36713,1,8,0:0:0:0:
267,150,36789,1,0,0:0:0:0:
268,150,36864,1,0,0:0:0:0:
268,150,36940,1,8,0:0:0:0:
250,165,37015,1,8,0:0:0:0:
250,165,37090,1,8,0:0:0:0:
250,165,37166,1,4,0:0:0:0:
268,207,37279,1,0,0:0:0:0:
268,207,37336,1,0,0:0:0:0:
268,207,37392,1,8,0:0:0:0:
268,207,37506,1,0,0:0:0:0:
268,207,37619,1,8,0:0:0:0:
267,128,37675,1,8,0:0:0:0:
268,207,37732,1,0,0:0:0:0:
268,207,37845,1,8,0:0:0:0:
268,207,37902,1,8,0:0:0:0:
268,207,37958,1,0,0:0:0:0:
268,207,38015,1,8,0:0:0:0:
251,212,38072,1,0,0:0:0:0:
339,202,38185,1,8,0:0:0:0:
326,185,38298,1,0,0:0:0:0:
326,185,38355,1,8,0:0:0:0:
326,185,38411,1,8,0:0:0:0:
278,167,38524,1,0,0:0:0:0:
278,167,38581,1,0,0:0:0:0:
278,167,38638,1,8,0:0:0:0:
275,174,38694,1,0,0:0:0:0:
275,174,38751,1,8,0:0:0:0:
275,174,38807,1,8,0:0:0:0:
275,174,38864,1,8,0:0:0:0:
275,174,38921,1,0,0:0:0:0:
275,173,38977,1,8,0:0:0:0:
157,150,39090,1,0,0:0:0:0:
270,146,39204,1,8,0:0:0:0:
270,146,39260,1,8,0:0:0:0:
270,146,39317,1,0,0:0:0:0:
270,146,39430,1,0,0:0:0:0:
270,146,39543,1,8,0:0:0:0:
274,142,39656,1,0,0:0:0:0:
274,142,39713,1,8,0:0:0:0:
274,142,39770,1,0,0:0:0:0:
274,142,39826,1,8,0:0:0:0:
274,142,39883,1,8,0:0:0:0:
241,151,39996,1,0,0:0:0:0:
253,152,40109,1,8,0:0:0:0:
254,152,40166,1,0,0:0:0:0:
254,152,40223,1,8,0:0:0:0:
254,152,40336,1,8,0:0:0:0:
256,173,40392,1,8,0:0:0:0:
256,173,40449,1,0,0:0:0:0:
256,173,40506,1,0,0:0:0:0:
256,173,40562,1,8,0:0:0:0:
256,173,40619,1,0,0:0:0:0:
256,173,40675,1,0,0:0:0:0:
256,174,40732,1,0,0:0:0:0:
256,174,40789,1,8,0:0:0:0:
241,151,40902,1,0,0:0:0:0:
241,151,40958,1,0,0:0:0:0:
241,151,41015,1,0,0:0:0:0:
242,152,41072,1,0,0:0:0:0:
242,152,41128,1,8,0:0:0:0:
242,152,41241,1,0,0:0:0:0:
242,152,41298,1,8,0:0:0:0:
242,152,41355,1,0,0:0:0:0:
242,152,41411,1,0,0:0:0:0:
242,152,41468,1,8,0:0:0:0:
242,152,41581,1,8,0:0:0:0:
242,152,41638,1,8,0:0:0:0:
242,152,41694,1,0,0:0:0:0:
241,151,41751,1,0,0:0:0:0:
241,151,41807,1,8,0:0:0:0:
241,151,41921,1,0,0:0:0:0:
241,151,41977,1,0,0:0:0:0:
241,151,42034,1,0,0:0:0:0:
242,152,42090,1,0,0:0:0:0:
242,152,42147,1,8,0:0:0:0:
242,152,42204,1,8,0:0:0:0:
242,152,42260,1,0,0:0:0:0:
242,152,42317,1,8,0:0:0:0:
242,152,42373,1,0,0:0:0:0:
242,152,42430,1,8,0:0:0:0:
242,152,42487,1,8,0:0:0:0:
242,152,42543,1,8,0:0:0:0:
242,152,42600,1,0,0:0:0:0:
265,163,42826,1,8,0:0:0:0:
265,163,42940,1,0,0:0:0:0:
265,163,43053,1,0,0:0:0:0:
265,163,43166,1,8,0:0:0:0:
265,163,43279,1,0,0:0:0:0:
265,163,43392,1,0,0:0:0:0:
265,163,43619,1,8,0:0:0:0:
265,163,43732,1,0,0:0:0:0:
265,163,43845,1,0,0:0:0:0:
265,163,43958,1,8,0:0:0:0:
248,153,44072,1,0,0:0:0:0:
248,153,44128,1,0,0:0:0:0:
248,153,44185,1,8,0:0:0:0:
251,151,44411,1,4,0:0:0:0:
265,163,44524,1,0,0:0:0:0:
265,163,44581,1,0,0:0:0:0:
265,163,44638,1,8,0:0:0:0:
265,163,44694,1,0,0:0:0:0:
265,163,44751,1,8,0:0:0:0:
265,163,44864,1,0,0:0:0:0:
274,144,44977,1,8,0:0:0:0:
277,151,45034,1,8,0:0:0:0:
278,151,45090,1,0,0:0:0:0:
278,151,45147,1,8,0:0:0:0:
278,151,45204,1,8,0:0:0:0:
278,151,45260,1,8,0:0:0:0:
278,151,45317,1,0,0:0:0:0:
255,176,45430,1,8,0:0:0:0:
255,176,45487,1,0,0:0:0:0:
255,176,45543,1,8,0:0:0:0:
255,176,45656,1,0,0:0:0:0:
255,176,45770,1,8,0:0:0:0:
255,176,45826,1,0,0:0:0:0:
255,176,45883,1,0,0:0:0:0:
255,176,45940,1,8,0:0:0:0:
255,176,45996,1,0,0:0:0:0:
255,176,46053,1,8,0:0:0:0:
255,176,46109,1,8,0:0:0:0:
255,176,46223,1,0,0:0:0:0:
278,151,46336,1,0,0:0:0:0:
278,151,46392,1,8,0:0:0:0:
278,151,46449,1,8,0:0:0:0:
268,120,46506,1,0,0:0:0:0:
268,120,46562,1,8,0:0:0:0:
290,183,46675,1,0,0:0:0:0:
301,186,46789,1,8,0:0:0:0:
301,186,46845,1,0,0:0:0:0:
301,186,46902,1,0,0:0:0:0:
301,186,47015,1,8,0:0:0:0:
301,186,47128,1,0,0:0:0:0:
259,130,47185,1,0,0:0:0:0:
268,161,47241,1,8,0:0:0:0:
227,167,47298,1,0,0:0:0:0:
227,167,47355,1,0,0:0:0:0:
282,182,47468,1,8,0:0:0:0:
282,182,47581,1,0,0:0:0:0:
282,182,47638,1,8,0:0:0:0:
282,182,47694,1,0,0:0:0:0:
282,182,47751,1,0,0:0:0:0:
282,182,47807,1,8,0:0:0:0:
281,182,47864,1,8,0:0:0:0:
278,181,47921,1,8,0:0:0:0:
285,143,48034,1,0,0:0:0:0:
290,219,48147,1,8,0:0:0:0:
290,219,48260,1,0,0:0:0:0:
290,219,48317,1,8,0:0:0:0:
290,219,48373,1,8,0:0:0:0:
297,178,48487,1,0,0:0:0:0:
308,178,48600,1,8,0:0:0:0:
308,178,48656,1,8,0:0:0:0:
308,178,48713,1,0,0:0:0:0:
308,178,48770,1,8,0:0:0:0:
308,178,48826,1,0,0:0:0:0:
246,161,48940,1,0,0:0:0:0:
269,162,49053,1,8,0:0:0:0:
269,162,49109,1,8,0:0:0:0:
269,162,49166,1,0,0:0:0:0:
269,162,49223,1,8,0:0:0:0:
269,162,49279,1,0,0:0:0:0:
269,162,49336,1,8,0:0:0:0:
269,162,49392,1,8,0:0:0:0:
268,205,49506,1,0,0:0:0:0:
268,205,49619,1,8,0:0:0:0:
268,205,49675,1,8,0:0:0:0:
268,205,49732,1,0,0:0:0:0:
268,205,49789,1,0,0:0:0:0:
262,205,49845,1,8,0:0:0:0:
203,213,49958,1,0,0:0:0:0:
203,213,50015,1,0,0:0:0:0:
203,213,50072,1,0,0:0:0:0:
203,213,50128,1,0,0:0:0:0:
203,213,50185,1,8,0:0:0:0:
267,179,50298,1,8,0:0:0:0:
295,157,50411,1,0,0:0:0:0:
270,172,50468,1,8,0:0:0:0:
258,167,50524,1,0,0:0:0:0:
263,170,50581,1,0,0:0:0:0:
268,173,50638,1,8,0:0:0:0:
268,174,50694,1,8,0:0:0:0:
268,174,50751,1,0,0:0:0:0:
256,177,50864,1,0,0:0:0:0:
245,172,50977,1,8,0:0:0:0:
246,172,51034,1,8,0:0:0:0:
246,172,51090,1,0,0:0:0:0:
246,172,51147,1,0,0:0:0:0:
246,172,51204,1,8,0:0:0:0:
314,201,51260,1,0,0:0:0:0:
314,201,51317,1,8,0:0:0:0:
314,201,51373,1,0,0:0:0:0:
317,207,51430,1,8,0:0:0:0:
280,152,51543,1,8,0:0:0:0:
281,152,51656,1,4,0:0:0:0:
261,144,51770,1,0,0:0:0:0:
289,155,51826,1,0,0:0:0:0:
275,157,51883,1,8,0:0:0:0:
289,155,51940,1,0,0:0:0:0:
289,155,51996,1,8,0:0:0:0:
289,155,52109,1,0,0:0:0:0:
227,176,52223,1,8,0:0:0:0:
249,180,52279,1,8,0:0:0:0:
249,180,52336,1,8,0:0:0:0:
334,160,52449,1,0,0:0:0:0:
226,132,52562,1,8,0:0:0:0:
230,136,52619,1,0,0:0:0:0:
234,140,52675,1,8,0:0:0:0:
235,141,52732,1,8,0:0:0:0:
243,146,52789,1,0,0:0:0:0:
245,149,52845,1,8,0:0:0:0:
245,149,52902,1,0,0:0:0:0:
172,129,53015,1,8,0:0:0:0:
317,173,53128,1,0,0:0:0:0:
241,152,53185,1,0,0:0:0:0:
296,171,53241,1,8,0:0:0:0:
296,171,53298,1,8,0:0:0:0:
296,171,53355,1,8,0:0:0:0:
296,171,53468,1,0,0:0:0:0:
222,199,53581,1,8,0:0:0:0:
260,191,53694,1,0,0:0:0:0:
260,191,53751,1,0,0:0:0:0:
260,191,53807,1,8,0:0:0:0:
260,191,53921,1,0,0:0:0:0:
260,191,54034,1,0,0:0:0:0:
260,191,54090,1,8,0:0:0:0:
260,191,54147,1,0,0:0:0:0:
260,191,54204,1,8,0:0:0:0:
260,191,54260,1,8,0:0:0:0:
260,191,54373,1,0,0:0:0:0:
231,166,54487,1,8,0:0:0:0:
231,166,54543,1,0,0:0:0:0:
231,166,54600,1,0,0:0:0:0:
175,142,54713,1,8,0:0:0:0:
289,149,54826,1,0,0:0:0:0:
257,136,54883,1,8,0:0:0:0:
292,156,54940,1,0,0:0:0:0:
293,161,54996,1,8,0:0:0:0:
293,163,55053,1,8,0:0:0:0:
293,164,55109,1,0,0:0:0:0:
293,164,55166,1,8,0:0:0:0:
293,164,55279,1,0,0:0:0:0:
333,197,55392,1,0,0:0:0:0:
333,197,55449,1,0,0:0:0:0:
333,197,55506,1,8,0:0:0:0:
285,140,55619,1,8,0:0:0:0:
288,140,55732,1,0,0:0:0:0:
288,140,55789,1,8,0:0:0:0:
288,140,55845,1,0,0:0:0:0:
288,140,55902,1,8,0:0:0:0:
288,140,55958,1,0,0:0:0:0:
182,137,56072,1,8,0:0:0:0:
192,137,56128,1,8,0:0:0:0:
192,137,56185,1,0,0:0:0:0:
221,137,56298,1,8,0:0:0:0:
221,137,56411,1,0,0:0:0:0:
251,111,56468,1,8,0:0:0:0:
295,196,56524,1,0,0:0:0:0:
295,196,56638,1,8,0:0:0:0:
295,196,56694,1,8,0:0:0:0:
295,196,56751,1,0,0:0:0:0:
295,196,56807,1,0,0:0:0:0:
295,196,56864,1,8,0:0:0:0:
295,196,56921,1,0,0:0:0:0:
295,196,56977,1,8,0:0:0:0:
291,194,57034,1,8,0:0:0:0:
291,194,57090,1,4,0:0:0:0:
270,162,57430,1,4,0:0:0:0:
270,162,57883,1,12,0:0:0:0:
256,192,57996,12,0,58336,0:0:0:0:
282,140,58449,5,0,0:0:0:0:
273,178,58562,5,0,0:0:0:0:
273,178,58675,1,8,0:0:0:0:
287,184,58789,1,8,0:0:0:0:
332,171,58902,1,4,0:0:0:0:
231,145,59355,1,0,0:0:0:0:
260,160,59468,1,8,0:0:0:0:
261,161,59581,1,8,0:0:0:0:
260,160,59694,1,8,0:0:0:0:
260,160,59807,1,8,0:0:0:0:
260,160,59864,1,8,0:0:0:0:
260,160,59921,1,8,0:0:0:0:
260,160,59977,1,8,0:0:0:0:
260,160,60034,1,0,0:0:0:0:
224,163,60147,1,8,0:0:0:0:
224,163,60260,1,0,0:0:0:0:
234,192,60317,1,8,0:0:0:0:
234,192,60373,1,8,0:0:0:0:
234,192,60430,1,8,0:0:0:0:
341,183,60487,1,0,0:0:0:0:
341,183,60600,1,0,0:0:0:0:
317,155,60713,1,8,0:0:0:0:
317,155,60770,1,8,0:0:0:0:
317,155,60826,1,0,0:0:0:0:
317,155,60883,1,0,0:0:0:0:
334,139,60940,1,8,0:0:0:0:
240,147,61053,1,8,0:0:0:0:
232,173,61166,1,0,0:0:0:0:
233,173,61223,1,0,0:0:0:0:
233,173,61279,1,8,0:0:0:0:
264,155,61392,1,0,0:0:0:0:
264,155,61449,1,0,0:0:0:0:
264,155,61506,1,0,0:0:0:0:
264,155,61562,1,0,0:0:0:0:
264,155,61619,1,8,0:0:0:0:
302,187,61675,1,8,0:0:0:0:
243,147,61732,1,0,0:0:0:0:
227,137,61845,1,0,0:0:0:0:
234,148,61902,1,0,0:0:0:0:
234,148,61958,1,0,0:0:0:0:
234,148,62015,1,0,0:0:0:0:
234,148,62072,1,8,0:0:0:0:
150,136,62128,1,8,0:0:0:0:
234,148,62185,1,0,0:0:0:0:
283,134,62298,1,0,0:0:0:0:
283,134,62355,1,0,0:0:0:0:
283,134,62411,1,8,0:0:0:0:
274,143,62524,1,0,0:0:0:0:
274,143,62581,1,0,0:0:0:0:
274,143,62638,1,0,0:0:0:0:
274,143,62694,1,0,0:0:0:0:
272,143,62751,1,8,0:0:0:0:
261,142,62864,1,8,0:0:0:0:
261,208,62977,1,0,0:0:0:0:
261,220,63090,1,8,0:0:0:0:
261,220,63204,1,8,0:0:0:0:
261,220,63317,1,8,0:0:0:0:
261,220,63430,1,8,0:0:0:0:
261,220,63487,1,8,0:0:0:0:
261,220,63543,1,8,0:0:0:0:
261,220,63600,1,8,0:0:0:0:
261,220,63656,1,0,0:0:0:0:
139,167,63770,1,8,0:0:0:0:
181,168,63883,1,0,0:0:0:0:
220,172,63940,1,0,0:0:0:0:
220,172,63996,1,0,0:0:0:0:
220,172,64053,1,0,0:0:0:0:
220,172,64109,1,8,0:0:0:0:
256,172,64166,1,8,0:0:0:0:
256,172,64223,1,8,0:0:0:0:
256,172,64279,1,8,0:0:0:0:
248,168,64336,1,0,0:0:0:0:
269,189,64562,1,8,0:0:0:0:
269,189,64675,1,0,0:0:0:0:
269,189,64789,1,0,0:0:0:0:
269,189,64902,1,8,0:0:0:0:
269,189,65015,1,0,0:0:0:0:
250,189,65128,1,0,0:0:0:0:
250,189,65355,1,8,0:0:0:0:
250,189,65468,1,0,0:0:0:0:
249,189,65581,1,0,0:0:0:0:
249,189,65694,1,8,0:0:0:0:
249,189,65807,1,0,0:0:0:0:
320,148,65864,1,0,0:0:0:0:
249,189,65921,1,8,0:0:0:0:
273,200,66147,1,4,0:0:0:0:
274,161,66373,1,0,0:0:0:0:
280,162,66487,1,0,0:0:0:0:
280,162,66600,1,8,0:0:0:0:
280,162,66713,1,0,0:0:0:0:
282,175,66826,1,0,0:0:0:0:
282,175,66940,1,8,0:0:0:0:
290,176,67166,1,0,0:0:0:0:
290,176,67392,1,0,0:0:0:0:
290,176,67619,1,8,0:0:0:0:
290,177,67732,1,0,0:0:0:0:
290,177,67845,1,0,0:0:0:0:
290,176,67958,1,8,0:0:0:0:
271,177,68185,1,8,0:0:0:0:
271,177,68298,1,0,0:0:0:0:
271,177,68524,1,0,0:0:0:0:
271,177,68751,1,8,0:0:0:0:
225,157,68864,1,0,0:0:0:0:
236,158,69090,1,8,0:0:0:0:
236,158,69204,1,8,0:0:0:0:
236,158,69317,1,0,0:0:0:0:
288,158,69430,1,0,0:0:0:0:
252,179,69543,1,0,0:0:0:0:
252,179,69770,1,0,0:0:0:0:
261,182,69996,1,0,0:0:0:0:
261,182,70109,1,0,0:0:0:0:
261,182,70223,1,8,0:0:0:0:
261,182,70336,1,0,0:0:0:0:
261,182,70449,1,0,0:0:0:0:
261,182,70562,1,8,0:0:0:0:
261,182,70789,1,0,0:0:0:0:
261,182,71015,1,0,0:0:0:0:
261,182,71241,1,8,0:0:0:0:
261,182,71355,1,8,0:0:0:0:
261,182,71468,1,0,0:0:0:0:
261,182,71581,1,8,0:0:0:0:
252,188,71807,1,0,0:0:0:0:
252,188,71921,1,8,0:0:0:0:
252,188,72147,1,0,0:0:0:0:
252,188,72373,1,8,0:0:0:0:
234,153,72487,1,8,0:0:0:0:
234,153,72600,1,8,0:0:0:0:
234,153,72713,1,0,0:0:0:0:
234,153,72826,1,8,0:0:0:0:
234,153,72940,1,0,0:0:0:0:
234,153,73053,1,0,0:0:0:0:
234,153,73166,1,8,0:0:0:0:
234,146,73392,1,4,0:0:0:0:
264,204,73506,1,4,0:0:0:0:
264,204,73619,1,8,0:0:0:0:
269,177,73732,1,0,0:0:0:0:
290,189,73845,1,8,0:0:0:0:
290,189,73902,1,8,0:0:0:0:
290,189,73958,1,0,0:0:0:0:
316,203,74072,1,0,0:0:0:0:
316,203,74185,1,8,0:0:0:0:
232,147,74298,1,0,0:0:0:0:
232,147,74355,1,0,0:0:0:0:
283,168,74411,1,8,0:0:0:0:
259,141,74524,1,0,0:0:0:0:
250,135,74638,1,8,0:0:0:0:
265,138,74751,1,0,0:0:0:0:
251,143,74864,1,8,0:0:0:0:
196,157,74921,1,8,0:0:0:0:
276,179,74977,1,8,0:0:0:0:
276,179,75034,1,8,0:0:0:0:
276,179,75090,1,0,0:0:0:0:
276,179,75204,1,8,0:0:0:0:
305,159,75430,1,0,0:0:0:0:
305,159,75543,1,8,0:0:0:0:
305,159,75600,1,8,0:0:0:0:
305,159,75656,1,0,0:0:0:0:
305,159,75770,1,8,0:0:0:0:
231,156,75883,1,0,0:0:0:0:
244,155,75996,1,8,0:0:0:0:
245,155,76053,1,8,0:0:0:0:
245,155,76109,1,8,0:0:0:0:
252,113,76223,1,0,0:0:0:0:
279,168,76336,1,8,0:0:0:0:
221,106,76392,1,0,0:0:0:0:
279,168,76449,1,8,0:0:0:0:
184,176,76562,1,0,0:0:0:0:
265,140,76675,1,0,0:0:0:0:
265,140,76732,1,0,0:0:0:0:
265,140,76789,1,8,0:0:0:0:
265,140,76902,1,8,0:0:0:0:
265,140,76958,1,8,0:0:0:0:
265,140,77015,1,0,0:0:0:0:
244,151,77241,1,0,0:0:0:0:
246,152,77355,1,0,0:0:0:0:
246,152,77411,1,0,0:0:0:0:
276,151,77468,1,8,0:0:0:0:
186,154,77581,1,0,0:0:0:0:
280,157,77694,1,8,0:0:0:0:
280,157,77751,1,0,0:0:0:0:
280,157,77807,1,8,0:0:0:0:
287,105,77921,1,0,0:0:0:0:
150,146,78034,1,8,0:0:0:0:
223,157,78147,1,0,0:0:0:0:
184,132,78204,1,0,0:0:0:0:
223,157,78260,1,8,0:0:0:0:
256,157,78373,1,0,0:0:0:0:
286,197,78487,1,8,0:0:0:0:
286,197,78543,1,8,0:0:0:0:
286,197,78600,1,8,0:0:0:0:
286,197,78656,1,8,0:0:0:0:
286,197,78713,1,0,0:0:0:0:
286,197,78826,1,8,0:0:0:0:
318,143,79053,1,0,0:0:0:0:
318,143,79166,1,12,0:0:0:0:
318,143,79392,1,4,0:0:0:0:
318,143,79619,1,12,0:0:0:0:
291,167,79845,1,0,0:0:0:0:
291,167,79958,1,0,0:0:0:0:
279,171,80072,1,0,0:0:0:0:
203,183,80185,1,8,0:0:0:0:
289,151,80298,1,0,0:0:0:0:
289,151,80355,1,0,0:0:0:0:
289,151,80411,1,8,0:0:0:0:
289,151,80524,1,8,0:0:0:0:
205,198,80638,1,4,0:0:0:0:
299,140,80977,1,8,0:0:0:0:
299,140,81090,1,8,0:0:0:0:
299,140,81204,1,0,0:0:0:0:
299,140,81317,1,0,0:0:0:0:
299,140,81430,1,8,0:0:0:0:
299,140,81543,1,8,0:0:0:0:
299,140,81600,1,8,0:0:0:0:
299,140,81656,1,0,0:0:0:0:
154,190,81770,1,8,0:0:0:0:
274,168,81883,1,0,0:0:0:0:
274,168,81940,1,0,0:0:0:0:
274,168,81996,1,8,0:0:0:0:
303,146,82109,1,0,0:0:0:0:
303,146,82223,1,8,0:0:0:0:
303,146,82336,1,8,0:0:0:0:
303,146,82449,1,0,0:0:0:0:
253,142,82789,1,8,0:0:0:0:
253,142,82902,1,8,0:0:0:0:
331,159,83015,1,0,0:0:0:0:
331,159,83128,1,0,0:0:0:0:
331,159,83241,1,8,0:0:0:0:
331,159,83355,1,0,0:0:0:0:
212,139,83411,1,0,0:0:0:0:
199,135,83468,1,8,0:0:0:0:
212,139,83581,1,0,0:0:0:0:
314,188,83694,1,8,0:0:0:0:
294,157,83807,1,8,0:0:0:0:
294,157,83864,1,8,0:0:0:0:
294,157,83921,1,0,0:0:0:0:
294,157,83977,1,0,0:0:0:0:
294,157,84034,1,8,0:0:0:0:
303,182,84147,1,8,0:0:0:0:
303,182,84260,1,0,0:0:0:0:
299,140,84600,1,8,0:0:0:0:
299,140,84713,1,8,0:0:0:0:
299,140,84826,1,0,0:0:0:0:
299,140,84940,1,0,0:0:0:0:
299,140,85053,1,8,0:0:0:0:
299,140,85166,1,8,0:0:0:0:
299,140,85223,1,8,0:0:0:0:
299,140,85279,1,0,0:0:0:0:
154,190,85392,1,8,0:0:0:0:
274,168,85506,1,0,0:0:0:0:
274,168,85562,1,0,0:0:0:0:
274,168,85619,1,8,0:0:0:0:
303,146,85732,1,0,0:0:0:0:
303,146,85845,1,8,0:0:0:0:
303,146,85958,1,0,0:0:0:0:
303,146,86072,1,8,0:0:0:0:
156,144,86298,1,0,0:0:0:0:
236,158,86411,1,8,0:0:0:0:
236,158,86468,1,8,0:0:0:0:
236,158,86524,1,0,0:0:0:0:
286,154,86638,1,8,0:0:0:0:
236,158,86751,1,0,0:0:0:0:
236,158,86864,1,8,0:0:0:0:
236,158,86921,1,0,0:0:0:0:
198,142,86977,1,8,0:0:0:0:
265,197,87090,1,0,0:0:0:0:
239,128,87204,1,0,0:0:0:0:
247,132,87260,1,8,0:0:0:0:
250,132,87317,1,0,0:0:0:0:
294,134,87430,1,8,0:0:0:0:
294,134,87487,1,8,0:0:0:0:
294,134,87543,1,0,0:0:0:0:
294,134,87600,1,0,0:0:0:0:
294,134,87656,1,8,0:0:0:0:
294,134,87770,1,8,0:0:0:0:
294,134,87883,1,4,0:0:0:0:
261,163,88223,1,8,0:0:0:0:
261,163,88336,1,8,0:0:0:0:
261,163,88449,1,0,0:0:0:0:
261,163,88562,1,0,0:0:0:0:
261,163,88675,1,8,0:0:0:0:
261,163,88789,1,4,0:0:0:0:
261,163,89128,1,4,0:0:0:0:
229,151,89694,1,4,0:0:0:0:
243,135,90034,1,8,0:0:0:0:
250,145,90147,1,8,0:0:0:0:
250,145,90260,1,0,0:0:0:0:
251,145,90373,1,0,0:0:0:0:
251,145,90487,1,8,0:0:0:0:
251,145,90600,1,12,0:0:0:0:
264,125,90940,1,12,0:0:0:0:
286,200,91392,1,8,0:0:0:0:
286,200,91449,1,8,0:0:0:0:
286,200,91506,1,4,0:0:0:0:
258,159,91845,1,8,0:0:0:0:
258,159,91958,1,8,0:0:0:0:
258,159,92072,1,0,0:0:0:0:
258,159,92185,1,0,0:0:0:0:
258,159,92298,1,8,0:0:0:0:
258,159,92411,1,4,0:0:0:0:
249,180,92751,1,4,0:0:0:0:
250,217,93090,1,0,0:0:0:0:
250,217,93317,1,12,0:0:0:0:
269,193,93543,1,0,0:0:0:0:
269,193,93656,1,0,0:0:0:0:
269,193,93770,1,8,0:0:0:0:
269,193,93883,1,0,0:0:0:0:
269,193,93996,1,0,0:0:0:0:
269,193,94109,1,0,0:0:0:0:
216,169,94166,1,0,0:0:0:0:
269,193,94223,1,8,0:0:0:0:
270,141,94336,1,0,0:0:0:0:
270,141,94392,1,0,0:0:0:0:
270,141,94449,1,0,0:0:0:0:
270,141,94562,1,8,0:0:0:0:
270,141,94675,1,0,0:0:0:0:
233,133,94732,1,0,0:0:0:0:
270,141,94789,1,0,0:0:0:0:
270,141,94845,1,0,0:0:0:0:
270,141,94902,1,8,0:0:0:0:
270,141,95015,1,8,0:0:0:0:
283,144,95128,1,4,0:0:0:0:
256,192,95241,12,0,98524,0:0:0:0:
231,126,98751,5,0,0:0:0:0:
243,144,98977,1,8,0:0:0:0:
243,144,99090,1,0,0:0:0:0:
243,144,99204,1,0,0:0:0:0:
243,144,99317,1,8,0:0:0:0:
243,144,99543,1,0,0:0:0:0:
245,145,99770,1,8,0:0:0:0:
243,144,99883,1,0,0:0:0:0:
243,144,99996,1,0,0:0:0:0:
243,144,100109,1,8,0:0:0:0:
243,144,100223,1,0,0:0:0:0:
243,144,100336,1,8,0:0:0:0:
256,147,100562,1,8,0:0:0:0:
256,147,100789,1,0,0:0:0:0:
256,147,100902,1,8,0:0:0:0:
256,147,101015,1,0,0:0:0:0:
222,183,101241,1,0,0:0:0:0:
256,147,101355,1,8,0:0:0:0:
262,190,101468,1,0,0:0:0:0:
262,190,101524,1,8,0:0:0:0:
262,190,101581,1,8,0:0:0:0:
262,190,101638,1,8,0:0:0:0:
262,190,101694,1,0,0:0:0:0:
262,190,101751,1,8,0:0:0:0:
262,190,101807,1,0,0:0:0:0:
262,190,101864,1,0,0:0:0:0:
262,190,101921,1,8,0:0:0:0:
262,190,101977,1,0,0:0:0:0:
262,190,102034,1,8,0:0:0:0:
262,190,102090,1,8,0:0:0:0:
262,190,102147,1,0,0:0:0:0:
262,190,102204,1,8,0:0:0:0:
262,190,102260,1,8,0:0:0:0:
262,190,102317,1,8,0:0:0:0:
262,190,102373,1,0,0:0:0:0:
241,207,102487,1,0,0:0:0:0:
245,205,102600,1,8,0:0:0:0:
256,195,102713,1,0,0:0:0:0:
245,205,102826,1,0,0:0:0:0:
245,205,102940,1,0,0:0:0:0:
256,195,103053,1,8,0:0:0:0:
300,142,103109,1,8,0:0:0:0:
256,195,103166,1,8,0:0:0:0:
293,142,103223,1,8,0:0:0:0:
256,195,103279,1,0,0:0:0:0:
256,195,103392,1,0,0:0:0:0:
256,195,103506,1,8,0:0:0:0:
282,171,103562,1,8,0:0:0:0:
256,195,103619,1,0,0:0:0:0:
256,195,103732,1,8,0:0:0:0:
294,155,103789,1,8,0:0:0:0:
256,195,103845,1,0,0:0:0:0:
294,155,103902,1,0,0:0:0:0:
256,195,103958,1,8,0:0:0:0:
294,167,104015,1,0,0:0:0:0:
256,195,104072,1,8,0:0:0:0:
219,180,104128,1,8,0:0:0:0:
256,195,104185,1,0,0:0:0:0:
256,195,104298,1,0,0:0:0:0:
256,195,104411,1,8,0:0:0:0:
256,195,104524,1,0,0:0:0:0:
235,134,104581,1,0,0:0:0:0:
256,195,104638,1,8,0:0:0:0:
256,195,104751,1,0,0:0:0:0:
256,195,104864,1,8,0:0:0:0:
190,158,104921,1,0,0:0:0:0:
256,195,104977,1,0,0:0:0:0:
196,158,105034,1,0,0:0:0:0:
256,195,105090,1,8,0:0:0:0:
256,195,105204,1,0,0:0:0:0:
157,154,105260,1,8,0:0:0:0:
256,195,105317,1,8,0:0:0:0:
256,195,105430,1,0,0:0:0:0:
256,195,105543,1,8,0:0:0:0:
181,177,105600,1,0,0:0:0:0:
256,195,105656,1,0,0:0:0:0:
243,157,105713,1,8,0:0:0:0:
256,195,105770,1,0,0:0:0:0:
243,157,105826,1,8,0:0:0:0:
256,195,105883,1,0,0:0:0:0:
243,157,105940,1,0,0:0:0:0:
256,195,105996,1,8,0:0:0:0:
168,175,106109,1,0,0:0:0:0:
220,192,106166,1,0,0:0:0:0:
220,192,106223,1,0,0:0:0:0:
237,157,106279,1,0,0:0:0:0:
237,157,106336,1,8,0:0:0:0:
276,172,106449,1,0,0:0:0:0:
276,172,106506,1,8,0:0:0:0:
276,172,106562,1,0,0:0:0:0:
276,172,106619,1,0,0:0:0:0:
276,172,106675,1,8,0:0:0:0:
276,172,106789,1,8,0:0:0:0:
276,172,106845,1,8,0:0:0:0:
276,172,106902,1,0,0:0:0:0:
276,172,106958,1,0,0:0:0:0:
276,172,107015,1,8,0:0:0:0:
280,221,107128,1,0,0:0:0:0:
280,221,107185,1,0,0:0:0:0:
280,221,107241,1,0,0:0:0:0:
280,221,107298,1,0,0:0:0:0:
280,221,107355,1,8,0:0:0:0:
280,221,107411,1,0,0:0:0:0:
280,221,107468,1,8,0:0:0:0:
280,221,107524,1,8,0:0:0:0:
280,221,107581,1,8,0:0:0:0:
301,237,107638,1,0,0:0:0:0:
301,237,107694,1,8,0:0:0:0:
334,241,107751,1,8,0:0:0:0:
334,241,107807,1,0,0:0:0:0:
251,191,108034,1,8,0:0:0:0:
251,191,108147,1,0,0:0:0:0:
251,191,108260,1,0,0:0:0:0:
251,191,108373,1,8,0:0:0:0:
251,191,108487,1,0,0:0:0:0:
251,191,108600,1,0,0:0:0:0:
251,191,108826,1,8,0:0:0:0:
294,154,108940,1,0,0:0:0:0:
251,191,109053,1,0,0:0:0:0:
251,191,109166,1,8,0:0:0:0:
294,154,109279,1,0,0:0:0:0:
294,154,109336,1,0,0:0:0:0:
294,154,109392,1,8,0:0:0:0:
244,157,109619,1,4,0:0:0:0:
244,157,109732,1,8,0:0:0:0:
244,157,109845,1,8,0:0:0:0:
269,155,109902,1,8,0:0:0:0:
269,155,109958,1,0,0:0:0:0:
269,155,110015,1,8,0:0:0:0:
269,155,110072,1,0,0:0:0:0:
132,139,110185,1,8,0:0:0:0:
194,152,110298,1,0,0:0:0:0:
194,152,110355,1,0,0:0:0:0:
198,154,110411,1,8,0:0:0:0:
198,154,110468,1,0,0:0:0:0:
198,154,110524,1,0,0:0:0:0:
303,157,110638,1,8,0:0:0:0:
219,142,110751,1,0,0:0:0:0:
219,142,110807,1,0,0:0:0:0:
303,157,110864,1,8,0:0:0:0:
303,157,110977,1,0,0:0:0:0:
260,159,111090,1,8,0:0:0:0:
260,159,111147,1,8,0:0:0:0:
260,159,111204,1,0,0:0:0:0:
260,159,111260,1,8,0:0:0:0:
260,159,111317,1,0,0:0:0:0:
356,129,111373,1,0,0:0:0:0:
260,159,111430,1,8,0:0:0:0:
114,170,111543,1,8,0:0:0:0:
166,170,111656,1,0,0:0:0:0:
217,126,111713,1,0,0:0:0:0:
180,146,111770,1,8,0:0:0:0:
180,146,111826,1,0,0:0:0:0:
180,146,111883,1,0,0:0:0:0:
180,146,111996,1,8,0:0:0:0:
277,131,112053,1,0,0:0:0:0:
277,131,112109,1,0,0:0:0:0:
273,142,112166,1,0,0:0:0:0:
257,142,112223,1,8,0:0:0:0:
277,131,112279,1,0,0:0:0:0:
277,131,112336,1,8,0:0:0:0:
276,153,112449,1,0,0:0:0:0:
276,153,112562,1,8,0:0:0:0:
276,153,112675,1,0,0:0:0:0:
284,131,112732,1,8,0:0:0:0:
284,131,112789,1,0,0:0:0:0:
284,131,112845,1,8,0:0:0:0:
283,131,112902,1,8,0:0:0:0:
277,115,112958,1,8,0:0:0:0:
139,137,113015,1,0,0:0:0:0:
139,137,113128,1,8,0:0:0:0:
175,147,113185,1,0,0:0:0:0:
277,181,113241,1,0,0:0:0:0:
165,150,113355,1,8,0:0:0:0:
224,180,113468,1,0,0:0:0:0:
224,180,113524,1,0,0:0:0:0:
224,180,113581,1,8,0:0:0:0:
224,180,113638,1,0,0:0:0:0:
224,180,113694,1,8,0:0:0:0:
274,194,113807,1,0,0:0:0:0:
274,194,113921,1,8,0:0:0:0:
274,194,113977,1,0,0:0:0:0:
274,194,114034,1,8,0:0:0:0:
274,194,114147,1,0,0:0:0:0:
274,194,114204,1,0,0:0:0:0:
274,194,114260,1,8,0:0:0:0:
274,194,114317,1,8,0:0:0:0:
274,194,114373,1,8,0:0:0:0:
274,194,114430,1,0,0:0:0:0:
274,194,114487,1,8,0:0:0:0:
274,194,114600,1,0,0:0:0:0:
274,194,114713,1,8,0:0:0:0:
274,194,114770,1,8,0:0:0:0:
274,194,114826,1,8,0:0:0:0:
274,194,114883,1,0,0:0:0:0:
274,194,114940,1,0,0:0:0:0:
274,194,114996,1,0,0:0:0:0:
274,194,115053,1,8,0:0:0:0:
353,173,115166,1,8,0:0:0:0:
302,248,115279,1,0,0:0:0:0:
326,252,115336,1,0,0:0:0:0:
326,252,115392,1,8,0:0:0:0:
292,213,115506,1,0,0:0:0:0:
292,213,115562,1,8,0:0:0:0:
292,213,115619,1,8,0:0:0:0:
292,213,115732,1,0,0:0:0:0:
292,213,115845,1,8,0:0:0:0:
292,213,115902,1,8,0:0:0:0:
292,213,115958,1,0,0:0:0:0:
292,213,116015,1,8,0:0:0:0:
143,153,116072,1,0,0:0:0:0:
143,153,116128,1,0,0:0:0:0:
143,153,116185,1,8,0:0:0:0:
238,157,116241,1,0,0:0:0:0:
238,157,116298,1,8,0:0:0:0:
238,157,116355,1,0,0:0:0:0:
238,157,116411,1,8,0:0:0:0:
286,168,116468,1,0,0:0:0:0:
286,168,116524,1,8,0:0:0:0:
286,168,116581,1,0,0:0:0:0:
286,168,116638,1,8,0:0:0:0:
286,168,116694,1,8,0:0:0:0:
286,168,116751,1,8,0:0:0:0:
286,168,116807,1,8,0:0:0:0:
286,168,116864,1,0,0:0:0:0:
282,158,116977,1,0,0:0:0:0:
281,161,117090,1,12,0:0:0:0:
308,169,117204,1,0,0:0:0:0:
308,169,117260,1,0,0:0:0:0:
307,169,117317,1,8,0:0:0:0:
307,169,117430,1,8,0:0:0:0:
307,169,117487,1,8,0:0:0:0:
307,169,117543,1,0,0:0:0:0:
307,169,117656,1,8,0:0:0:0:
306,168,117770,1,0,0:0:0:0:
195,134,117883,1,8,0:0:0:0:
277,142,117940,1,0,0:0:0:0:
278,142,117996,1,0,0:0:0:0:
281,147,118053,1,0,0:0:0:0:
281,147,118109,1,8,0:0:0:0:
281,147,118223,1,0,0:0:0:0:
174,173,118336,1,8,0:0:0:0:
174,173,118392,1,8,0:0:0:0:
174,173,118449,1,0,0:0:0:0:
174,173,118506,1,8,0:0:0:0:
174,173,118562,1,8,0:0:0:0:
174,173,118619,1,0,0:0:0:0:
174,173,118675,1,8,0:0:0:0:
238,88,118789,1,0,0:0:0:0:
268,153,118902,1,0,0:0:0:0:
268,153,118958,1,0,0:0:0:0:
268,153,119015,1,8,0:0:0:0:
117,171,119072,1,0,0:0:0:0:
117,171,119128,1,0,0:0:0:0:
278,135,119241,1,8,0:0:0:0:
260,200,119355,1,0,0:0:0:0:
267,207,119411,1,0,0:0:0:0:
267,207,119468,1,8,0:0:0:0:
267,207,119524,1,0,0:0:0:0:
267,207,119581,1,8,0:0:0:0:
253,154,119694,1,0,0:0:0:0:
252,154,119807,1,8,0:0:0:0:
266,226,119864,1,0,0:0:0:0:
252,154,119921,1,8,0:0:0:0:
252,154,120034,1,0,0:0:0:0:
252,154,120090,1,0,0:0:0:0:
252,154,120147,1,0,0:0:0:0:
247,147,120204,1,8,0:0:0:0:
243,142,120260,1,0,0:0:0:0:
290,154,120317,1,0,0:0:0:0:
290,154,120373,1,8,0:0:0:0:
290,154,120487,1,0,0:0:0:0:
300,165,120600,1,8,0:0:0:0:
301,165,120656,1,0,0:0:0:0:
301,165,120713,1,0,0:0:0:0:
252,154,120826,1,8,0:0:0:0:
288,140,120940,1,0,0:0:0:0:
288,140,120996,1,0,0:0:0:0:
289,141,121053,1,8,0:0:0:0:
290,142,121109,1,0,0:0:0:0:
290,144,121166,1,8,0:0:0:0:
290,144,121223,1,8,0:0:0:0:
290,144,121279,1,8,0:0:0:0:
290,144,121392,1,0,0:0:0:0:
276,152,121449,1,0,0:0:0:0:
276,152,121506,1,8,0:0:0:0:
274,152,121619,1,0,0:0:0:0:
304,161,121732,1,8,0:0:0:0:
297,161,121789,1,8,0:0:0:0:
304,161,121845,1,0,0:0:0:0:
285,159,121958,1,8,0:0:0:0:
285,159,122015,1,0,0:0:0:0:
285,159,122072,1,0,0:0:0:0:
285,159,122128,1,8,0:0:0:0:
285,159,122185,1,0,0:0:0:0:
282,157,122241,1,0,0:0:0:0:
279,147,122298,1,8,0:0:0:0:
255,170,122638,1,12,0:0:0:0:
255,170,122864,1,12,0:0:0:0:
255,170,123090,1,12,0:0:0:0:
271,134,123317,1,8,0:0:0:0:
271,134,123373,1,8,0:0:0:0:
271,134,123430,1,8,0:0:0:0:
281,129,123543,1,8,0:0:0:0:
281,129,123656,1,0,0:0:0:0:
281,129,123770,1,0,0:0:0:0:
281,129,123883,1,0,0:0:0:0:
281,129,123996,1,0,0:0:0:0:
281,129,124109,1,4,0:0:0:0:
257,194,124223,1,0,0:0:0:0:
268,113,124279,1,0,0:0:0:0:
257,194,124336,1,8,0:0:0:0:
312,157,124449,1,8,0:0:0:0:
312,157,124506,1,0,0:0:0:0:
312,157,124562,1,0,0:0:0:0:
312,157,124619,1,8,0:0:0:0:
312,157,124675,1,0,0:0:0:0:
312,157,124732,1,8,0:0:0:0:
312,157,124789,1,8,0:0:0:0:
105,151,124902,1,0,0:0:0:0:
302,154,125015,1,8,0:0:0:0:
245,161,125072,1,8,0:0:0:0:
245,161,125128,1,8,0:0:0:0:
184,195,125241,1,0,0:0:0:0:
211,203,125355,1,8,0:0:0:0:
211,203,125411,1,8,0:0:0:0:
211,203,125468,1,0,0:0:0:0:
211,203,125524,1,8,0:0:0:0:
211,203,125581,1,0,0:0:0:0:
271,149,125638,1,0,0:0:0:0:
211,203,125694,1,8,0:0:0:0:
211,203,125807,1,0,0:0:0:0:
211,203,125864,1,0,0:0:0:0:
153,143,125921,1,0,0:0:0:0:
258,127,126034,1,0,0:0:0:0:
258,127,126147,1,8,0:0:0:0:
264,126,126260,1,0,0:0:0:0:
257,68,126317,1,0,0:0:0:0:
274,144,126373,1,8,0:0:0:0:
276,146,126430,1,8,0:0:0:0:
276,146,126487,1,0,0:0:0:0:
276,146,126543,1,8,0:0:0:0:
276,146,126600,1,0,0:0:0:0:
276,146,126713,1,0,0:0:0:0:
276,146,126826,1,8,0:0:0:0:
276,146,126883,1,8,0:0:0:0:
276,146,126940,1,0,0:0:0:0:
247,176,127053,1,8,0:0:0:0:
187,95,127166,1,0,0:0:0:0:
278,151,127223,1,8,0:0:0:0:
278,151,127279,1,8,0:0:0:0:
278,151,127336,1,8,0:0:0:0:
208,177,127392,1,0,0:0:0:0:
266,174,127449,1,0,0:0:0:0:
284,163,127506,1,8,0:0:0:0:
284,163,127619,1,8,0:0:0:0:
284,163,127732,1,0,0:0:0:0:
284,181,127845,1,0,0:0:0:0:
242,84,127902,5,0,0:0:0:0:
284,181,127958,1,8,0:0:0:0:
201,97,128072,1,0,0:0:0:0:
223,114,128128,1,0,0:0:0:0:
230,120,128185,1,8,0:0:0:0:
233,125,128241,1,0,0:0:0:0:
235,127,128298,1,0,0:0:0:0:
235,127,128355,1,8,0:0:0:0:
235,127,128411,1,0,0:0:0:0:
243,157,128524,1,8,0:0:0:0:
280,155,128638,1,0,0:0:0:0:
280,155,128694,1,8,0:0:0:0:
280,155,128751,1,0,0:0:0:0:
280,155,128807,1,0,0:0:0:0:
280,155,128864,1,8,0:0:0:0:
234,133,128977,1,8,0:0:0:0:
234,133,129034,1,0,0:0:0:0:
234,133,129090,1,0,0:0:0:0:
234,133,129147,1,0,0:0:0:0:
234,133,129204,1,8,0:0:0:0:
234,133,129260,1,8,0:0:0:0:
234,133,129317,1,0,0:0:0:0:
261,158,129430,1,8,0:0:0:0:
261,158,129543,1,0,0:0:0:0:
300,169,129600,1,8,0:0:0:0:
300,169,129656,1,0,0:0:0:0:
300,169,129713,1,8,0:0:0:0:
300,169,129770,1,0,0:0:0:0:
256,132,129883,1,8,0:0:0:0:
257,133,129940,1,0,0:0:0:0:
258,133,129996,1,0,0:0:0:0:
305,199,130109,1,8,0:0:0:0:
305,199,130166,1,8,0:0:0:0:
305,199,130223,1,0,0:0:0:0:
305,199,130279,1,0,0:0:0:0:
305,199,130336,1,8,0:0:0:0:
305,199,130392,1,8,0:0:0:0:
300,198,130449,1,8,0:0:0:0:
149,174,130562,1,8,0:0:0:0:
206,177,130675,1,0,0:0:0:0:
211,178,130732,1,0,0:0:0:0:
211,178,130789,1,8,0:0:0:0:
282,178,130902,1,0,0:0:0:0:
282,178,131015,1,8,0:0:0:0:
282,178,131072,1,8,0:0:0:0:
282,178,131128,1,0,0:0:0:0:
282,178,131241,1,8,0:0:0:0:
274,145,131355,1,0,0:0:0:0:
220,154,131411,1,0,0:0:0:0:
281,158,131468,1,0,0:0:0:0:
281,158,131581,1,0,0:0:0:0:
281,159,131694,1,8,0:0:0:0:
281,159,131807,1,8,0:0:0:0:
281,160,131921,1,8,0:0:0:0:
281,160,132034,1,8,0:0:0:0:
279,160,132147,1,8,0:0:0:0:
270,151,132260,1,4,0:0:0:0:
280,170,132487,1,8,0:0:0:0:
280,170,132600,1,4,0:0:0:0:
254,166,132826,1,0,0:0:0:0:
254,166,132940,1,8,0:0:0:0:
231,177,133166,1,0,0:0:0:0:
231,177,133223,1,0,0:0:0:0:
231,177,133279,1,0,0:0:0:0:
231,177,133392,1,0,0:0:0:0:
231,177,133506,1,8,0:0:0:0:
247,162,133619,1,8,0:0:0:0:
247,162,133732,1,8,0:0:0:0:
247,162,133845,1,8,0:0:0:0:
247,162,133958,1,8,0:0:0:0:
247,162,134072,1,12,0:0:0:0:
249,215,134298,1,0,0:0:0:0:
249,215,134411,1,12,0:0:0:0:
249,215,134638,1,8,0:0:0:0:
249,215,134751,1,0,0:0:0:0:
216,206,134977,1,0,0:0:0:0:
221,207,135034,1,0,0:0:0:0:
221,207,135090,1,0,0:0:0:0:
220,192,135204,1,0,0:0:0:0:
220,192,135317,1,8,0:0:0:0:
220,192,135430,1,8,0:0:0:0:
220,192,135543,1,8,0:0:0:0:
220,192,135656,1,8,0:0:0:0:
220,192,135770,1,8,0:0:0:0:
206,155,135883,1,4,0:0:0:0:
246,182,136109,1,8,0:0:0:0:
246,182,136223,1,4,0:0:0:0:
231,174,136449,1,0,0:0:0:0:
231,174,136562,1,8,0:0:0:0:
273,166,136789,1,4,0:0:0:0:
218,157,137015,1,0,0:0:0:0:
218,157,137072,1,0,0:0:0:0:
214,156,137128,1,12,0:0:0:0:
320,192,137355,1,12,0:0:0:0:
320,192,137581,1,12,0:0:0:0:
171,155,138034,1,0,0:0:0:0:
171,155,138090,1,0,0:0:0:0:
165,155,138147,1,8,0:0:0:0:
235,176,138260,1,0,0:0:0:0:
235,176,138373,1,8,0:0:0:0:
235,176,138487,1,8,0:0:0:0:
235,176,138600,1,4,0:0:0:0:
256,192,138713,12,0,141996,0:0:0:0:
246,165,142223,5,0,0:0:0:0:
285,166,142449,1,8,0:0:0:0:
285,166,142562,1,0,0:0:0:0:
285,166,142675,1,0,0:0:0:0:
285,166,142789,1,8,0:0:0:0:
285,166,142902,1,0,0:0:0:0:
285,166,143015,1,8,0:0:0:0:
285,166,143241,1,0,0:0:0:0:
285,166,143355,1,8,0:0:0:0:
285,166,143468,1,8,0:0:0:0:
285,166,143581,1,0,0:0:0:0:
285,166,143807,1,8,0:0:0:0:
285,166,144034,1,0,0:0:0:0:
285,166,144260,1,8,0:0:0:0:
285,166,144373,1,0,0:0:0:0:
285,166,144600,1,8,0:0:0:0:
285,166,144713,1,8,0:0:0:0:
285,166,144826,1,0,0:0:0:0:
258,201,144940,1,8,0:0:0:0:
258,201,144996,1,8,0:0:0:0:
258,201,145053,1,0,0:0:0:0:
258,201,145109,1,0,0:0:0:0:
258,201,145166,1,8,0:0:0:0:
258,201,145223,1,8,0:0:0:0:
258,201,145279,1,8,0:0:0:0:
258,201,145336,1,0,0:0:0:0:
258,201,145392,1,8,0:0:0:0:
258,201,145449,1,8,0:0:0:0:
258,201,145506,1,0,0:0:0:0:
258,201,145562,1,8,0:0:0:0:
258,201,145619,1,0,0:0:0:0:
258,201,145675,1,8,0:0:0:0:
258,201,145732,1,8,0:0:0:0:
258,201,145789,1,8,0:0:0:0:
258,201,145845,1,4,0:0:0:0:
259,165,146072,1,8,0:0:0:0:
267,165,146185,1,0,0:0:0:0:
267,165,146298,1,0,0:0:0:0:
267,165,146411,1,8,0:0:0:0:
267,165,146524,1,12,0:0:0:0:
267,165,146751,1,4,0:0:0:0:
206,154,146977,1,8,0:0:0:0:
241,162,147090,1,0,0:0:0:0:
241,162,147204,1,0,0:0:0:0:
241,162,147317,1,8,0:0:0:0:
294,160,147430,1,0,0:0:0:0:
294,160,147487,1,8,0:0:0:0:
294,160,147543,1,8,0:0:0:0:
306,163,147656,1,4,0:0:0:0:
261,120,147883,1,8,0:0:0:0:
261,120,147996,1,0,0:0:0:0:
261,120,148109,1,0,0:0:0:0:
255,122,148223,1,8,0:0:0:0:
203,124,148336,1,8,0:0:0:0:
281,176,148392,1,8,0:0:0:0:
239,158,148562,1,4,0:0:0:0:
266,160,148789,1,8,0:0:0:0:
266,160,148902,1,0,0:0:0:0:
266,160,148958,1,0,0:0:0:0:
266,160,149015,1,0,0:0:0:0:
266,160,149072,1,0,0:0:0:0:
264,159,149128,1,8,0:0:0:0:
247,153,149241,1,4,0:0:0:0:
247,153,149355,1,4,0:0:0:0:
249,162,149468,1,4,0:0:0:0:
287,161,149694,1,8,0:0:0:0:
287,161,149807,1,0,0:0:0:0:
287,161,149921,1,0,0:0:0:0:
287,161,150034,1,8,0:0:0:0:
287,161,150147,1,8,0:0:0:0:
287,161,150204,1,8,0:0:0:0:
287,161,150260,1,8,0:0:0:0:
287,161,150373,1,4,0:0:0:0:
322,136,150600,1,8,0:0:0:0:
322,136,150713,1,0,0:0:0:0:
322,136,150826,1,0,0:0:0:0:
322,136,150940,1,8,0:0:0:0:
322,136,151053,1,0,0:0:0:0:
322,136,151109,1,8,0:0:0:0:
322,136,151166,1,0,0:0:0:0:
155,114,151223,1,8,0:0:0:0:
263,135,151279,1,4,0:0:0:0:
224,162,151506,1,8,0:0:0:0:
224,162,151619,1,0,0:0:0:0:
224,162,151732,1,0,0:0:0:0:
254,112,151845,1,8,0:0:0:0:
180,159,151958,1,0,0:0:0:0:
184,161,152015,1,0,0:0:0:0:
185,162,152072,1,0,0:0:0:0:
185,162,152185,1,4,0:0:0:0:
191,153,152298,1,0,0:0:0:0:
216,147,152411,1,8,0:0:0:0:
290,148,152524,1,0,0:0:0:0:
241,169,152638,1,8,0:0:0:0:
241,169,152713,1,0,0:0:0:0:
241,169,152789,1,0,0:0:0:0:
241,169,152864,1,8,0:0:0:0:
241,169,152940,1,8,0:0:0:0:
241,169,153015,1,8,0:0:0:0:
241,169,153090,1,4,0:0:0:0:
278,160,153204,1,0,0:0:0:0:
278,160,153260,1,0,0:0:0:0:
278,160,153317,1,8,0:0:0:0:
278,160,153430,1,0,0:0:0:0:
278,160,153487,1,8,0:0:0:0:
278,160,153543,1,8,0:0:0:0:
278,160,153656,1,0,0:0:0:0:
278,160,153770,1,8,0:0:0:0:
278,160,153826,1,8,0:0:0:0:
278,160,153883,1,8,0:0:0:0:
278,160,153940,1,8,0:0:0:0:
278,160,153996,1,0,0:0:0:0:
272,121,154109,1,8,0:0:0:0:
283,146,154166,1,8,0:0:0:0:
283,146,154223,1,8,0:0:0:0:
283,146,154336,1,0,0:0:0:0:
283,146,154449,1,8,0:0:0:0:
224,155,154506,1,8,0:0:0:0:
283,146,154562,1,8,0:0:0:0:
229,160,154619,1,0,0:0:0:0:
283,146,154675,1,8,0:0:0:0:
229,160,154732,1,0,0:0:0:0:
229,160,154789,1,0,0:0:0:0:
229,160,154845,1,0,0:0:0:0:
229,160,154902,1,8,0:0:0:0:
246,152,155015,1,0,0:0:0:0:
246,152,155072,1,0,0:0:0:0:
246,152,155128,1,8,0:0:0:0:
246,152,155241,1,0,0:0:0:0:
246,152,155298,1,0,0:0:0:0:
246,152,155355,1,0,0:0:0:0:
246,152,155468,1,0,0:0:0:0:
246,152,155581,1,8,0:0:0:0:
246,152,155638,1,8,0:0:0:0:
246,152,155694,1,0,0:0:0:0:
246,152,155751,1,8,0:0:0:0:
246,152,155807,1,0,0:0:0:0:
156,148,155921,1,0,0:0:0:0:
172,148,155977,1,0,0:0:0:0:
172,148,156034,1,8,0:0:0:0:
205,127,156147,1,0,0:0:0:0:
221,130,156260,1,8,0:0:0:0:
225,133,156317,1,8,0:0:0:0:
228,135,156373,1,8,0:0:0:0:
231,142,156430,1,0,0:0:0:0:
231,142,156487,1,8,0:0:0:0:
231,142,156543,1,8,0:0:0:0:
231,142,156600,1,0,0:0:0:0:
231,142,156656,1,0,0:0:0:0:
231,142,156713,1,8,0:0:0:0:
243,187,156826,1,0,0:0:0:0:
251,191,156883,1,8,0:0:0:0:
251,191,156940,1,0,0:0:0:0:
252,191,156996,1,0,0:0:0:0:
252,191,157053,1,8,0:0:0:0:
252,191,157166,1,0,0:0:0:0:
252,191,157223,1,8,0:0:0:0:
252,191,157279,1,8,0:0:0:0:
252,191,157336,1,0,0:0:0:0:
252,191,157392,1,8,0:0:0:0:
252,191,157506,1,8,0:0:0:0:
252,191,157562,1,8,0:0:0:0:
252,191,157619,1,0,0:0:0:0:
251,191,157675,1,0,0:0:0:0:
251,191,157732,1,8,0:0:0:0:
259,189,157845,1,0,0:0:0:0:
259,189,157902,1,0,0:0:0:0:
259,189,157958,1,0,0:0:0:0:
259,189,158015,1,0,0:0:0:0:
259,189,158072,1,8,0:0:0:0:
259,189,158128,1,8,0:0:0:0:
259,189,158185,1,8,0:0:0:0:
259,189,158241,1,0,0:0:0:0:
259,189,158298,1,8,0:0:0:0:
260,188,158355,1,0,0:0:0:0:
260,188,158411,1,8,0:0:0:0:
260,187,158468,1,8,0:0:0:0:
261,180,158524,1,0,0:0:0:0:
200,95,158751,1,8,0:0:0:0:
225,164,158864,1,0,0:0:0:0:
225,164,158977,1,8,0:0:0:0:
225,164,159034,1,8,0:0:0:0:
225,164,159090,1,8,0:0:0:0:
225,164,159147,1,8,0:0:0:0:
225,164,159204,1,0,0:0:0:0:
220,162,159260,1,0,0:0:0:0:
220,162,159317,1,0,0:0:0:0:
220,162,159373,1,0,0:0:0:0:
195,147,159430,1,8,0:0:0:0:
296,150,159656,1,0,0:0:0:0:
296,150,159770,1,8,0:0:0:0:
296,150,159996,1,0,0:0:0:0:
296,150,160109,1,8,0:0:0:0:
287,151,160223,1,8,0:0:0:0:
260,152,160336,1,4,0:0:0:0:
266,162,160449,1,8,0:0:0:0:
266,162,160506,1,0,0:0:0:0:
266,162,160562,1,8,0:0:0:0:
266,162,160619,1,8,0:0:0:0:
266,162,160675,1,0,0:0:0:0:
266,162,160789,1,0,0:0:0:0:
218,184,160845,1,0,0:0:0:0:
218,184,160902,1,8,0:0:0:0:
215,158,160958,1,0,0:0:0:0:
218,184,161015,1,0,0:0:0:0:
220,157,161128,1,8,0:0:0:0:
220,155,161241,1,0,0:0:0:0:
196,117,161298,1,0,0:0:0:0:
196,117,161355,1,8,0:0:0:0:
227,156,161468,1,8,0:0:0:0:
228,156,161581,1,0,0:0:0:0:
229,156,161638,1,8,0:0:0:0:
229,156,161694,1,0,0:0:0:0:
229,156,161751,1,8,0:0:0:0:
229,156,161807,1,8,0:0:0:0:
229,156,161921,1,0,0:0:0:0:
279,176,161977,1,0,0:0:0:0:
279,176,162034,1,8,0:0:0:0:
279,176,162147,1,0,0:0:0:0:
253,140,162204,1,0,0:0:0:0:
253,140,162260,1,0,0:0:0:0:
253,140,162317,1,0,0:0:0:0:
253,140,162373,1,8,0:0:0:0:
221,130,162487,1,8,0:0:0:0:
121,149,162543,1,8,0:0:0:0:
245,142,162600,1,0,0:0:0:0:
245,142,162656,1,8,0:0:0:0:
245,142,162713,1,0,0:0:0:0:
199,152,162770,1,0,0:0:0:0:
245,142,162826,1,8,0:0:0:0:
245,142,162883,1,0,0:0:0:0:
245,142,162940,1,8,0:0:0:0:
316,167,163053,1,0,0:0:0:0:
198,165,163166,1,8,0:0:0:0:
201,166,163223,1,0,0:0:0:0:
201,166,163279,1,0,0:0:0:0:
311,178,163392,1,8,0:0:0:0:
311,178,163506,1,0,0:0:0:0:
311,178,163562,1,0,0:0:0:0:
311,178,163619,1,8,0:0:0:0:
311,178,163675,1,8,0:0:0:0:
311,178,163732,1,0,0:0:0:0:
311,178,163789,1,0,0:0:0:0:
311,178,163845,1,8,0:0:0:0:
266,176,163902,1,0,0:0:0:0:
266,176,163958,1,8,0:0:0:0:
96,142,164072,1,0,0:0:0:0:
270,227,164185,1,8,0:0:0:0:
270,227,164241,1,0,0:0:0:0:
270,227,164298,1,0,0:0:0:0:
270,227,164355,1,0,0:0:0:0:
390,286,164411,1,8,0:0:0:0:
258,165,164468,1,8,0:0:0:0:
258,165,164524,1,8,0:0:0:0:
258,165,164638,1,0,0:0:0:0:
223,149,164694,1,0,0:0:0:0:
258,165,164751,1,8,0:0:0:0:
258,165,164864,1,0,0:0:0:0:
244,147,164921,1,0,0:0:0:0:
244,147,164977,1,0,0:0:0:0:
243,147,165034,1,0,0:0:0:0:
226,142,165090,1,8,0:0:0:0:
256,139,165204,1,8,0:0:0:0:
256,139,165317,1,0,0:0:0:0:
256,139,165373,1,0,0:0:0:0:
256,139,165430,1,0,0:0:0:0:
256,139,165543,1,8,0:0:0:0:
256,139,165600,1,0,0:0:0:0:
256,139,165656,1,8,0:0:0:0:
256,139,165713,1,8,0:0:0:0:
256,139,165770,1,0,0:0:0:0:
326,151,165883,1,8,0:0:0:0:
326,151,165996,1,0,0:0:0:0:
326,151,166053,1,8,0:0:0:0:
326,151,166109,1,8,0:0:0:0:
326,151,166223,1,0,0:0:0:0:
188,169,166279,1,0,0:0:0:0:
188,169,166336,1,8,0:0:0:0:
331,107,166392,1,0,0:0:0:0:
187,169,166449,1,0,0:0:0:0:
256,139,166562,1,8,0:0:0:0:
250,115,166619,1,8,0:0:0:0:
256,139,166675,1,0,0:0:0:0:
247,115,166789,1,0,0:0:0:0:
247,115,166902,1,8,0:0:0:0:
241,112,166958,1,8,0:0:0:0:
236,108,167015,1,0,0:0:0:0:
195,150,167072,1,0,0:0:0:0:
223,162,167128,1,8,0:0:0:0:
270,145,167185,1,0,0:0:0:0:
316,207,167241,1,8,0:0:0:0:
316,207,167298,1,0,0:0:0:0:
225,147,167355,1,8,0:0:0:0:
316,207,167468,1,8,0:0:0:0:
316,207,167581,1,4,0:0:0:0:
215,135,167694,1,8,0:0:0:0:
229,151,167751,1,0,0:0:0:0:
229,151,167807,1,0,0:0:0:0:
267,170,167921,1,8,0:0:0:0:
267,170,168034,1,0,0:0:0:0:
267,170,168090,1,8,0:0:0:0:
267,170,168147,1,0,0:0:0:0:
267,170,168204,1,0,0:0:0:0:
267,170,168260,1,8,0:0:0:0:
247,168,168317,1,8,0:0:0:0:
237,141,168373,1,0,0:0:0:0:
298,132,168487,1,8,0:0:0:0:
298,132,168543,1,8,0:0:0:0:
298,132,168600,1,0,0:0:0:0:
298,132,168656,1,8,0:0:0:0:
298,132,168713,1,0,0:0:0:0:
238,134,168826,1,8,0:0:0:0:
256,90,168940,1,0,0:0:0:0:
304,188,168996,1,8,0:0:0:0:
304,188,169053,1,0,0:0:0:0:
304,188,169109,1,0,0:0:0:0:
304,188,169166,1,8,0:0:0:0:
304,188,169223,1,0,0:0:0:0:
290,180,169279,1,8,0:0:0:0:
215,174,169392,1,0,0:0:0:0:
220,174,169506,1,8,0:0:0:0:
220,174,169562,1,0,0:0:0:0:
220,174,169619,1,0,0:0:0:0:
244,165,169732,1,8,0:0:0:0:
244,165,169845,1,0,0:0:0:0:
244,165,169902,1,8,0:0:0:0:
244,165,169958,1,8,0:0:0:0:
244,165,170015,1,8,0:0:0:0:
244,165,170072,1,0,0:0:0:0:
244,165,170128,1,0,0:0:0:0:
244,165,170185,1,8,0:0:0:0:
295,132,170298,1,0,0:0:0:0:
178,169,170411,1,8,0:0:0:0:
202,175,170468,1,8,0:0:0:0:
202,175,170524,1,0,0:0:0:0:
263,170,170638,1,8,0:0:0:0:
263,170,170694,1,0,0:0:0:0:
263,170,170751,1,8,0:0:0:0:
263,170,170807,1,8,0:0:0:0:
263,170,170864,1,0,0:0:0:0:
263,170,170921,1,8,0:0:0:0:
262,170,170977,1,0,0:0:0:0:
253,165,171090,1,8,0:0:0:0:
268,146,171204,1,8,0:0:0:0:
268,146,171260,1,0,0:0:0:0:
268,146,171317,1,0,0:0:0:0:
267,146,171373,1,8,0:0:0:0:
268,146,171430,1,0,0:0:0:0:
175,159,171487,1,8,0:0:0:0:
163,159,171543,1,8,0:0:0:0:
300,177,171656,1,0,0:0:0:0:
301,209,171770,1,8,0:0:0:0:
301,209,171826,1,8,0:0:0:0:
301,209,171883,1,8,0:0:0:0:
301,209,171940,1,0,0:0:0:0:
301,209,171996,1,8,0:0:0:0:
267,231,172109,1,0,0:0:0:0:
267,231,172223,1,8,0:0:0:0:
267,231,172279,1,0,0:0:0:0:
262,230,172336,1,0,0:0:0:0:
300,202,172449,1,8,0:0:0:0:
300,202,172562,1,0,0:0:0:0:
300,202,172619,1,0,0:0:0:0:
300,202,172675,1,8,0:0:0:0:
300,202,172732,1,0,0:0:0:0:
300,202,172789,1,8,0:0:0:0:
300,202,172845,1,8,0:0:0:0:
300,202,172902,1,8,0:0:0:0:
255,174,173015,1,0,0:0:0:0:
198,159,173072,1,0,0:0:0:0:
198,138,173128,1,0,0:0:0:0:
210,139,173185,1,0,0:0:0:0:
210,139,173241,1,8,0:0:0:0:
263,157,173355,1,8,0:0:0:0:
263,157,173411,1,0,0:0:0:0:
263,157,173468,1,0,0:0:0:0:
263,157,173581,1,8,0:0:0:0:
263,157,173694,1,0,0:0:0:0:
263,157,173751,1,0,0:0:0:0:
263,157,173807,1,8,0:0:0:0:
263,157,173864,1,8,0:0:0:0:
263,157,173921,1,0,0:0:0:0:
246,129,174034,1,0,0:0:0:0:
246,129,174090,1,0,0:0:0:0:
242,128,174147,1,8,0:0:0:0:
246,129,174260,1,8,0:0:0:0:
340,227,174373,1,0,0:0:0:0:
296,177,174430,1,8,0:0:0:0:
340,227,174543,1,8,0:0:0:0:
340,227,174600,1,0,0:0:0:0:
266,152,174656,1,0,0:0:0:0:
222,159,174713,1,8,0:0:0:0:
266,152,174770,1,8,0:0:0:0:
273,152,174826,1,4,0:0:0:0:
229,146,175053,1,8,0:0:0:0:
274,145,175166,1,0,0:0:0:0:
274,145,175279,1,8,0:0:0:0:
274,145,175336,1,8,0:0:0:0:
274,145,175392,1,0,0:0:0:0:
293,171,175506,1,8,0:0:0:0:
293,171,175619,1,8,0:0:0:0:
293,171,175732,1,0,0:0:0:0:
293,171,175789,1,0,0:0:0:0:
293,171,175845,1,0,0:0:0:0:
208,135,175958,1,8,0:0:0:0:
237,134,176072,1,0,0:0:0:0:
237,134,176128,1,0,0:0:0:0:
237,134,176185,1,8,0:0:0:0:
265,168,176298,1,0,0:0:0:0:
265,168,176411,1,8,0:0:0:0:
264,167,176468,1,8,0:0:0:0:
264,167,176524,1,8,0:0:0:0:
264,167,176581,1,8,0:0:0:0:
264,167,176638,1,0,0:0:0:0:
266,173,176864,1,8,0:0:0:0:
266,173,176977,1,0,0:0:0:0:
266,173,177090,1,8,0:0:0:0:
266,173,177147,1,8,0:0:0:0:
266,173,177204,1,0,0:0:0:0:
266,173,177317,1,8,0:0:0:0:
266,173,177430,1,0,0:0:0:0:
266,173,177543,1,8,0:0:0:0:
271,182,177600,1,8,0:0:0:0:
271,182,177656,1,0,0:0:0:0:
271,182,177713,1,8,0:0:0:0:
271,182,177770,1,8,0:0:0:0:
271,182,177826,1,8,0:0:0:0:
271,182,177883,1,0,0:0:0:0:
271,182,177940,1,0,0:0:0:0:
271,182,177996,1,8,0:0:0:0:
194,97,178109,1,0,0:0:0:0:
173,160,178166,1,0,0:0:0:0:
194,97,178223,1,8,0:0:0:0:
194,97,178336,1,8,0:0:0:0:
194,97,178449,1,4,0:0:0:0:
258,157,178562,1,8,0:0:0:0:
303,172,178619,1,8,0:0:0:0:
303,172,178675,1,0,0:0:0:0:
281,104,178732,1,8,0:0:0:0:
281,104,178789,1,8,0:0:0:0:
281,104,178902,1,0,0:0:0:0:
271,177,179015,1,8,0:0:0:0:
297,169,179072,1,8,0:0:0:0:
297,169,179128,1,0,0:0:0:0:
189,166,179241,1,8,0:0:0:0:
259,140,179298,1,0,0:0:0:0:
250,155,179355,1,8,0:0:0:0:
259,140,179411,1,8,0:0:0:0:
259,140,179468,1,0,0:0:0:0:
281,152,179581,1,8,0:0:0:0:
274,156,179694,1,0,0:0:0:0:
274,156,179751,1,0,0:0:0:0:
274,156,179807,1,8,0:0:0:0:
244,111,179921,1,8,0:0:0:0:
256,114,179977,1,8,0:0:0:0:
256,114,180034,1,0,0:0:0:0:
256,114,180147,1,8,0:0:0:0:
256,114,180204,1,8,0:0:0:0:
256,114,180260,1,8,0:0:0:0:
256,114,180317,1,0,0:0:0:0:
256,114,180373,1,8,0:0:0:0:
251,134,180487,1,0,0:0:0:0:
248,158,180600,1,8,0:0:0:0:
248,158,180656,1,8,0:0:0:0:
249,158,180713,1,0,0:0:0:0:
287,142,180826,1,8,0:0:0:0:
285,139,180883,1,0,0:0:0:0:
285,139,180940,1,0,0:0:0:0:
285,139,180996,1,0,0:0:0:0:
285,139,181053,1,8,0:0:0:0:
285,139,181109,1,8,0:0:0:0:
285,139,181166,1,0,0:0:0:0:
248,158,181279,1,8,0:0:0:0:
248,158,181336,1,0,0:0:0:0:
248,158,181392,1,8,0:0:0:0:
248,158,181506,1,8,0:0:0:0:
300,216,181619,1,0,0:0:0:0:
300,216,181675,1,0,0:0:0:0:
300,216,181732,1,8,0:0:0:0:
300,216,181789,1,0,0:0:0:0:
300,216,181845,1,8,0:0:0:0:
138,160,181958,1,8,0:0:0:0:
301,210,182072,1,4,0:0:0:0:
243,168,182298,1,8,0:0:0:0:
243,168,182411,1,0,0:0:0:0:
243,168,182524,1,0,0:0:0:0:
243,168,182581,1,0,0:0:0:0:
243,168,182638,1,8,0:0:0:0:
239,166,182694,1,0,0:0:0:0:
243,168,182751,1,8,0:0:0:0:
239,166,182807,1,8,0:0:0:0:
235,164,182864,1,0,0:0:0:0:
215,153,182977,1,0,0:0:0:0:
239,126,183090,1,8,0:0:0:0:
239,126,183147,1,8,0:0:0:0:
239,126,183204,1,0,0:0:0:0:
236,90,183317,1,0,0:0:0:0:
272,140,183430,1,8,0:0:0:0:
197,147,183543,1,0,0:0:0:0:
256,138,183600,1,0,0:0:0:0:
272,140,183656,1,8,0:0:0:0:
272,140,183770,1,8,0:0:0:0:
272,140,183883,1,0,0:0:0:0:
237,215,183940,1,0,0:0:0:0:
237,215,183996,1,0,0:0:0:0:
237,215,184053,1,0,0:0:0:0:
237,215,184109,1,8,0:0:0:0:
282,158,184223,1,0,0:0:0:0:
282,158,184336,1,0,0:0:0:0:
282,158,184392,1,0,0:0:0:0:
281,157,184449,1,8,0:0:0:0:
311,202,184562,1,0,0:0:0:0:
176,51,184675,1,8,0:0:0:0:
155,138,184732,1,8,0:0:0:0:
145,136,184789,1,8,0:0:0:0:
120,144,184902,1,0,0:0:0:0:
251,127,185015,1,8,0:0:0:0:
282,158,185128,1,0,0:0:0:0:
282,158,185241,1,8,0:0:0:0:
188,160,185298,1,8,0:0:0:0:
257,139,185355,1,0,0:0:0:0:
257,139,185411,1,0,0:0:0:0:
257,139,185468,1,8,0:0:0:0:
257,139,185524,1,0,0:0:0:0:
257,139,185581,1,8,0:0:0:0:
257,139,185694,1,4,0:0:0:0:
259,144,185807,1,8,0:0:0:0:
259,144,185864,1,8,0:0:0:0:
257,144,185921,1,0,0:0:0:0:
261,144,186034,1,8,0:0:0:0:
264,145,186147,1,0,0:0:0:0:
264,145,186204,1,0,0:0:0:0:
264,145,186260,1,0,0:0:0:0:
264,145,186317,1,8,0:0:0:0:
264,145,186373,1,0,0:0:0:0:
264,145,186430,1,0,0:0:0:0:
264,145,186487,1,8,0:0:0:0:
264,145,186600,1,0,0:0:0:0:
170,141,186656,1,0,0:0:0:0:
170,141,186713,1,8,0:0:0:0:
226,142,186826,1,0,0:0:0:0:
272,178,186940,1,8,0:0:0:0:
272,178,186996,1,8,0:0:0:0:
272,178,187053,1,8,0:0:0:0:
272,178,187109,1,0,0:0:0:0:
272,178,187166,1,0,0:0:0:0:
271,171,187223,1,0,0:0:0:0:
264,145,187279,1,8,0:0:0:0:
302,170,187392,1,8,0:0:0:0:
272,178,187506,1,4,0:0:0:0:
272,178,187845,1,4,0:0:0:0:
272,178,188298,1,4,0:0:0:0:
276,141,188638,1,8,0:0:0:0:
276,141,188751,1,8,0:0:0:0:
276,141,188864,1,8,0:0:0:0:
276,141,188977,1,8,0:0:0:0:
276,141,189090,1,8,0:0:0:0:
276,141,189204,1,8,0:0:0:0:
266,129,189317,1,4,0:0:0:0:
256,192,189430,12,0,197468,0:0:0:0:
256,192,197921,12,0,200864,0:0:0:0:
227,184,201090,5,8,0:0:0:0:
248,189,201543,1,8,0:0:0:0:
248,189,201996,1,8,0:0:0:0:
248,189,202449,1,8,0:0:0:0:
248,189,202902,1,8,0:0:0:0:
248,189,203355,1,8,0:0:0:0:
248,189,203807,1,8,0:0:0:0:
248,189,204260,1,8,0:0:0:0:
248,189,204713,1,8,0:0:0:0:
248,189,205166,1,8,0:0:0:0:
248,189,205619,1,8,0:0:0:0:
248,189,206072,1,8,0:0:0:0:
152,151,206524,5,0,0:0:0:0:
199,151,206977,1,0,0:0:0:0:
199,151,207430,1,8,0:0:0:0:
242,135,207656,1,8,0:0:0:0:
242,135,207883,1,8,0:0:0:0:
242,135,208109,1,8,0:0:0:0:
242,135,208336,1,8,0:0:0:0:
224,160,208789,1,0,0:0:0:0:
224,160,209015,1,8,0:0:0:0:
224,160,209241,1,0,0:0:0:0:
224,160,209468,1,0,0:0:0:0:
224,160,209694,1,0,0:0:0:0:
224,160,209921,1,0,0:0:0:0:
224,160,210147,1,0,0:0:0:0:
224,160,210600,1,8,0:0:0:0:
224,160,210826,1,8,0:0:0:0:
224,160,211053,1,0,0:0:0:0:
191,167,211279,1,0,0:0:0:0:
191,167,211506,1,0,0:0:0:0:
191,167,211732,1,0,0:0:0:0:
191,167,211958,1,0,0:0:0:0:
191,167,212411,1,8,0:0:0:0:
191,167,212638,1,8,0:0:0:0:
191,167,212864,1,8,0:0:0:0:
191,167,213543,1,8,0:0:0:0:
191,167,213770,1,0,0:0:0:0:
260,177,214223,1,0,0:0:0:0:
260,177,214449,1,0,0:0:0:0:
272,155,214506,1,0,0:0:0:0:
272,155,214562,1,0,0:0:0:0:
271,155,214619,1,0,0:0:0:0:
260,177,214675,1,8,0:0:0:0:
260,177,214902,1,0,0:0:0:0:
260,177,215128,1,8,0:0:0:0:
260,177,215355,1,0,0:0:0:0:
260,177,215581,1,8,0:0:0:0:
260,177,216034,1,0,0:0:0:0:
260,177,216260,1,8,0:0:0:0:
303,151,216317,1,8,0:0:0:0:
303,151,216373,1,8,0:0:0:0:
303,151,216430,1,8,0:0:0:0:
260,177,216487,1,0,0:0:0:0:
260,177,216713,1,8,0:0:0:0:
260,177,216940,1,0,0:0:0:0:
260,177,217166,1,8,0:0:0:0:
260,177,217392,1,0,0:0:0:0:
260,177,217845,1,8,0:0:0:0:
260,177,218072,1,8,0:0:0:0:
177,128,218128,1,8,0:0:0:0:
177,128,218185,1,8,0:0:0:0:
170,128,218241,1,8,0:0:0:0:
260,177,218298,1,0,0:0:0:0:
260,177,218977,1,0,0:0:0:0:
260,177,219204,1,8,0:0:0:0:
260,177,219430,1,8,0:0:0:0:
260,177,219656,1,0,0:0:0:0:
260,177,219996,1,8,0:0:0:0:
260,177,220109,1,0,0:0:0:0:
291,165,220789,1,0,0:0:0:0:
291,165,221015,1,8,0:0:0:0:
251,172,221921,1,0,0:0:0:0:
251,172,222826,1,0,0:0:0:0:
251,172,223279,1,8,0:0:0:0:
251,172,223506,1,8,0:0:0:0:
251,172,223732,1,0,0:0:0:0:
215,188,224411,1,0,0:0:0:0:
215,188,224638,1,8,0:0:0:0:
215,188,224864,1,8,0:0:0:0:
215,188,225090,1,0,0:0:0:0:
307,141,225430,1,8,0:0:0:0:
307,141,225487,1,8,0:0:0:0:
307,141,225543,1,0,0:0:0:0:
291,145,225770,1,0,0:0:0:0:
291,145,225883,1,0,0:0:0:0:
301,205,225996,1,0,0:0:0:0:
301,205,226223,1,0,0:0:0:0:
245,156,226336,1,0,0:0:0:0:
301,205,226449,1,8,0:0:0:0:
266,178,226675,1,0,0:0:0:0:
266,178,226902,1,8,0:0:0:0:
266,178,226958,1,8,0:0:0:0:
266,178,227015,1,8,0:0:0:0:
266,178,227128,1,8,0:0:0:0:
266,178,227355,1,0,0:0:0:0:
284,212,227581,1,8,0:0:0:0:
284,212,227694,1,8,0:0:0:0:
284,212,227807,1,0,0:0:0:0:
284,212,228034,1,0,0:0:0:0:
256,168,228147,1,0,0:0:0:0:
284,212,228260,1,8,0:0:0:0:
256,168,228487,1,0,0:0:0:0:
256,168,228713,1,8,0:0:0:0:
231,142,228770,1,8,0:0:0:0:
256,168,228826,1,8,0:0:0:0:
256,168,228940,1,8,0:0:0:0:
245,156,229053,1,8,0:0:0:0:
256,168,229166,1,0,0:0:0:0:
245,156,229392,1,0,0:0:0:0:
245,156,229506,1,0,0:0:0:0:
245,156,229619,1,8,0:0:0:0:
245,156,229845,1,0,0:0:0:0:
245,156,229958,1,0,0:0:0:0:
231,142,230015,1,0,0:0:0:0:
245,156,230072,1,8,0:0:0:0:
245,156,230298,1,0,0:0:0:0:
245,156,230524,1,8,0:0:0:0:
231,142,230581,1,8,0:0:0:0:
245,156,230638,1,8,0:0:0:0:
245,156,230751,1,8,0:0:0:0:
245,156,230977,1,0,0:0:0:0:
245,156,231204,1,8,0:0:0:0:
245,156,231317,1,8,0:0:0:0:
245,156,231430,1,0,0:0:0:0:
245,156,231656,1,0,0:0:0:0:
245,156,231770,1,0,0:0:0:0:
231,142,231883,1,8,0:0:0:0:
245,156,232109,1,0,0:0:0:0:
245,156,232336,1,8,0:0:0:0:
231,142,232392,1,8,0:0:0:0:
245,156,232449,1,8,0:0:0:0:
245,156,232562,1,8,0:0:0:0:
245,156,232675,1,8,0:0:0:0:
245,156,232789,1,0,0:0:0:0:
245,156,233015,1,8,0:0:0:0:
245,156,233128,1,8,0:0:0:0:
245,156,233241,1,0,0:0:0:0:
251,141,233468,1,8,0:0:0:0:
251,141,233581,1,8,0:0:0:0:
251,141,233694,1,0,0:0:0:0:
251,141,233921,1,8,0:0:0:0:
253,138,234034,1,8,0:0:0:0:
253,138,234147,1,0,0:0:0:0:
231,142,234204,1,8,0:0:0:0:
253,138,234260,1,8,0:0:0:0:
251,141,234373,1,8,0:0:0:0:
251,141,234487,1,8,0:0:0:0:
251,141,234600,1,0,0:0:0:0:
231,142,234826,1,8,0:0:0:0:
231,142,234940,1,8,0:0:0:0:
231,142,235053,1,0,0:0:0:0:
280,167,235279,1,8,0:0:0:0:
280,167,235392,1,8,0:0:0:0:
280,167,235506,1,0,0:0:0:0:
268,127,235732,1,8,0:0:0:0:
268,127,235845,1,8,0:0:0:0:
268,127,235958,1,0,0:0:0:0:
268,127,236015,1,8,0:0:0:0:
268,127,236072,1,8,0:0:0:0:
263,132,236185,1,8,0:0:0:0:
263,132,236298,1,8,0:0:0:0:
256,136,236411,1,4,0:0:0:0:
242,183,236638,1,0,0:0:0:0:
242,183,236864,1,0,0:0:0:0:
242,183,237090,1,0,0:0:0:0:
242,183,237317,1,8,0:0:0:0:
242,183,237543,1,8,0:0:0:0:
242,183,237770,1,8,0:0:0:0:
246,178,237996,1,8,0:0:0:0:
247,177,238223,1,8,0:0:0:0:
251,176,238298,1,8,0:0:0:0:
251,176,238373,1,0,0:0:0:0:
251,176,238449,1,8,0:0:0:0:
251,176,238524,1,8,0:0:0:0:
251,176,238600,1,0,0:0:0:0:
251,176,238675,1,8,0:0:0:0:
251,176,238751,1,0,0:0:0:0:
251,176,238826,1,0,0:0:0:0:
251,176,238902,1,8,0:0:0:0:
251,176,238977,1,0,0:0:0:0:
247,177,239053,1,0,0:0:0:0:
240,167,239128,1,8,0:0:0:0:
264,173,239581,1,12,0:0:0:0:
219,155,240034,1,0,0:0:0:0:
219,155,240109,1,0,0:0:0:0:
219,155,240185,1,0,0:0:0:0:
219,155,240260,1,8,0:0:0:0:
256,154,240373,1,0,0:0:0:0:
263,165,240487,1,8,0:0:0:0:
264,165,240562,1,0,0:0:0:0:
264,165,240638,1,0,0:0:0:0:
264,165,240713,1,8,0:0:0:0:
264,165,240826,1,0,0:0:0:0:
272,150,240940,1,8,0:0:0:0:
272,150,240996,1,8,0:0:0:0:
272,150,241053,1,0,0:0:0:0:
272,150,241166,1,8,0:0:0:0:
272,150,241279,1,8,0:0:0:0:
271,149,241392,1,0,0:0:0:0:
248,127,241619,1,8,0:0:0:0:
248,127,241732,1,0,0:0:0:0:
202,127,241845,1,8,0:0:0:0:
265,152,241921,1,8,0:0:0:0:
265,152,241996,1,8,0:0:0:0:
265,152,242072,1,0,0:0:0:0:
265,152,242185,1,0,0:0:0:0:
265,152,242298,1,8,0:0:0:0:
265,152,242373,1,0,0:0:0:0:
265,152,242449,1,0,0:0:0:0:
265,152,242524,1,8,0:0:0:0:
265,152,242638,1,8,0:0:0:0:
265,152,242751,1,0,0:0:0:0:
249,132,242807,1,0,0:0:0:0:
249,132,242864,1,8,0:0:0:0:
249,132,242977,1,8,0:0:0:0:
315,194,243204,1,0,0:0:0:0:
326,150,243260,1,0,0:0:0:0:
326,150,243317,1,0,0:0:0:0:
280,146,243373,1,0,0:0:0:0:
315,194,243430,1,8,0:0:0:0:
315,194,243543,1,8,0:0:0:0:
208,145,243656,1,0,0:0:0:0:
208,145,243770,1,0,0:0:0:0:
208,145,243883,1,8,0:0:0:0:
208,145,243996,1,0,0:0:0:0:
208,145,244109,1,8,0:0:0:0:
219,165,244166,1,8,0:0:0:0:
219,165,244223,1,8,0:0:0:0:
219,165,244279,1,8,0:0:0:0:
219,165,244336,1,0,0:0:0:0:
219,165,244449,1,0,0:0:0:0:
219,165,244562,1,8,0:0:0:0:
254,172,244675,1,0,0:0:0:0:
254,172,244789,1,0,0:0:0:0:
254,172,244845,1,0,0:0:0:0:
254,172,244902,1,0,0:0:0:0:
254,172,244958,1,0,0:0:0:0:
237,163,245015,1,8,0:0:0:0:
285,189,245128,1,0,0:0:0:0:
285,189,245241,1,8,0:0:0:0:
285,189,245298,1,8,0:0:0:0:
285,189,245355,1,8,0:0:0:0:
285,189,245411,1,8,0:0:0:0:
256,183,245468,1,0,0:0:0:0:
258,151,245581,1,0,0:0:0:0:
258,151,245694,1,8,0:0:0:0:
218,129,245751,1,8,0:0:0:0:
258,151,245807,1,0,0:0:0:0:
234,172,245864,1,8,0:0:0:0:
244,155,245921,1,0,0:0:0:0:
328,148,246034,1,0,0:0:0:0:
328,148,246147,1,8,0:0:0:0:
328,148,246204,1,0,0:0:0:0:
328,148,246260,1,8,0:0:0:0:
272,151,246317,1,8,0:0:0:0:
328,148,246373,1,0,0:0:0:0:
249,150,246449,1,0,0:0:0:0:
298,161,246524,1,0,0:0:0:0:
249,150,246600,1,8,0:0:0:0:
249,150,246675,1,8,0:0:0:0:
298,161,246751,1,8,0:0:0:0:
298,161,246826,1,0,0:0:0:0:
298,161,246940,1,0,0:0:0:0:
298,161,247053,1,8,0:0:0:0:
259,155,247166,1,8,0:0:0:0:
259,155,247279,1,0,0:0:0:0:
262,162,247355,1,0,0:0:0:0:
262,162,247430,1,0,0:0:0:0:
255,158,247506,1,8,0:0:0:0:
262,162,247619,1,0,0:0:0:0:
262,162,247732,1,8,0:0:0:0:
262,162,247807,1,0,0:0:0:0:
262,162,247883,1,0,0:0:0:0:
262,162,247958,1,8,0:0:0:0:
262,162,248072,1,0,0:0:0:0:
262,162,248185,1,8,0:0:0:0:
256,137,248241,1,8,0:0:0:0:
255,137,248298,1,0,0:0:0:0:
226,142,248411,1,8,0:0:0:0:
267,117,248524,1,8,0:0:0:0:
267,117,248638,1,0,0:0:0:0:
267,117,248864,1,8,0:0:0:0:
267,117,248977,1,0,0:0:0:0:
267,117,249090,1,8,0:0:0:0:
240,152,249166,1,8,0:0:0:0:
240,152,249241,1,8,0:0:0:0:
240,152,249317,1,0,0:0:0:0:
240,152,249430,1,0,0:0:0:0:
240,152,249543,1,8,0:0:0:0:
240,152,249619,1,0,0:0:0:0:
240,152,249694,1,0,0:0:0:0:
240,152,249770,1,8,0:0:0:0:
190,156,249883,1,8,0:0:0:0:
202,153,249996,1,0,0:0:0:0:
202,153,250053,1,0,0:0:0:0:
202,153,250109,1,8,0:0:0:0:
259,222,250223,1,8,0:0:0:0:
252,168,250449,1,0,0:0:0:0:
252,168,250506,1,0,0:0:0:0:
252,168,250562,1,0,0:0:0:0:
252,168,250619,1,0,0:0:0:0:
252,168,250675,1,8,0:0:0:0:
252,168,250789,1,8,0:0:0:0:
252,168,250902,1,0,0:0:0:0:
304,153,251015,1,0,0:0:0:0:
304,153,251128,1,8,0:0:0:0:
304,153,251241,1,0,0:0:0:0:
304,153,251355,1,8,0:0:0:0:
304,153,251411,1,8,0:0:0:0:
304,153,251468,1,8,0:0:0:0:
304,153,251524,1,8,0:0:0:0:
304,153,251581,1,0,0:0:0:0:
236,175,251638,1,0,0:0:0:0:
236,175,251694,1,0,0:0:0:0:
236,175,251751,1,0,0:0:0:0:
225,171,251807,1,8,0:0:0:0:
265,147,251921,1,0,0:0:0:0:
261,147,252034,1,8,0:0:0:0:
261,147,252147,1,8,0:0:0:0:
261,147,252260,1,0,0:0:0:0:
261,147,252317,1,0,0:0:0:0:
261,147,252373,1,0,0:0:0:0:
261,147,252430,1,0,0:0:0:0:
261,147,252487,1,8,0:0:0:0:
232,152,252543,1,8,0:0:0:0:
261,147,252600,1,8,0:0:0:0:
232,152,252656,1,8,0:0:0:0:
229,147,252713,1,0,0:0:0:0:
201,201,252826,1,0,0:0:0:0:
259,192,252940,1,8,0:0:0:0:
260,186,253053,1,0,0:0:0:0:
260,184,253166,1,8,0:0:0:0:
260,184,253223,1,8,0:0:0:0:
260,184,253279,1,0,0:0:0:0:
260,184,253392,1,8,0:0:0:0:
260,184,253506,1,8,0:0:0:0:
260,184,253619,1,0,0:0:0:0:
260,184,253732,1,0,0:0:0:0:
260,184,253845,1,8,0:0:0:0:
260,184,253958,1,0,0:0:0:0:
260,186,254072,1,8,0:0:0:0:
260,184,254128,1,8,0:0:0:0:
260,184,254185,1,0,0:0:0:0:
260,184,254298,1,8,0:0:0:0:
260,184,254411,1,8,0:0:0:0:
260,184,254524,1,0,0:0:0:0:
163,147,254638,1,0,0:0:0:0:
227,146,254751,1,8,0:0:0:0:
227,146,254864,1,0,0:0:0:0:
281,137,254921,1,0,0:0:0:0:
227,146,254977,1,8,0:0:0:0:
227,146,255090,1,8,0:0:0:0:
227,146,255204,1,0,0:0:0:0:
217,153,255317,1,0,0:0:0:0:
217,153,255373,1,0,0:0:0:0:
208,150,255430,1,8,0:0:0:0:
335,151,255543,1,0,0:0:0:0:
209,150,255656,1,8,0:0:0:0:
198,145,255732,1,0,0:0:0:0:
248,153,255807,1,0,0:0:0:0:
211,150,255883,1,8,0:0:0:0:
248,153,255958,1,8,0:0:0:0:
211,150,256034,1,0,0:0:0:0:
208,145,256109,1,8,0:0:0:0:
260,118,256185,1,8,0:0:0:0:
260,118,256260,1,8,0:0:0:0:
260,118,256336,1,0,0:0:0:0:
354,138,256562,1,0,0:0:0:0:
307,170,256789,1,0,0:0:0:0:
304,177,257015,1,0,0:0:0:0:
304,177,257241,1,8,0:0:0:0:
303,179,257468,1,8,0:0:0:0:
305,179,257694,1,0,0:0:0:0:
304,177,258034,1,8,0:0:0:0:
304,177,258147,1,0,0:0:0:0:
244,189,259053,1,8,0:0:0:0:
244,189,259506,1,8,0:0:0:0:
244,189,259732,1,8,0:0:0:0:
244,189,259958,1,0,0:0:0:0:
252,164,260185,1,0,0:0:0:0:
252,164,260411,1,0,0:0:0:0:
252,164,260638,1,0,0:0:0:0:
252,164,260864,1,8,0:0:0:0:
252,164,261090,1,8,0:0:0:0:
252,164,261317,1,0,0:0:0:0:
225,157,261656,1,8,0:0:0:0:
225,157,261770,1,4,0:0:0:0:
231,181,262223,1,0,0:0:0:0:
268,157,262675,1,8,0:0:0:0:
268,157,263128,1,0,0:0:0:0:
268,157,263581,1,0,0:0:0:0:
268,157,264034,1,0,0:0:0:0:
268,157,264487,1,8,0:0:0:0:
268,157,264940,1,0,0:0:0:0:
268,157,265392,1,0,0:0:0:0:
268,157,265845,1,0,0:0:0:0:
268,157,266298,1,8,0:0:0:0:
268,157,266751,1,0,0:0:0:0:
268,157,267204,1,8,0:0:0:0:
268,157,267656,1,8,0:0:0:0:
268,157,268109,1,0,0:0:0:0:
268,157,268562,1,0,0:0:0:0:
251,168,269015,1,8,0:0:0:0:
217,115,269355,1,0,0:0:0:0:
254,189,269468,1,8,0:0:0:0:
251,153,269581,1,0,0:0:0:0:
217,115,269807,1,0,0:0:0:0:
217,115,269921,1,8,0:0:0:0:
217,115,270260,1,0,0:0:0:0:
256,195,270373,1,8,0:0:0:0:
217,115,270487,1,0,0:0:0:0:
217,115,270600,1,0,0:0:0:0:
256,195,270826,1,8,0:0:0:0:
215,165,271166,1,0,0:0:0:0:
215,165,271279,1,8,0:0:0:0:
215,165,271392,1,0,0:0:0:0:
215,165,271619,1,0,0:0:0:0:
256,195,271732,1,8,0:0:0:0:
240,148,272072,1,0,0:0:0:0:
256,195,272185,1,8,0:0:0:0:
240,148,272298,1,0,0:0:0:0:
240,148,272411,1,0,0:0:0:0:
256,195,272638,1,8,0:0:0:0:
240,148,272864,1,0,0:0:0:0:
240,148,272977,1,0,0:0:0:0:
256,195,273090,1,8,0:0:0:0:
240,148,273204,1,0,0:0:0:0:
240,148,273430,1,0,0:0:0:0:
256,195,273543,1,8,0:0:0:0:
211,172,273770,1,0,0:0:0:0:
242,178,273883,1,0,0:0:0:0:
256,195,273996,1,8,0:0:0:0:
242,178,274109,1,0,0:0:0:0:
242,178,274223,1,0,0:0:0:0:
256,195,274449,1,8,0:0:0:0:
248,170,274675,1,0,0:0:0:0:
248,170,274789,1,0,0:0:0:0:
248,170,274902,1,8,0:0:0:0:
248,170,275015,1,0,0:0:0:0:
247,170,275128,1,0,0:0:0:0:
247,170,275241,1,0,0:0:0:0:
321,186,275298,1,0,0:0:0:0:
256,195,275355,1,8,0:0:0:0:
306,177,275468,1,0,0:0:0:0:
310,183,275581,1,8,0:0:0:0:
310,183,275694,1,8,0:0:0:0:
256,195,275807,1,0,0:0:0:0:
254,185,275864,1,0,0:0:0:0:
254,185,275921,1,0,0:0:0:0:
254,185,275977,1,0,0:0:0:0:
254,185,276034,1,8,0:0:0:0:
254,185,276090,1,8,0:0:0:0:
253,185,276147,1,8,0:0:0:0:
249,183,276204,1,8,0:0:0:0:
248,182,276260,1,4,0:0:0:0:
255,183,276487,1,8,0:0:0:0:
255,183,276600,1,0,0:0:0:0:
255,183,276713,1,0,0:0:0:0:
255,183,276826,1,0,0:0:0:0:
254,185,276940,1,8,0:0:0:0:
243,188,277279,1,0,0:0:0:0:
243,188,277506,1,0,0:0:0:0:
243,188,277732,1,8,0:0:0:0:
243,188,278072,1,8,0:0:0:0:
272,192,278524,1,0,0:0:0:0:
272,192,278638,1,0,0:0:0:0:
272,192,278864,1,8,0:0:0:0:
272,192,279090,1,8,0:0:0:0:
272,192,279204,1,0,0:0:0:0:
272,192,279317,1,0,0:0:0:0:
272,192,279430,1,8,0:0:0:0:
272,192,279543,1,0,0:0:0:0:
272,192,279656,1,8,0:0:0:0:
272,192,279770,1,8,0:0:0:0:
272,192,279883,1,0,0:0:0:0:
240,192,280223,1,0,0:0:0:0:
240,144,280449,1,0,0:0:0:0:
288,176,280675,1,8,0:0:0:0:
240,144,280902,1,8,0:0:0:0:
384,176,281015,1,0,0:0:0:0:
400,192,281128,1,0,0:0:0:0:
352,208,281241,1,8,0:0:0:0:
352,208,281355,1,0,0:0:0:0:
320,208,281468,1,8,0:0:0:0:
320,208,281581,1,8,0:0:0:0:
176,144,281638,1,8,0:0:0:0:
320,208,281694,1,4,0:0:0:0:
256,128,282034,1,4,0:0:0:0:
272,160,282487,1,4,0:0:0:0:
256,192,282600,12,0,282940,0:0:0:0:
224,160,283053,5,0,0:0:0:0:
224,160,283166,1,0,0:0:0:0:
208,128,283279,1,8,0:0:0:0:
240,144,283392,1,8,0:0:0:0:
240,144,283506,5,4,0:0:0:0:
304,144,283619,1,0,0:0:0:0:
304,144,283732,1,8,0:0:0:0:
304,144,283845,1,0,0:0:0:0:
304,144,283958,1,0,0:0:0:0:
304,160,284072,1,8,0:0:0:0:
208,160,284185,1,0,0:0:0:0:
256,192,284241,1,8,0:0:0:0:
256,192,284298,1,0,0:0:0:0:
256,192,284355,1,8,0:0:0:0:
256,192,284411,1,4,0:0:0:0:
240,160,284524,1,0,0:0:0:0:
272,176,284638,1,8,0:0:0:0:
272,176,284751,1,0,0:0:0:0:
272,176,284864,1,0,0:0:0:0:
272,176,284977,1,8,0:0:0:0:
272,176,285090,1,4,0:0:0:0:
240,144,285317,1,4,0:0:0:0:
160,160,285430,1,0,0:0:0:0:
240,176,285543,1,8,0:0:0:0:
240,176,285656,1,0,0:0:0:0:
256,176,285770,1,0,0:0:0:0:
256,176,285883,1,8,0:0:0:0:
256,176,285996,1,8,0:0:0:0:
208,160,286053,1,0,0:0:0:0:
320,144,286109,1,8,0:0:0:0:
320,144,286223,1,0,0:0:0:0:
288,208,286279,1,0,0:0:0:0:
288,208,286336,1,0,0:0:0:0:
288,208,286392,1,0,0:0:0:0:
288,208,286449,1,8,0:0:0:0:
288,208,286506,1,8,0:0:0:0:
288,208,286562,1,0,0:0:0:0:
288,208,286619,1,0,0:0:0:0:
288,224,286675,1,0,0:0:0:0:
288,224,286732,1,0,0:0:0:0:
288,224,286789,1,8,0:0:0:0:
320,208,286845,1,8,0:0:0:0:
336,176,286902,1,0,0:0:0:0:
320,160,287015,1,0,0:0:0:0:
288,160,287128,1,4,0:0:0:0:
224,192,287241,1,0,0:0:0:0:
224,192,287355,1,8,0:0:0:0:
224,192,287468,1,0,0:0:0:0:
224,192,287581,1,0,0:0:0:0:
224,192,287694,1,8,0:0:0:0:
224,192,287807,1,0,0:0:0:0:
240,144,287864,1,0,0:0:0:0:
224,192,287921,1,8,0:0:0:0:
304,160,288034,1,4,0:0:0:0:
304,160,288147,1,0,0:0:0:0:
304,160,288260,1,8,0:0:0:0:
272,192,288373,1,0,0:0:0:0:
272,192,288487,1,0,0:0:0:0:
272,192,288600,1,8,0:0:0:0:
304,176,288713,1,8,0:0:0:0:
304,176,288770,1,8,0:0:0:0:
304,176,288826,1,8,0:0:0:0:
304,176,288883,1,8,0:0:0:0:
304,176,288940,1,4,0:0:0:0:
288,208,289053,1,0,0:0:0:0:
288,208,289166,1,8,0:0:0:0:
288,208,289279,1,0,0:0:0:0:
288,208,289392,1,0,0:0:0:0:
288,208,289506,1,8,0:0:0:0:
256,176,289619,1,0,0:0:0:0:
256,176,289675,1,0,0:0:0:0:
256,176,289732,1,8,0:0:0:0:
256,176,289789,1,8,0:0:0:0:
256,176,289845,1,4,0:0:0:0:
256,128,289958,1,0,0:0:0:0:
256,160,290072,1,8,0:0:0:0:
256,160,290128,1,8,0:0:0:0:
256,160,290185,1,0,0:0:0:0:
208,144,290298,1,0,0:0:0:0:
208,160,290355,1,0,0:0:0:0:
224,160,290411,1,8,0:0:0:0:
272,224,290524,1,8,0:0:0:0:
240,192,290638,1,0,0:0:0:0:
272,176,290751,1,8,0:0:0:0:
256,192,290807,1,8,0:0:0:0:
256,192,290864,1,0,0:0:0:0:
256,192,290921,1,8,0:0:0:0:
256,192,290977,1,0,0:0:0:0:
256,192,291034,1,8,0:0:0:0:
256,192,291090,1,8,0:0:0:0:
256,192,291147,1,8,0:0:0:0:
256,192,291204,1,0,0:0:0:0:
256,192,291260,1,0,0:0:0:0:
256,192,291317,1,8,0:0:0:0:
256,192,291373,1,0,0:0:0:0:
256,192,291430,1,8,0:0:0:0:
256,192,291487,1,8,0:0:0:0:
256,192,291543,1,0,0:0:0:0:
256,192,291600,1,0,0:0:0:0:
240,192,291656,1,8,0:0:0:0:
256,192,291713,1,8,0:0:0:0:
256,192,291770,1,8,0:0:0:0:
256,192,291826,1,0,0:0:0:0:
256,192,291883,1,8,0:0:0:0:
256,192,291940,1,0,0:0:0:0:
256,192,291996,1,0,0:0:0:0:
256,192,292053,1,8,0:0:0:0:
256,192,292109,1,0,0:0:0:0:
256,192,292166,1,8,0:0:0:0:
256,192,292223,1,8,0:0:0:0:
256,192,292279,1,0,0:0:0:0:
256,192,292336,1,8,0:0:0:0:
256,160,292449,1,8,0:0:0:0:
272,144,292562,1,0,0:0:0:0:
256,192,292619,1,8,0:0:0:0:
272,192,292675,1,8,0:0:0:0:
272,192,292732,1,8,0:0:0:0:
272,192,292789,1,0,0:0:0:0:
272,192,292845,1,8,0:0:0:0:
272,192,292902,1,0,0:0:0:0:
272,192,292958,1,8,0:0:0:0:
272,192,293015,1,8,0:0:0:0:
272,192,293072,1,0,0:0:0:0:
272,192,293128,1,0,0:0:0:0:
272,192,293185,1,8,0:0:0:0:
272,192,293241,1,0,0:0:0:0:
272,192,293298,1,0,0:0:0:0:
272,192,293355,1,8,0:0:0:0:
272,192,293411,1,8,0:0:0:0:
272,192,293468,1,0,0:0:0:0:
272,192,293524,1,8,0:0:0:0:
272,192,293581,1,0,0:0:0:0:
272,192,293638,1,0,0:0:0:0:
272,192,293694,1,8,0:0:0:0:
272,192,293751,1,0,0:0:0:0:
272,192,293807,1,0,0:0:0:0:
272,192,293864,1,8,0:0:0:0:
272,192,293921,1,8,0:0:0:0:
272,192,293977,1,0,0:0:0:0:
272,192,294034,1,8,0:0:0:0:
272,192,294090,1,8,0:0:0:0:
272,192,294147,1,0,0:0:0:0:
272,192,294260,1,0,0:0:0:0:
256,192,294373,1,8,0:0:0:0:
256,192,294430,1,8,0:0:0:0:
208,176,294487,1,0,0:0:0:0:
208,176,294543,1,8,0:0:0:0:
224,176,294600,1,0,0:0:0:0:
224,176,294656,1,0,0:0:0:0:
224,176,294713,1,8,0:0:0:0:
224,176,294770,1,0,0:0:0:0:
256,192,294826,1,8,0:0:0:0:
256,192,294883,1,8,0:0:0:0:
256,192,294940,1,0,0:0:0:0:
240,176,294996,1,8,0:0:0:0:
240,176,295053,1,8,0:0:0:0:
240,176,295109,1,8,0:0:0:0:
240,176,295166,1,0,0:0:0:0:
96,32,295223,1,0,0:0:0:0:
256,192,295279,1,8,0:0:0:0:
256,192,295336,1,8,0:0:0:0:
256,192,295392,1,8,0:0:0:0:
240,176,295449,1,0,0:0:0:0:
256,192,295506,1,8,0:0:0:0:
256,192,295562,1,8,0:0:0:0:
256,192,295619,1,0,0:0:0:0:
240,176,295675,1,8,0:0:0:0:
256,192,295732,1,0,0:0:0:0:
256,192,295789,1,8,0:0:0:0:
256,192,295845,1,8,0:0:0:0:
240,176,295902,1,0,0:0:0:0:
256,192,295958,1,8,0:0:0:0:
256,192,296015,1,0,0:0:0:0:
256,192,296072,1,8,0:0:0:0:
256,192,296128,1,8,0:0:0:0:
256,192,296185,1,0,0:0:0:0:
256,160,296411,1,8,0:0:0:0:
256,176,296524,1,0,0:0:0:0:
256,176,296581,1,0,0:0:0:0:
256,176,296638,1,8,0:0:0:0:
256,176,296751,1,0,0:0:0:0:
256,176,296864,1,0,0:0:0:0:
256,176,296977,1,8,0:0:0:0:
256,176,297090,1,0,0:0:0:0:
272,160,297204,1,0,0:0:0:0:
272,160,297317,1,0,0:0:0:0:
224,176,297430,1,8,0:0:0:0:
224,176,297487,1,8,0:0:0:0:
192,176,297543,1,0,0:0:0:0:
224,160,297656,1,0,0:0:0:0:
224,160,297713,1,0,0:0:0:0:
208,160,297770,1,8,0:0:0:0:
240,176,297996,1,4,0:0:0:0:
272,160,298902,1,8,0:0:0:0:
272,160,299015,1,8,0:0:0:0:
272,160,299128,1,8,0:0:0:0:
272,160,299241,1,8,0:0:0:0:
272,160,299355,1,8,0:0:0:0:
272,160,299468,1,8,0:0:0:0:
272,160,299581,1,8,0:0:0:0:
240,160,299694,1,0,0:0:0:0:
224,160,299751,1,0,0:0:0:0:
224,160,299807,1,8,0:0:0:0:
288,176,299921,1,0,0:0:0:0:
288,176,300034,1,8,0:0:0:0:
288,176,300147,1,0,0:0:0:0:
288,176,300260,1,8,0:0:0:0:
288,176,300373,1,0,0:0:0:0:
272,144,300487,5,8,0:0:0:0:
272,160,300600,1,0,0:0:0:0:
272,160,300713,1,8,0:0:0:0:
240,176,300770,1,8,0:0:0:0:
240,176,300826,1,8,0:0:0:0:
240,176,300883,1,8,0:0:0:0:
240,176,300940,1,0,0:0:0:0:
240,176,300996,1,0,0:0:0:0:
240,176,301053,1,0,0:0:0:0:
240,176,301109,1,0,0:0:0:0:
240,176,301166,1,8,0:0:0:0:
240,176,301223,1,0,0:0:0:0:
240,176,301279,1,8,0:0:0:0:
240,176,301336,1,8,0:0:0:0:
240,176,301392,1,0,0:0:0:0:
240,176,301449,1,8,0:0:0:0:
240,176,301506,1,8,0:0:0:0:
240,176,301562,1,8,0:0:0:0:
224,176,301619,1,4,0:0:0:0:
256,160,301732,1,0,0:0:0:0:
272,128,301789,1,0,0:0:0:0:
256,160,301845,1,8,0:0:0:0:
256,160,301958,1,8,0:0:0:0:
240,144,302072,1,0,0:0:0:0:
240,144,302128,1,0,0:0:0:0:
240,80,302185,1,8,0:0:0:0:
240,128,302241,1,0,0:0:0:0:
272,144,302298,1,0,0:0:0:0:
304,176,302411,1,8,0:0:0:0:
304,176,302468,1,8,0:0:0:0:
304,176,302524,1,0,0:0:0:0:
240,144,302638,1,8,0:0:0:0:
304,176,302751,1,0,0:0:0:0:
304,176,302807,1,8,0:0:0:0:
304,176,302864,1,0,0:0:0:0:
304,176,302921,1,0,0:0:0:0:
304,176,302977,1,8,0:0:0:0:
272,160,303090,1,0,0:0:0:0:
272,160,303204,1,8,0:0:0:0:
272,160,303260,1,8,0:0:0:0:
272,160,303317,1,8,0:0:0:0:
160,144,303373,1,8,0:0:0:0:
288,176,303430,1,0,0:0:0:0:
256,176,303543,1,8,0:0:0:0:
256,192,303581,1,8,0:0:0:0:
256,192,303619,1,8,0:0:0:0:
256,192,303656,1,0,0:0:0:0:
240,176,303770,1,8,0:0:0:0:
240,176,303807,1,8,0:0:0:0:
240,176,303845,1,8,0:0:0:0:
240,176,303883,1,0,0:0:0:0:
224,160,303996,1,8,0:0:0:0:
224,160,304053,1,8,0:0:0:0:
224,160,304109,1,0,0:0:0:0:
224,160,304166,1,8,0:0:0:0:
224,160,304223,1,8,0:0:0:0:
224,160,304279,1,8,0:0:0:0:
224,160,304336,1,0,0:0:0:0:
224,192,304449,1,8,0:0:0:0:
215,142,304487,1,8,0:0:0:0:
215,142,304524,1,8,0:0:0:0:
224,192,304562,1,0,0:0:0:0:
224,192,304675,1,0,0:0:0:0:
224,192,304789,1,8,0:0:0:0:
201,142,304826,1,8,0:0:0:0:
224,192,304864,1,8,0:0:0:0:
224,192,304902,1,0,0:0:0:0:
224,192,304958,1,0,0:0:0:0:
224,192,305015,1,8,0:0:0:0:
224,192,305072,1,0,0:0:0:0:
224,192,305128,1,8,0:0:0:0:
224,192,305185,1,8,0:0:0:0:
224,192,305241,1,4,0:0:0:0:
192,192,305355,1,8,0:0:0:0:
224,176,305411,1,8,0:0:0:0:
224,176,305468,1,0,0:0:0:0:
224,176,305581,1,8,0:0:0:0:
224,176,305694,1,0,0:0:0:0:
224,176,305751,1,0,0:0:0:0:
224,176,305807,1,8,0:0:0:0:
224,176,305864,1,0,0:0:0:0:
224,176,305921,1,8,0:0:0:0:
112,160,306034,1,0,0:0:0:0:
112,160,306090,1,0,0:0:0:0:
112,160,306147,1,8,0:0:0:0:
272,144,306260,1,8,0:0:0:0:
272,144,306317,1,0,0:0:0:0:
272,144,306373,1,0,0:0:0:0:
272,144,306430,1,8,0:0:0:0:
256,144,306487,1,0,0:0:0:0:
256,144,306543,1,8,0:0:0:0:
256,144,306600,1,8,0:0:0:0:
288,160,306713,1,0,0:0:0:0:
288,160,306770,1,0,0:0:0:0:
288,160,306826,1,8,0:0:0:0:
288,160,306940,1,8,0:0:0:0:
288,160,307053,1,0,0:0:0:0:
160,160,307109,1,8,0:0:0:0:
160,160,307166,1,0,0:0:0:0:
160,160,307223,1,8,0:0:0:0:
160,160,307279,1,0,0:0:0:0:
240,176,307392,1,8,0:0:0:0:
240,176,307506,1,0,0:0:0:0:
240,176,307562,1,0,0:0:0:0:
240,176,307619,1,8,0:0:0:0:
240,176,307675,1,8,0:0:0:0:
240,176,307732,1,0,0:0:0:0:
208,192,307789,1,8,0:0:0:0:
240,176,307845,1,8,0:0:0:0:
208,192,307902,1,8,0:0:0:0:
160,176,307958,1,0,0:0:0:0:
256,144,308072,1,8,0:0:0:0:
272,160,308185,1,0,0:0:0:0:
272,160,308241,1,0,0:0:0:0:
272,160,308298,1,8,0:0:0:0:
256,128,308411,1,0,0:0:0:0:
304,176,308468,1,8,0:0:0:0:
304,176,308524,1,0,0:0:0:0:
304,176,308581,1,8,0:0:0:0:
304,176,308638,1,8,0:0:0:0:
304,176,308751,1,8,0:0:0:0:
304,176,308864,1,0,0:0:0:0:
272,192,308921,1,0,0:0:0:0:
272,192,308977,1,0,0:0:0:0:
272,192,309034,1,0,0:0:0:0:
272,192,309090,1,8,0:0:0:0:
272,192,309204,1,8,0:0:0:0:
272,192,309317,1,0,0:0:0:0:
272,192,309430,1,0,0:0:0:0:
272,192,309487,1,0,0:0:0:0:
272,192,309543,1,8,0:0:0:0:
272,192,309656,1,0,0:0:0:0:
256,192,309713,1,0,0:0:0:0:
256,192,309770,1,8,0:0:0:0:
288,160,309807,1,8,0:0:0:0:
288,160,309845,1,8,0:0:0:0:
288,160,309883,1,0,0:0:0:0:
272,160,309996,1,8,0:0:0:0:
272,160,310053,1,8,0:0:0:0:
272,160,310109,1,0,0:0:0:0:
272,160,310166,1,8,0:0:0:0:
272,160,310223,1,0,0:0:0:0:
272,160,310336,1,0,0:0:0:0:
272,160,310392,1,0,0:0:0:0:
272,160,310449,1,8,0:0:0:0:
272,160,310506,1,0,0:0:0:0:
272,160,310562,1,8,0:0:0:0:
224,80,310619,1,8,0:0:0:0:
304,144,310675,1,0,0:0:0:0:
304,144,310789,1,0,0:0:0:0:
128,176,310902,1,8,0:0:0:0:
176,176,310940,1,8,0:0:0:0:
176,176,310977,1,8,0:0:0:0:
176,176,311015,1,0,0:0:0:0:
256,160,311128,1,0,0:0:0:0:
224,192,311241,1,8,0:0:0:0:
224,192,311279,1,8,0:0:0:0:
224,192,311317,1,8,0:0:0:0:
192,176,311355,1,0,0:0:0:0:
256,176,311468,1,8,0:0:0:0:
256,176,311506,1,8,0:0:0:0:
256,176,311543,1,8,0:0:0:0:
256,176,311581,1,0,0:0:0:0:
256,160,311638,1,8,0:0:0:0:
256,144,311694,1,0,0:0:0:0:
256,144,311751,1,0,0:0:0:0:
256,144,311807,1,8,0:0:0:0:
256,144,311864,1,0,0:0:0:0:
256,144,311921,1,8,0:0:0:0:
256,144,311977,1,8,0:0:0:0:
256,144,312034,1,0,0:0:0:0:
256,144,312147,1,0,0:0:0:0:
256,144,312260,1,8,0:0:0:0:
256,144,312373,1,8,0:0:0:0:
256,144,312487,1,4,0:0:0:0:
160,160,312600,1,0,0:0:0:0:
192,160,312656,1,0,0:0:0:0:
208,160,312713,1,8,0:0:0:0:
208,160,312770,1,0,0:0:0:0:
208,160,312826,1,8,0:0:0:0:
272,176,312940,1,0,0:0:0:0:
256,176,312996,1,0,0:0:0:0:
256,176,313053,1,8,0:0:0:0:
272,176,313109,1,0,0:0:0:0:
272,176,313166,1,0,0:0:0:0:
272,176,313279,1,8,0:0:0:0:
274,162,313336,1,8,0:0:0:0:
272,176,313392,1,0,0:0:0:0:
208,224,313506,1,8,0:0:0:0:
208,224,313562,1,0,0:0:0:0:
208,224,313619,1,8,0:0:0:0:
208,224,313675,1,8,0:0:0:0:
208,224,313732,1,0,0:0:0:0:
208,224,313789,1,8,0:0:0:0:
192,224,313845,1,0,0:0:0:0:
183,188,313902,1,8,0:0:0:0:
272,176,313958,1,8,0:0:0:0:
177,146,314015,1,0,0:0:0:0:
272,176,314072,1,8,0:0:0:0:
272,176,314128,1,8,0:0:0:0:
272,176,314185,1,8,0:0:0:0:
256,176,314241,1,8,0:0:0:0:
176,160,314298,1,4,0:0:0:0:
272,160,314638,1,4,0:0:0:0:
272,160,315090,1,4,0:0:0:0:
256,192,315656,1,8,0:0:0:0:
272,208,315713,1,8,0:0:0:0:
272,208,315770,1,0,0:0:0:0:
272,208,315826,1,0,0:0:0:0:
272,208,315883,1,8,0:0:0:0:
272,208,315996,1,8,0:0:0:0:
272,208,316109,1,4,0:0:0:0:
224,144,316223,1,0,0:0:0:0:
256,144,316279,1,0,0:0:0:0:
160,144,316336,1,8,0:0:0:0:
256,144,316449,1,8,0:0:0:0:
256,144,316506,1,8,0:0:0:0:
301,120,316562,1,0,0:0:0:0:
224,144,316619,1,8,0:0:0:0:
224,144,316675,1,0,0:0:0:0:
224,144,316732,1,8,0:0:0:0:
224,144,316789,1,8,0:0:0:0:
224,144,316845,1,8,0:0:0:0:
224,144,316902,1,0,0:0:0:0:
224,144,316958,1,0,0:0:0:0:
224,144,317015,1,8,0:0:0:0:
256,160,317128,1,0,0:0:0:0:
331,174,317185,1,8,0:0:0:0:
256,160,317241,1,8,0:0:0:0:
256,160,317355,1,0,0:0:0:0:
256,160,317411,1,8,0:0:0:0:
256,160,317468,1,0,0:0:0:0:
331,174,317524,1,0,0:0:0:0:
320,160,317581,1,8,0:0:0:0:
320,176,317638,1,0,0:0:0:0:
320,176,317694,1,8,0:0:0:0:
331,174,317751,1,8,0:0:0:0:
320,176,317807,1,0,0:0:0:0:
339,148,317864,1,0,0:0:0:0:
256,192,317921,1,8,0:0:0:0:
272,192,318034,1,0,0:0:0:0:
272,192,318090,1,8,0:0:0:0:
272,192,318147,1,0,0:0:0:0:
272,192,318204,1,8,0:0:0:0:
272,192,318260,1,8,0:0:0:0:
272,192,318373,1,0,0:0:0:0:
272,160,318430,1,8,0:0:0:0:
272,160,318487,1,0,0:0:0:0:
272,160,318543,1,8,0:0:0:0:
272,160,318600,1,0,0:0:0:0:
301,142,318656,1,8,0:0:0:0:
224,160,318713,1,8,0:0:0:0:
301,142,318770,1,8,0:0:0:0:
272,192,318826,1,0,0:0:0:0:
272,192,318940,1,8,0:0:0:0:
272,192,318996,1,0,0:0:0:0:
272,192,319053,1,8,0:0:0:0:
272,192,319166,1,0,0:0:0:0:
272,192,319279,1,8,0:0:0:0:
272,192,319336,1,8,0:0:0:0:
272,192,319392,1,8,0:0:0:0:
272,192,319449,1,0,0:0:0:0:
256,176,319506,1,8,0:0:0:0:
256,176,319562,1,0,0:0:0:0:
256,176,319619,1,8,0:0:0:0:
256,176,319675,1,8,0:0:0:0:
240,176,319732,1,0,0:0:0:0:
240,144,319845,1,8,0:0:0:0:
240,144,319958,1,0,0:0:0:0:
208,144,320015,1,8,0:0:0:0:
240,144,320072,1,8,0:0:0:0:
314,140,320128,1,0,0:0:0:0:
314,140,320185,1,8,0:0:0:0:
288,192,320241,1,0,0:0:0:0:
288,192,320298,1,8,0:0:0:0:
288,192,320355,1,8,0:0:0:0:
288,192,320411,1,0,0:0:0:0:
288,192,320468,1,8,0:0:0:0:
288,192,320524,1,8,0:0:0:0:
290,139,320581,1,8,0:0:0:0:
240,176,320638,1,0,0:0:0:0:
240,176,320751,1,0,0:0:0:0:
240,176,320807,1,0,0:0:0:0:
240,176,320864,1,8,0:0:0:0:
240,176,320977,1,8,0:0:0:0:
224,160,321090,1,0,0:0:0:0:
272,160,321147,1,0,0:0:0:0:
272,160,321204,1,8,0:0:0:0:
272,160,321260,1,0,0:0:0:0:
272,160,321317,1,0,0:0:0:0:
272,160,321373,1,8,0:0:0:0:
272,160,321430,1,8,0:0:0:0:
256,176,321543,1,0,0:0:0:0:
256,176,321656,1,8,0:0:0:0:
256,176,321713,1,8,0:0:0:0:
256,176,321770,1,0,0:0:0:0:
256,160,321826,1,8,0:0:0:0:
256,160,321883,1,0,0:0:0:0:
256,160,321940,1,8,0:0:0:0:
208,160,321996,1,8,0:0:0:0:
320,144,322053,1,0,0:0:0:0:
336,192,322109,1,8,0:0:0:0:
320,144,322166,1,0,0:0:0:0:
336,192,322223,1,8,0:0:0:0:
304,192,322279,1,8,0:0:0:0:
288,176,322336,1,0,0:0:0:0:
256,208,322392,1,0,0:0:0:0:
288,176,322449,1,8,0:0:0:0:
304,144,322506,1,8,0:0:0:0:
304,144,322562,1,0,0:0:0:0:
288,144,322675,1,8,0:0:0:0:
304,160,322789,1,0,0:0:0:0:
304,160,322845,1,0,0:0:0:0:
304,160,322902,1,8,0:0:0:0:
308,173,322958,1,0,0:0:0:0:
256,128,323015,1,8,0:0:0:0:
283,167,323072,1,8,0:0:0:0:
272,144,323128,1,0,0:0:0:0:
272,144,323241,1,8,0:0:0:0:
208,144,323355,1,4,0:0:0:0:
160,144,323468,1,8,0:0:0:0:
288,160,323581,1,8,0:0:0:0:
288,160,323638,1,8,0:0:0:0:
288,160,323694,1,0,0:0:0:0:
288,160,323751,1,0,0:0:0:0:
288,160,323807,1,8,0:0:0:0:
288,160,323921,1,0,0:0:0:0:
288,160,323977,1,0,0:0:0:0:
288,160,324034,1,8,0:0:0:0:
288,160,324147,1,8,0:0:0:0:
288,160,324260,1,0,0:0:0:0:
176,176,324317,1,8,0:0:0:0:
192,176,324373,1,0,0:0:0:0:
415,246,324430,1,0,0:0:0:0:
192,176,324487,1,8,0:0:0:0:
192,176,324543,1,8,0:0:0:0:
192,176,324600,1,8,0:0:0:0:
192,176,324713,1,0,0:0:0:0:
272,144,324770,1,0,0:0:0:0:
192,176,324826,1,8,0:0:0:0:
192,176,324883,1,8,0:0:0:0:
192,176,324940,1,8,0:0:0:0:
192,176,324996,1,0,0:0:0:0:
192,176,325053,1,8,0:0:0:0:
192,176,325109,1,8,0:0:0:0:
192,176,325166,1,0,0:0:0:0:
176,144,325279,1,8,0:0:0:0:
256,192,325392,1,0,0:0:0:0:
256,192,325449,1,0,0:0:0:0:
256,192,325506,1,8,0:0:0:0:
256,192,325562,1,8,0:0:0:0:
256,192,325619,1,0,0:0:0:0:
256,192,325675,1,8,0:0:0:0:
256,192,325732,1,8,0:0:0:0:
256,192,325789,1,8,0:0:0:0:
256,192,325845,1,0,0:0:0:0:
256,192,325902,1,8,0:0:0:0:
256,192,325958,1,0,0:0:0:0:
256,192,326015,1,0,0:0:0:0:
256,192,326072,1,8,0:0:0:0:
256,192,326128,1,8,0:0:0:0:
256,192,326185,1,0,0:0:0:0:
272,208,326241,1,0,0:0:0:0:
272,208,326298,1,8,0:0:0:0:
272,208,326355,1,8,0:0:0:0:
272,208,326411,1,0,0:0:0:0:
272,208,326468,1,8,0:0:0:0:
272,208,326524,1,0,0:0:0:0:
272,208,326581,1,8,0:0:0:0:
272,192,326638,1,8,0:0:0:0:
272,192,326694,1,0,0:0:0:0:
272,192,326751,1,8,0:0:0:0:
272,192,326807,1,0,0:0:0:0:
256,192,326864,1,8,0:0:0:0:
256,192,326921,1,8,0:0:0:0:
240,192,326977,1,4,0:0:0:0:
320,240,327090,1,8,0:0:0:0:
320,240,327147,1,8,0:0:0:0:
320,240,327204,1,0,0:0:0:0:
224,144,327317,1,8,0:0:0:0:
240,144,327373,1,8,0:0:0:0:
240,144,327430,1,0,0:0:0:0:
174,146,327487,1,8,0:0:0:0:
272,160,327543,1,0,0:0:0:0:
272,128,327600,1,0,0:0:0:0:
272,128,327656,1,8,0:0:0:0:
272,128,327713,1,0,0:0:0:0:
272,128,327770,1,8,0:0:0:0:
256,128,327826,1,8,0:0:0:0:
272,128,327883,1,0,0:0:0:0:
208,160,327996,1,8,0:0:0:0:
224,176,328053,1,8,0:0:0:0:
224,176,328109,1,0,0:0:0:0:
246,172,328166,1,8,0:0:0:0:
240,160,328223,1,0,0:0:0:0:
240,160,328279,1,8,0:0:0:0:
240,160,328336,1,8,0:0:0:0:
246,172,328392,1,0,0:0:0:0:
288,176,328449,1,8,0:0:0:0:
288,176,328506,1,0,0:0:0:0:
288,176,328562,1,8,0:0:0:0:
288,176,328619,1,8,0:0:0:0:
288,176,328675,1,8,0:0:0:0:
288,176,328732,1,8,0:0:0:0:
288,176,328789,1,4,0:0:0:0:
288,176,329128,1,4,0:0:0:0:
288,176,329581,1,12,0:0:0:0:
256,192,330147,1,0,0:0:0:0:
256,192,330204,1,0,0:0:0:0:
256,192,330260,1,0,0:0:0:0:
256,192,330317,1,0,0:0:0:0:
256,192,330373,1,8,0:0:0:0:
256,192,330487,1,8,0:0:0:0:
256,192,330600,1,4,0:0:0:0:
192,160,330826,1,8,0:0:0:0:
240,176,330940,1,8,0:0:0:0:
240,176,331053,1,0,0:0:0:0:
272,144,331166,1,8,0:0:0:0:
272,144,331279,1,8,0:0:0:0:
272,144,331392,1,8,0:0:0:0:
272,144,331506,1,0,0:0:0:0:
256,144,331619,1,8,0:0:0:0:
256,144,331675,1,8,0:0:0:0:
256,144,331732,1,8,0:0:0:0:
256,144,331845,1,8,0:0:0:0:
256,144,331958,1,0,0:0:0:0:
256,144,332015,1,8,0:0:0:0:
256,144,332072,1,8,0:0:0:0:
272,128,332128,1,8,0:0:0:0:
272,128,332185,1,0,0:0:0:0:
256,144,332298,1,0,0:0:0:0:
256,144,332411,1,8,0:0:0:0:
320,160,332468,1,8,0:0:0:0:
320,160,332524,1,0,0:0:0:0:
224,176,332581,1,0,0:0:0:0:
256,176,332638,1,8,0:0:0:0:
256,176,332751,1,8,0:0:0:0:
256,160,332864,1,0,0:0:0:0:
256,160,332921,1,0,0:0:0:0:
240,128,332977,1,0,0:0:0:0:
272,160,333090,1,8,0:0:0:0:
272,160,333147,1,8,0:0:0:0:
272,160,333204,1,8,0:0:0:0:
256,160,333317,5,0,0:0:0:0:
304,176,333373,1,0,0:0:0:0:
304,176,333430,1,8,0:0:0:0:
304,176,333543,1,8,0:0:0:0:
304,176,333600,1,8,0:0:0:0:
304,176,333656,1,0,0:0:0:0:
304,176,333770,1,0,0:0:0:0:
304,176,333826,1,0,0:0:0:0:
304,176,333883,1,0,0:0:0:0:
304,176,333996,1,8,0:0:0:0:
304,176,334053,1,8,0:0:0:0:
304,176,334109,1,8,0:0:0:0:
304,176,334223,1,4,0:0:0:0:
208,144,334449,1,8,0:0:0:0:
224,144,334562,1,8,0:0:0:0:
224,144,334675,1,0,0:0:0:0:
320,208,334789,1,8,0:0:0:0:
217,117,334902,1,8,0:0:0:0:
320,208,334958,1,8,0:0:0:0:
320,208,335015,1,8,0:0:0:0:
320,208,335072,1,8,0:0:0:0:
320,208,335128,1,0,0:0:0:0:
224,144,335241,1,8,0:0:0:0:
232,141,335298,1,8,0:0:0:0:
224,144,335355,1,8,0:0:0:0:
224,144,335468,1,8,0:0:0:0:
240,160,335581,1,0,0:0:0:0:
240,160,335638,1,0,0:0:0:0:
240,160,335694,1,0,0:0:0:0:
240,160,335751,1,0,0:0:0:0:
240,160,335807,1,8,0:0:0:0:
240,160,335864,1,8,0:0:0:0:
240,160,335921,1,8,0:0:0:0:
240,160,335977,1,8,0:0:0:0:
240,160,336034,1,0,0:0:0:0:
288,160,336260,1,8,0:0:0:0:
288,160,336373,1,0,0:0:0:0:
288,160,336487,1,0,0:0:0:0:
288,160,336600,1,8,0:0:0:0:
288,160,336713,1,0,0:0:0:0:
288,160,336826,1,0,0:0:0:0:
224,160,337053,1,8,0:0:0:0:
224,160,337166,1,0,0:0:0:0:
208,160,337279,1,0,0:0:0:0:
192,160,337392,1,8,0:0:0:0:
224,176,337506,1,0,0:0:0:0:
224,176,337562,1,0,0:0:0:0:
224,176,337619,1,8,0:0:0:0:
256,160,337732,1,8,0:0:0:0:
256,160,337845,1,4,0:0:0:0:
256,160,338185,1,4,0:0:0:0:
272,160,338411,1,0,0:0:0:0:
272,160,338524,1,8,0:0:0:0:
224,144,338638,1,8,0:0:0:0:
256,160,338751,1,4,0:0:0:0:
256,160,339090,1,4,0:0:0:0:
272,160,339317,1,0,0:0:0:0:
256,160,339430,1,8,0:0:0:0:
272,192,339487,1,8,0:0:0:0:
272,192,339543,1,8,0:0:0:0:
272,192,339600,1,8,0:0:0:0:
272,192,339656,1,4,0:0:0:0:
304,160,339996,1,4,0:0:0:0:
192,176,340449,1,12,0:0:0:0:
256,192,340562,12,0,343279,0:0:0:0:
