osu file format v14

[General]
AudioFilename: audio.mp3
AudioLeadIn: 0
PreviewTime: 239124
Countdown: 0
SampleSet: Soft
StackLeniency: 0.7
Mode: 3
LetterboxInBreaks: 0
SpecialStyle: 0
WidescreenStoryboard: 0

[Editor]
Bookmarks: 15426,29917,44407,58898,66143,80634,95124,109615,124105,138596,160332,174822,189313,207426,239124,256332,276256,301615,316105,330596
DistanceSpacing: 1.4
BeatDivisor: 4
GridSize: 4
TimelineZoom: 2.5

[Metadata]
Title:Rude Buster (Camellia Remix)
TitleUnicode:Rude Buster (かめりあ Remix)
Artist:Toby Fox
ArtistUnicode:Toby Fox
Creator:[GB]V1do
Version:FriENDs
Source:DELTARUNE
Tags:かめるかめりあ kamelcamellia cametek chapter 1 one undertale battle theme original soundtrack ost don't forget deltacore electronic instrumental english fa featured artist video game
BeatmapID:3519495
BeatmapSetID:1720248

[Difficulty]
HPDrainRate:8.5
CircleSize:4
OverallDifficulty:8
ApproachRate:5
SliderMultiplier:1.4
SliderTickRate:1

[Events]
//Background and Video events
0,0,"BG.jpg",0,0
//Break Periods
//Storyboard Layer 0 (Background)
//Storyboard Layer 1 (Fail)
//Storyboard Layer 2 (Pass)
//Storyboard Layer 3 (Foreground)
//Storyboard Layer 4 (Overlay)
//Storyboard Sound Samples

[TimingPoints]
936,226.415094339623,4,2,1,50,1,0
936,-166.666666666667,4,2,1,50,0,0
4558,-142.857142857143,4,2,1,50,0,0
5464,-129.87012987013,4,2,1,50,0,0
6369,-119.047619047619,4,2,1,50,0,0
7275,-111.111111111111,4,2,1,50,0,0
8181,-106.382978723404,4,2,1,50,0,0
14068,-103.092783505155,4,2,1,50,0,0
14520,-100,4,2,1,50,0,0
44407,-100,4,2,1,50,0,1
58898,-100,4,2,1,50,0,0
160332,-100,4,2,1,50,0,1
174822,-100,4,2,1,50,0,0
201086,-111.111111111111,4,2,1,50,0,0
206520,-125,4,2,1,50,0,0
206973,-142.857142857143,4,2,1,50,0,0
207426,-166.666666666667,4,2,1,50,0,0
214219,-153.846153846154,4,2,1,50,0,0
214445,-142.857142857143,4,2,1,50,0,0
214671,-133.333333333333,4,2,1,50,0,0
220105,-117.647058823529,4,2,1,50,0,0
225539,-105.263157894737,4,2,1,50,0,0
232785,-103.092783505155,4,2,1,50,0,0
236407,-100,4,2,1,50,0,0
240030,-100,4,2,1,50,0,1
256332,-133.333333333333,4,2,1,50,0,0
261766,-166.666666666667,4,2,1,50,0,0
262671,-142.857142857143,4,2,1,50,0,0
263577,-125,4,2,1,50,0,0
264483,-111.111111111111,4,2,1,50,0,0
265388,-100,4,2,1,50,0,0
301615,-100,4,2,1,50,0,1
340558,-100,4,2,1,50,0,0

[HitObjects]
64,192,936,128,0,4558:0:0:0:0:
192,192,936,1,0,0:0:0:0:
448,192,1275,1,0,0:0:0:0:
320,192,1615,1,0,0:0:0:0:
448,192,1841,1,0,0:0:0:0:
192,192,2181,1,0,0:0:0:0:
448,192,2520,1,0,0:0:0:0:
192,192,3426,1,0,0:0:0:0:
448,192,3652,1,0,0:0:0:0:
320,192,3992,1,0,0:0:0:0:
448,192,4558,1,0,0:0:0:0:
320,192,4558,1,0,0:0:0:0:
192,192,4898,1,0,0:0:0:0:
320,192,5237,1,0,0:0:0:0:
448,192,5464,1,0,0:0:0:0:
64,192,5464,1,0,0:0:0:0:
192,192,5803,1,0,0:0:0:0:
448,192,6143,1,0,0:0:0:0:
64,192,6369,1,0,0:0:0:0:
448,192,6369,1,0,0:0:0:0:
192,192,7049,1,0,0:0:0:0:
448,192,7275,1,0,0:0:0:0:
64,192,7275,1,0,0:0:0:0:
320,192,7615,1,0,0:0:0:0:
448,192,8181,1,0,0:0:0:0:
64,192,8181,1,0,0:0:0:0:
320,192,8181,1,0,0:0:0:0:
192,192,8181,1,0,0:0:0:0:
64,192,8294,1,0,0:0:0:0:
320,192,8407,1,0,0:0:0:0:
448,192,8520,1,0,0:0:0:0:
192,192,8520,1,0,0:0:0:0:
448,192,8634,1,0,0:0:0:0:
320,192,8634,1,0,0:0:0:0:
64,192,8634,1,0,0:0:0:0:
64,192,8747,1,0,0:0:0:0:
448,192,8860,1,0,0:0:0:0:
192,192,8860,1,0,0:0:0:0:
320,192,8973,1,0,0:0:0:0:
64,192,8973,1,0,0:0:0:0:
320,192,9086,1,0,0:0:0:0:
192,192,9086,1,0,0:0:0:0:
64,192,9086,1,0,0:0:0:0:
448,192,9086,1,0,0:0:0:0:
192,192,9200,1,0,0:0:0:0:
64,192,9313,1,0,0:0:0:0:
448,192,9426,1,0,0:0:0:0:
192,192,9426,1,0,0:0:0:0:
64,192,9539,1,0,0:0:0:0:
448,192,9539,1,0,0:0:0:0:
320,192,9539,1,0,0:0:0:0:
64,192,9652,1,0,0:0:0:0:
448,192,9766,1,0,0:0:0:0:
320,192,9766,1,0,0:0:0:0:
64,192,9879,1,0,0:0:0:0:
192,192,9992,1,0,0:0:0:0:
64,192,9992,1,0,0:0:0:0:
448,192,9992,1,0,0:0:0:0:
320,192,9992,1,0,0:0:0:0:
448,192,10105,1,0,0:0:0:0:
64,192,10219,1,0,0:0:0:0:
320,192,10219,1,0,0:0:0:0:
448,192,10332,1,0,0:0:0:0:
320,192,10445,1,0,0:0:0:0:
448,192,10445,1,0,0:0:0:0:
192,192,10445,1,0,0:0:0:0:
192,192,10558,1,0,0:0:0:0:
64,192,10671,1,0,0:0:0:0:
320,192,10671,1,0,0:0:0:0:
448,192,10785,1,0,0:0:0:0:
192,192,10785,1,0,0:0:0:0:
448,192,10898,1,0,0:0:0:0:
192,192,10898,1,0,0:0:0:0:
64,192,10898,1,0,0:0:0:0:
320,192,10898,1,0,0:0:0:0:
64,192,11011,1,0,0:0:0:0:
448,192,11124,1,0,0:0:0:0:
320,192,11237,1,0,0:0:0:0:
64,192,11237,1,0,0:0:0:0:
64,192,11351,1,0,0:0:0:0:
192,192,11351,1,0,0:0:0:0:
448,192,11351,1,0,0:0:0:0:
448,192,11464,1,0,0:0:0:0:
320,192,11464,1,0,0:0:0:0:
192,192,11577,1,0,0:0:0:0:
64,192,11577,1,0,0:0:0:0:
320,192,11690,1,0,0:0:0:0:
448,192,11690,1,0,0:0:0:0:
448,192,11803,1,0,0:0:0:0:
64,192,11803,1,0,0:0:0:0:
320,192,11803,1,0,0:0:0:0:
192,192,11803,1,0,0:0:0:0:
64,192,11917,1,0,0:0:0:0:
320,192,12030,1,0,0:0:0:0:
448,192,12143,1,0,0:0:0:0:
192,192,12143,1,0,0:0:0:0:
448,192,12256,1,0,0:0:0:0:
320,192,12256,1,0,0:0:0:0:
64,192,12256,1,0,0:0:0:0:
64,192,12369,1,0,0:0:0:0:
448,192,12483,1,0,0:0:0:0:
320,192,12483,1,0,0:0:0:0:
192,192,12596,1,0,0:0:0:0:
64,192,12596,1,0,0:0:0:0:
320,192,12709,1,0,0:0:0:0:
192,192,12709,1,0,0:0:0:0:
64,192,12709,1,0,0:0:0:0:
448,192,12709,1,0,0:0:0:0:
320,192,12822,1,0,0:0:0:0:
64,192,12936,1,0,0:0:0:0:
320,192,13049,1,0,0:0:0:0:
448,192,13049,1,0,0:0:0:0:
448,192,13162,1,0,0:0:0:0:
192,192,13162,1,0,0:0:0:0:
64,192,13162,1,0,0:0:0:0:
64,192,13275,5,0,0:0:0:0:
448,192,13388,1,0,0:0:0:0:
320,192,13388,1,0,0:0:0:0:
192,192,13502,1,0,0:0:0:0:
192,192,13615,1,0,0:0:0:0:
64,192,13615,1,0,0:0:0:0:
448,192,13615,1,0,0:0:0:0:
320,192,13615,1,0,0:0:0:0:
320,192,13728,1,0,0:0:0:0:
192,192,13841,1,0,0:0:0:0:
192,192,13954,1,0,0:0:0:0:
64,192,14068,1,0,0:0:0:0:
448,192,14068,1,0,0:0:0:0:
448,192,14181,1,0,0:0:0:0:
320,192,14294,1,0,0:0:0:0:
192,192,14407,1,0,0:0:0:0:
64,192,14407,1,0,0:0:0:0:
320,192,14464,1,0,0:0:0:0:
448,192,14464,1,0,0:0:0:0:
192,192,14520,1,0,0:0:0:0:
64,192,14520,1,0,0:0:0:0:
448,192,14558,1,0,0:0:0:0:
320,192,14596,1,0,0:0:0:0:
192,192,14634,1,0,0:0:0:0:
64,192,14671,1,0,0:0:0:0:
448,192,14709,1,0,0:0:0:0:
320,192,14747,1,0,0:0:0:0:
192,192,14785,1,0,0:0:0:0:
64,192,14822,1,0,0:0:0:0:
448,192,14860,1,0,0:0:0:0:
320,192,14898,1,0,0:0:0:0:
192,192,14936,1,0,0:0:0:0:
64,192,14973,1,0,0:0:0:0:
448,192,14973,1,0,0:0:0:0:
320,192,15049,1,0,0:0:0:0:
192,192,15049,1,0,0:0:0:0:
64,192,15124,1,0,0:0:0:0:
320,192,15200,1,0,0:0:0:0:
448,192,15200,1,0,0:0:0:0:
192,192,15275,1,0,0:0:0:0:
64,192,15275,1,0,0:0:0:0:
320,192,15351,1,0,0:0:0:0:
448,192,15426,1,0,0:0:0:0:
64,192,15426,128,0,15596:0:0:0:0:
192,192,15426,1,0,0:0:0:0:
64,192,15652,1,0,0:0:0:0:
448,192,15652,1,0,0:0:0:0:
192,192,15652,1,0,0:0:0:0:
448,192,15766,1,0,0:0:0:0:
320,192,15766,1,0,0:0:0:0:
64,192,15879,1,0,0:0:0:0:
192,192,15879,1,0,0:0:0:0:
448,192,15992,1,0,0:0:0:0:
192,192,15992,1,0,0:0:0:0:
320,192,15992,1,0,0:0:0:0:
64,192,16105,1,0,0:0:0:0:
320,192,16105,1,0,0:0:0:0:
448,192,16219,128,0,16388:0:0:0:0:
192,192,16219,1,0,0:0:0:0:
64,192,16219,1,0,0:0:0:0:
448,192,16445,1,0,0:0:0:0:
192,192,16445,1,0,0:0:0:0:
320,192,16445,1,0,0:0:0:0:
64,192,16558,1,0,0:0:0:0:
320,192,16558,1,0,0:0:0:0:
192,192,16671,1,0,0:0:0:0:
64,192,16671,1,0,0:0:0:0:
448,192,16785,1,0,0:0:0:0:
320,192,16785,128,0,16898:0:0:0:0:
192,192,16785,128,0,16898:0:0:0:0:
320,192,17011,1,0,0:0:0:0:
64,192,17011,128,0,17124:0:0:0:0:
192,192,17011,128,0,17124:0:0:0:0:
64,192,17237,1,0,0:0:0:0:
448,192,17237,128,0,17407:0:0:0:0:
192,192,17237,1,0,0:0:0:0:
448,192,17464,1,0,0:0:0:0:
64,192,17464,1,0,0:0:0:0:
320,192,17464,1,0,0:0:0:0:
320,192,17577,1,0,0:0:0:0:
192,192,17577,1,0,0:0:0:0:
64,192,17690,1,0,0:0:0:0:
448,192,17690,1,0,0:0:0:0:
192,192,17803,1,0,0:0:0:0:
448,192,17803,1,0,0:0:0:0:
320,192,17803,1,0,0:0:0:0:
320,192,17917,1,0,0:0:0:0:
64,192,17917,1,0,0:0:0:0:
192,192,18030,1,0,0:0:0:0:
448,192,18030,1,0,0:0:0:0:
64,192,18030,128,0,18200:0:0:0:0:
320,192,18256,1,0,0:0:0:0:
448,192,18256,1,0,0:0:0:0:
64,192,18256,1,0,0:0:0:0:
448,192,18369,1,0,0:0:0:0:
320,192,18369,1,0,0:0:0:0:
192,192,18483,1,0,0:0:0:0:
64,192,18483,1,0,0:0:0:0:
448,192,18596,1,0,0:0:0:0:
64,192,18596,128,0,18709:0:0:0:0:
320,192,18596,128,0,18709:0:0:0:0:
320,192,18822,1,0,0:0:0:0:
192,192,18822,128,0,18936:0:0:0:0:
64,192,18822,128,0,18936:0:0:0:0:
448,192,19049,1,0,0:0:0:0:
192,192,19049,1,0,0:0:0:0:
320,192,19049,1,0,0:0:0:0:
64,192,19162,1,0,0:0:0:0:
320,192,19275,1,0,0:0:0:0:
448,192,19275,1,0,0:0:0:0:
192,192,19275,1,0,0:0:0:0:
448,192,19388,1,0,0:0:0:0:
64,192,19388,1,0,0:0:0:0:
192,192,19502,1,0,0:0:0:0:
320,192,19502,1,0,0:0:0:0:
192,192,19615,1,0,0:0:0:0:
448,192,19615,1,0,0:0:0:0:
64,192,19615,1,0,0:0:0:0:
320,192,19728,1,0,0:0:0:0:
64,192,19728,1,0,0:0:0:0:
192,192,19841,1,0,0:0:0:0:
448,192,19841,1,0,0:0:0:0:
320,192,19954,1,0,0:0:0:0:
448,192,20068,1,0,0:0:0:0:
64,192,20068,1,0,0:0:0:0:
192,192,20068,1,0,0:0:0:0:
192,192,20181,1,0,0:0:0:0:
64,192,20181,1,0,0:0:0:0:
320,192,20294,1,0,0:0:0:0:
448,192,20294,1,0,0:0:0:0:
192,192,20407,1,0,0:0:0:0:
448,192,20407,1,0,0:0:0:0:
64,192,20407,1,0,0:0:0:0:
192,192,20520,1,0,0:0:0:0:
448,192,20634,1,0,0:0:0:0:
320,192,20634,1,0,0:0:0:0:
64,192,20634,1,0,0:0:0:0:
192,192,20747,1,0,0:0:0:0:
448,192,20860,1,0,0:0:0:0:
64,192,20860,1,0,0:0:0:0:
320,192,20860,1,0,0:0:0:0:
320,192,20973,1,0,0:0:0:0:
448,192,21086,1,0,0:0:0:0:
192,192,21200,1,0,0:0:0:0:
64,192,21200,1,0,0:0:0:0:
448,192,21200,1,0,0:0:0:0:
192,192,21313,1,0,0:0:0:0:
320,192,21426,1,0,0:0:0:0:
192,192,21539,1,0,0:0:0:0:
448,192,21652,1,0,0:0:0:0:
320,192,21652,1,0,0:0:0:0:
64,192,21652,1,0,0:0:0:0:
192,192,21766,1,0,0:0:0:0:
320,192,21822,1,0,0:0:0:0:
448,192,21879,1,0,0:0:0:0:
192,192,21936,1,0,0:0:0:0:
64,192,21992,1,0,0:0:0:0:
320,192,22049,1,0,0:0:0:0:
192,192,22105,1,0,0:0:0:0:
64,192,22162,1,0,0:0:0:0:
448,192,22219,1,0,0:0:0:0:
320,192,22275,1,0,0:0:0:0:
192,192,22332,1,0,0:0:0:0:
448,192,22388,1,0,0:0:0:0:
64,192,22445,1,0,0:0:0:0:
192,192,22502,1,0,0:0:0:0:
320,192,22558,1,0,0:0:0:0:
64,192,22615,1,0,0:0:0:0:
448,192,22671,128,0,22841:0:0:0:0:
192,192,22671,1,0,0:0:0:0:
320,192,22671,1,0,0:0:0:0:
192,192,22898,1,0,0:0:0:0:
64,192,22898,1,0,0:0:0:0:
448,192,22898,1,0,0:0:0:0:
64,192,23011,1,0,0:0:0:0:
320,192,23011,1,0,0:0:0:0:
320,192,23124,1,0,0:0:0:0:
192,192,23124,1,0,0:0:0:0:
448,192,23237,1,0,0:0:0:0:
64,192,23237,1,0,0:0:0:0:
192,192,23237,1,0,0:0:0:0:
320,192,23351,1,0,0:0:0:0:
448,192,23351,1,0,0:0:0:0:
320,192,23464,1,0,0:0:0:0:
64,192,23464,128,0,23634:0:0:0:0:
192,192,23464,1,0,0:0:0:0:
448,192,23690,1,0,0:0:0:0:
192,192,23690,1,0,0:0:0:0:
64,192,23690,1,0,0:0:0:0:
192,192,23803,1,0,0:0:0:0:
320,192,23803,1,0,0:0:0:0:
448,192,23917,1,0,0:0:0:0:
320,192,23917,1,0,0:0:0:0:
192,192,24030,128,0,24143:0:0:0:0:
448,192,24030,128,0,24143:0:0:0:0:
64,192,24030,1,0,0:0:0:0:
320,192,24256,128,0,24369:0:0:0:0:
192,192,24256,128,0,24369:0:0:0:0:
448,192,24256,1,0,0:0:0:0:
64,192,24483,128,0,24652:0:0:0:0:
448,192,24483,1,0,0:0:0:0:
320,192,24483,1,0,0:0:0:0:
320,192,24709,1,0,0:0:0:0:
64,192,24709,1,0,0:0:0:0:
448,192,24822,1,0,0:0:0:0:
192,192,24822,1,0,0:0:0:0:
64,192,24936,1,0,0:0:0:0:
320,192,24936,1,0,0:0:0:0:
320,192,25049,1,0,0:0:0:0:
448,192,25049,1,0,0:0:0:0:
64,192,25162,1,0,0:0:0:0:
192,192,25162,1,0,0:0:0:0:
64,192,25275,1,0,0:0:0:0:
320,192,25275,128,0,25445:0:0:0:0:
192,192,25502,1,0,0:0:0:0:
448,192,25502,1,0,0:0:0:0:
192,192,25615,1,0,0:0:0:0:
64,192,25615,1,0,0:0:0:0:
320,192,25728,1,0,0:0:0:0:
64,192,25728,1,0,0:0:0:0:
320,192,25841,128,0,25954:0:0:0:0:
64,192,25841,128,0,25954:0:0:0:0:
320,192,26068,128,0,26181:0:0:0:0:
448,192,26068,128,0,26181:0:0:0:0:
64,192,26294,128,0,26464:0:0:0:0:
192,192,26294,1,0,0:0:0:0:
64,192,26520,1,0,0:0:0:0:
320,192,26520,1,0,0:0:0:0:
448,192,26520,1,0,0:0:0:0:
320,192,26634,1,0,0:0:0:0:
192,192,26634,1,0,0:0:0:0:
448,192,26747,1,0,0:0:0:0:
192,192,26747,1,0,0:0:0:0:
448,192,26860,1,0,0:0:0:0:
320,192,26860,1,0,0:0:0:0:
64,192,26860,1,0,0:0:0:0:
192,192,26973,1,0,0:0:0:0:
320,192,26973,1,0,0:0:0:0:
64,192,26973,1,0,0:0:0:0:
448,192,27086,1,0,0:0:0:0:
192,192,27086,1,0,0:0:0:0:
448,192,27200,1,0,0:0:0:0:
320,192,27200,1,0,0:0:0:0:
64,192,27200,1,0,0:0:0:0:
64,192,27313,1,0,0:0:0:0:
192,192,27313,1,0,0:0:0:0:
320,192,27426,1,0,0:0:0:0:
448,192,27426,1,0,0:0:0:0:
192,192,27426,1,0,0:0:0:0:
320,192,27539,1,0,0:0:0:0:
64,192,27539,1,0,0:0:0:0:
192,192,27652,1,0,0:0:0:0:
64,192,27652,1,0,0:0:0:0:
192,192,27766,1,0,0:0:0:0:
448,192,27766,1,0,0:0:0:0:
320,192,27766,1,0,0:0:0:0:
320,192,27879,1,0,0:0:0:0:
448,192,27879,1,0,0:0:0:0:
64,192,27879,1,0,0:0:0:0:
192,192,27936,1,0,0:0:0:0:
320,192,27992,1,0,0:0:0:0:
448,192,28049,1,0,0:0:0:0:
64,192,28105,1,0,0:0:0:0:
192,192,28105,1,0,0:0:0:0:
320,192,28162,1,0,0:0:0:0:
448,192,28219,1,0,0:0:0:0:
64,192,28275,1,0,0:0:0:0:
192,192,28332,1,0,0:0:0:0:
320,192,28388,1,0,0:0:0:0:
192,192,28445,1,0,0:0:0:0:
64,192,28445,1,0,0:0:0:0:
448,192,28445,1,0,0:0:0:0:
320,192,28502,1,0,0:0:0:0:
64,192,28558,1,0,0:0:0:0:
192,192,28615,1,0,0:0:0:0:
448,192,28671,1,0,0:0:0:0:
320,192,28728,1,0,0:0:0:0:
192,192,28785,1,0,0:0:0:0:
64,192,28841,1,0,0:0:0:0:
320,192,28898,1,0,0:0:0:0:
448,192,28898,1,0,0:0:0:0:
192,192,28954,1,0,0:0:0:0:
448,192,29011,1,0,0:0:0:0:
320,192,29049,1,0,0:0:0:0:
192,192,29086,1,0,0:0:0:0:
64,192,29124,1,0,0:0:0:0:
448,192,29162,1,0,0:0:0:0:
320,192,29200,1,0,0:0:0:0:
192,192,29237,1,0,0:0:0:0:
64,192,29275,1,0,0:0:0:0:
320,192,29313,1,0,0:0:0:0:
448,192,29351,1,0,0:0:0:0:
64,192,29388,1,0,0:0:0:0:
192,192,29426,1,0,0:0:0:0:
320,192,29464,1,0,0:0:0:0:
448,192,29502,1,0,0:0:0:0:
64,192,29539,1,0,0:0:0:0:
192,192,29577,1,0,0:0:0:0:
320,192,29615,1,0,0:0:0:0:
448,192,29652,1,0,0:0:0:0:
64,192,29690,128,0,29747:0:0:0:0:
192,192,29747,128,0,29803:0:0:0:0:
320,192,29803,128,0,29860:0:0:0:0:
448,192,29860,128,0,29917:0:0:0:0:
64,192,29917,128,0,30143:0:0:0:0:
320,192,29917,1,0,0:0:0:0:
192,192,29917,128,0,30030:0:0:0:0:
320,192,30030,1,0,0:0:0:0:
448,192,30143,1,0,0:0:0:0:
192,192,30143,1,0,0:0:0:0:
64,192,30256,1,0,0:0:0:0:
448,192,30256,1,0,0:0:0:0:
192,192,30369,1,0,0:0:0:0:
320,192,30369,1,0,0:0:0:0:
192,192,30483,1,0,0:0:0:0:
64,192,30483,1,0,0:0:0:0:
192,192,30596,128,0,30709:0:0:0:0:
320,192,30652,128,0,30709:0:0:0:0:
448,192,30709,128,0,30766:0:0:0:0:
320,192,30822,1,0,0:0:0:0:
192,192,30822,128,0,30936:0:0:0:0:
64,192,30822,128,0,31049:0:0:0:0:
448,192,30936,1,0,0:0:0:0:
192,192,31049,1,0,0:0:0:0:
320,192,31049,1,0,0:0:0:0:
320,192,31162,1,0,0:0:0:0:
448,192,31162,1,0,0:0:0:0:
64,192,31275,1,0,0:0:0:0:
192,192,31275,1,0,0:0:0:0:
64,192,31388,1,0,0:0:0:0:
448,192,31388,1,0,0:0:0:0:
320,192,31502,1,0,0:0:0:0:
448,192,31547,1,0,0:0:0:0:
64,192,31592,1,0,0:0:0:0:
192,192,31637,1,0,0:0:0:0:
320,192,31683,1,0,0:0:0:0:
64,192,31728,128,0,31954:0:0:0:0:
192,192,31728,128,0,31841:0:0:0:0:
448,192,31728,1,0,0:0:0:0:
448,192,31841,1,0,0:0:0:0:
320,192,31954,1,0,0:0:0:0:
192,192,31954,1,0,0:0:0:0:
448,192,32068,1,0,0:0:0:0:
320,192,32068,1,0,0:0:0:0:
192,192,32181,1,0,0:0:0:0:
64,192,32181,1,0,0:0:0:0:
64,192,32294,1,0,0:0:0:0:
320,192,32294,1,0,0:0:0:0:
192,192,32407,128,0,32464:0:0:0:0:
320,192,32464,128,0,32520:0:0:0:0:
192,192,32520,128,0,32577:0:0:0:0:
320,192,32577,128,0,32634:0:0:0:0:
64,192,32634,128,0,32860:0:0:0:0:
192,192,32634,128,0,32747:0:0:0:0:
448,192,32634,1,0,0:0:0:0:
320,192,32747,1,0,0:0:0:0:
192,192,32860,1,0,0:0:0:0:
448,192,32860,1,0,0:0:0:0:
320,192,32860,1,0,0:0:0:0:
192,192,32973,128,0,33086:0:0:0:0:
448,192,32973,128,0,33200:0:0:0:0:
320,192,33086,1,0,0:0:0:0:
64,192,33086,1,0,0:0:0:0:
192,192,33200,1,0,0:0:0:0:
64,192,33200,1,0,0:0:0:0:
448,192,33313,1,0,0:0:0:0:
320,192,33313,1,0,0:0:0:0:
192,192,33313,1,0,0:0:0:0:
320,192,33426,1,0,0:0:0:0:
448,192,33426,1,0,0:0:0:0:
192,192,33426,1,0,0:0:0:0:
448,192,33539,128,0,33766:0:0:0:0:
192,192,33539,128,0,33652:0:0:0:0:
320,192,33539,1,0,0:0:0:0:
64,192,33652,1,0,0:0:0:0:
320,192,33766,1,0,0:0:0:0:
192,192,33766,1,0,0:0:0:0:
448,192,33879,1,0,0:0:0:0:
192,192,33879,1,0,0:0:0:0:
64,192,33992,1,0,0:0:0:0:
320,192,33992,1,0,0:0:0:0:
64,192,34105,1,0,0:0:0:0:
192,192,34105,1,0,0:0:0:0:
448,192,34219,128,0,34388:0:0:0:0:
64,192,34275,128,0,34445:0:0:0:0:
320,192,34445,1,0,0:0:0:0:
192,192,34445,128,0,34558:0:0:0:0:
448,192,34445,128,0,34671:0:0:0:0:
64,192,34558,1,0,0:0:0:0:
192,192,34671,1,0,0:0:0:0:
64,192,34671,1,0,0:0:0:0:
192,192,34785,1,0,0:0:0:0:
320,192,34785,1,0,0:0:0:0:
448,192,34898,1,0,0:0:0:0:
64,192,34898,1,0,0:0:0:0:
448,192,35011,1,0,0:0:0:0:
192,192,35011,1,0,0:0:0:0:
64,192,35124,128,0,35294:0:0:0:0:
192,192,35181,128,0,35237:0:0:0:0:
448,192,35237,128,0,35294:0:0:0:0:
320,192,35294,128,0,35351:0:0:0:0:
448,192,35351,128,0,35577:0:0:0:0:
64,192,35351,1,0,0:0:0:0:
192,192,35351,128,0,35464:0:0:0:0:
320,192,35464,1,0,0:0:0:0:
64,192,35577,1,0,0:0:0:0:
192,192,35577,1,0,0:0:0:0:
64,192,35690,1,0,0:0:0:0:
320,192,35690,1,0,0:0:0:0:
448,192,35803,1,0,0:0:0:0:
192,192,35803,1,0,0:0:0:0:
192,192,35917,1,0,0:0:0:0:
320,192,35917,1,0,0:0:0:0:
64,192,36030,1,0,0:0:0:0:
64,192,36115,1,0,0:0:0:0:
320,192,36171,1,0,0:0:0:0:
448,192,36256,128,0,36483:0:0:0:0:
192,192,36256,128,0,36369:0:0:0:0:
64,192,36256,1,0,0:0:0:0:
320,192,36369,1,0,0:0:0:0:
192,192,36483,1,0,0:0:0:0:
64,192,36483,1,0,0:0:0:0:
448,192,36596,1,0,0:0:0:0:
64,192,36596,1,0,0:0:0:0:
320,192,36709,1,0,0:0:0:0:
192,192,36709,1,0,0:0:0:0:
64,192,36785,1,0,0:0:0:0:
448,192,36785,1,0,0:0:0:0:
192,192,36860,1,0,0:0:0:0:
320,192,36936,1,0,0:0:0:0:
448,192,36936,1,0,0:0:0:0:
192,192,37011,1,0,0:0:0:0:
64,192,37011,1,0,0:0:0:0:
320,192,37086,1,0,0:0:0:0:
192,192,37162,1,0,0:0:0:0:
64,192,37162,1,0,0:0:0:0:
448,192,37162,1,0,0:0:0:0:
320,192,37275,1,0,0:0:0:0:
448,192,37275,1,0,0:0:0:0:
192,192,37388,1,0,0:0:0:0:
320,192,37388,1,0,0:0:0:0:
64,192,37502,1,0,0:0:0:0:
192,192,37502,1,0,0:0:0:0:
448,192,37615,1,0,0:0:0:0:
320,192,37615,1,0,0:0:0:0:
64,192,37728,1,0,0:0:0:0:
192,192,37728,1,0,0:0:0:0:
448,192,37841,1,0,0:0:0:0:
320,192,37841,1,0,0:0:0:0:
64,192,37898,1,0,0:0:0:0:
192,192,37954,1,0,0:0:0:0:
320,192,38011,1,0,0:0:0:0:
64,192,38068,1,0,0:0:0:0:
448,192,38068,1,0,0:0:0:0:
192,192,38068,1,0,0:0:0:0:
192,192,38181,1,0,0:0:0:0:
448,192,38181,1,0,0:0:0:0:
64,192,38294,1,0,0:0:0:0:
320,192,38294,1,0,0:0:0:0:
320,192,38407,1,0,0:0:0:0:
448,192,38407,1,0,0:0:0:0:
192,192,38520,1,0,0:0:0:0:
448,192,38520,1,0,0:0:0:0:
64,192,38577,1,0,0:0:0:0:
320,192,38634,1,0,0:0:0:0:
192,192,38690,1,0,0:0:0:0:
64,192,38747,1,0,0:0:0:0:
448,192,38747,1,0,0:0:0:0:
320,192,38803,1,0,0:0:0:0:
192,192,38860,1,0,0:0:0:0:
64,192,38917,1,0,0:0:0:0:
448,192,38973,1,0,0:0:0:0:
320,192,38973,1,0,0:0:0:0:
192,192,38973,1,0,0:0:0:0:
320,192,39086,1,0,0:0:0:0:
192,192,39086,1,0,0:0:0:0:
64,192,39200,1,0,0:0:0:0:
448,192,39200,1,0,0:0:0:0:
64,192,39313,1,0,0:0:0:0:
320,192,39313,1,0,0:0:0:0:
320,192,39426,1,0,0:0:0:0:
448,192,39426,1,0,0:0:0:0:
192,192,39539,1,0,0:0:0:0:
448,192,39539,1,0,0:0:0:0:
64,192,39652,1,0,0:0:0:0:
192,192,39652,1,0,0:0:0:0:
448,192,39709,1,0,0:0:0:0:
320,192,39766,1,0,0:0:0:0:
64,192,39822,1,0,0:0:0:0:
192,192,39879,1,0,0:0:0:0:
448,192,39879,1,0,0:0:0:0:
320,192,39879,1,0,0:0:0:0:
320,192,39992,1,0,0:0:0:0:
448,192,39992,1,0,0:0:0:0:
64,192,40105,1,0,0:0:0:0:
192,192,40105,1,0,0:0:0:0:
64,192,40219,1,0,0:0:0:0:
448,192,40219,1,0,0:0:0:0:
192,192,40332,1,0,0:0:0:0:
320,192,40332,1,0,0:0:0:0:
64,192,40388,1,0,0:0:0:0:
448,192,40445,1,0,0:0:0:0:
320,192,40502,1,0,0:0:0:0:
64,192,40558,1,0,0:0:0:0:
192,192,40558,1,0,0:0:0:0:
448,192,40615,1,0,0:0:0:0:
64,192,40671,1,0,0:0:0:0:
192,192,40728,1,0,0:0:0:0:
448,192,40785,1,0,0:0:0:0:
320,192,40785,1,0,0:0:0:0:
192,192,40841,1,0,0:0:0:0:
64,192,40898,1,0,0:0:0:0:
320,192,40954,1,0,0:0:0:0:
64,192,41011,1,0,0:0:0:0:
320,192,41068,1,0,0:0:0:0:
192,192,41124,1,0,0:0:0:0:
448,192,41124,1,0,0:0:0:0:
64,192,41181,1,0,0:0:0:0:
320,192,41237,1,0,0:0:0:0:
192,192,41294,1,0,0:0:0:0:
320,192,41351,1,0,0:0:0:0:
192,192,41407,1,0,0:0:0:0:
64,192,41464,1,0,0:0:0:0:
448,192,41464,1,0,0:0:0:0:
320,192,41520,1,0,0:0:0:0:
192,192,41577,1,0,0:0:0:0:
448,192,41634,1,0,0:0:0:0:
192,192,41690,1,0,0:0:0:0:
448,192,41747,1,0,0:0:0:0:
64,192,41803,1,0,0:0:0:0:
320,192,41803,1,0,0:0:0:0:
192,192,41860,1,0,0:0:0:0:
448,192,41917,1,0,0:0:0:0:
64,192,41973,1,0,0:0:0:0:
448,192,42030,1,0,0:0:0:0:
64,192,42086,1,0,0:0:0:0:
320,192,42143,1,0,0:0:0:0:
448,192,42143,1,0,0:0:0:0:
192,192,42200,1,0,0:0:0:0:
64,192,42200,1,0,0:0:0:0:
320,192,42256,1,0,0:0:0:0:
448,192,42256,1,0,0:0:0:0:
192,192,42313,1,0,0:0:0:0:
64,192,42313,1,0,0:0:0:0:
320,192,42369,1,0,0:0:0:0:
448,192,42369,1,0,0:0:0:0:
192,192,42426,1,0,0:0:0:0:
64,192,42426,1,0,0:0:0:0:
320,192,42483,1,0,0:0:0:0:
448,192,42483,1,0,0:0:0:0:
192,192,42539,1,0,0:0:0:0:
64,192,42539,1,0,0:0:0:0:
320,192,42596,1,0,0:0:0:0:
448,192,42596,128,0,42794:0:0:0:0:
320,192,42822,1,0,0:0:0:0:
64,192,42822,128,0,42907:0:0:0:0:
192,192,42936,128,0,43020:0:0:0:0:
320,192,43049,128,0,43134:0:0:0:0:
448,192,43162,1,0,0:0:0:0:
192,192,43162,128,0,43247:0:0:0:0:
64,192,43275,128,0,43360:0:0:0:0:
448,192,43388,128,0,43586:0:0:0:0:
320,192,43615,1,0,0:0:0:0:
64,192,43615,128,0,43700:0:0:0:0:
192,192,43728,128,0,43813:0:0:0:0:
320,192,43841,128,0,43926:0:0:0:0:
64,192,43954,1,0,0:0:0:0:
448,192,43954,128,0,44039:0:0:0:0:
192,192,44011,1,0,0:0:0:0:
320,192,44068,1,0,0:0:0:0:
64,192,44124,1,0,0:0:0:0:
192,192,44181,1,0,0:0:0:0:
448,192,44181,128,0,44266:0:0:0:0:
192,192,44294,128,0,44351:0:0:0:0:
64,192,44407,1,0,0:0:0:0:
320,192,44407,1,0,0:0:0:0:
448,192,44407,1,0,0:0:0:0:
192,192,44520,1,0,0:0:0:0:
320,192,44577,1,0,0:0:0:0:
448,192,44634,1,0,0:0:0:0:
64,192,44634,1,0,0:0:0:0:
192,192,44690,1,0,0:0:0:0:
448,192,44747,1,0,0:0:0:0:
320,192,44803,1,0,0:0:0:0:
64,192,44860,1,0,0:0:0:0:
192,192,44860,1,0,0:0:0:0:
448,192,44917,1,0,0:0:0:0:
320,192,44973,1,0,0:0:0:0:
192,192,44973,1,0,0:0:0:0:
64,192,45030,1,0,0:0:0:0:
320,192,45086,1,0,0:0:0:0:
448,192,45086,1,0,0:0:0:0:
192,192,45143,1,0,0:0:0:0:
448,192,45200,1,0,0:0:0:0:
320,192,45256,1,0,0:0:0:0:
192,192,45313,1,0,0:0:0:0:
64,192,45313,1,0,0:0:0:0:
320,192,45369,1,0,0:0:0:0:
64,192,45426,1,0,0:0:0:0:
448,192,45426,1,0,0:0:0:0:
192,192,45483,1,0,0:0:0:0:
448,192,45539,1,0,0:0:0:0:
320,192,45539,1,0,0:0:0:0:
192,192,45596,1,0,0:0:0:0:
64,192,45652,1,0,0:0:0:0:
320,192,45709,1,0,0:0:0:0:
448,192,45766,1,0,0:0:0:0:
192,192,45766,1,0,0:0:0:0:
64,192,45766,1,0,0:0:0:0:
192,192,45879,1,0,0:0:0:0:
448,192,45992,1,0,0:0:0:0:
64,192,45992,1,0,0:0:0:0:
320,192,45992,1,0,0:0:0:0:
320,192,46105,1,0,0:0:0:0:
448,192,46219,1,0,0:0:0:0:
64,192,46219,1,0,0:0:0:0:
192,192,46219,1,0,0:0:0:0:
320,192,46332,1,0,0:0:0:0:
192,192,46388,1,0,0:0:0:0:
64,192,46445,1,0,0:0:0:0:
448,192,46445,1,0,0:0:0:0:
320,192,46502,1,0,0:0:0:0:
64,192,46558,1,0,0:0:0:0:
192,192,46615,1,0,0:0:0:0:
448,192,46671,1,0,0:0:0:0:
320,192,46671,1,0,0:0:0:0:
64,192,46728,1,0,0:0:0:0:
192,192,46785,1,0,0:0:0:0:
320,192,46785,1,0,0:0:0:0:
448,192,46841,1,0,0:0:0:0:
192,192,46898,1,0,0:0:0:0:
64,192,46898,1,0,0:0:0:0:
320,192,46954,1,0,0:0:0:0:
64,192,47011,1,0,0:0:0:0:
192,192,47068,1,0,0:0:0:0:
320,192,47124,1,0,0:0:0:0:
448,192,47124,1,0,0:0:0:0:
192,192,47181,1,0,0:0:0:0:
448,192,47237,1,0,0:0:0:0:
64,192,47237,1,0,0:0:0:0:
320,192,47294,1,0,0:0:0:0:
64,192,47351,1,0,0:0:0:0:
192,192,47351,1,0,0:0:0:0:
320,192,47407,1,0,0:0:0:0:
448,192,47464,1,0,0:0:0:0:
64,192,47520,1,0,0:0:0:0:
192,192,47577,1,0,0:0:0:0:
320,192,47577,1,0,0:0:0:0:
448,192,47577,1,0,0:0:0:0:
320,192,47690,1,0,0:0:0:0:
64,192,47803,1,0,0:0:0:0:
448,192,47803,1,0,0:0:0:0:
192,192,47803,1,0,0:0:0:0:
192,192,47917,1,0,0:0:0:0:
448,192,48030,1,0,0:0:0:0:
64,192,48030,1,0,0:0:0:0:
320,192,48030,1,0,0:0:0:0:
192,192,48143,1,0,0:0:0:0:
64,192,48200,1,0,0:0:0:0:
448,192,48256,1,0,0:0:0:0:
320,192,48256,1,0,0:0:0:0:
192,192,48313,1,0,0:0:0:0:
64,192,48369,1,0,0:0:0:0:
320,192,48426,1,0,0:0:0:0:
448,192,48483,1,0,0:0:0:0:
192,192,48483,1,0,0:0:0:0:
64,192,48539,1,0,0:0:0:0:
320,192,48596,1,0,0:0:0:0:
448,192,48596,1,0,0:0:0:0:
192,192,48652,1,0,0:0:0:0:
320,192,48709,1,0,0:0:0:0:
64,192,48709,1,0,0:0:0:0:
448,192,48766,1,0,0:0:0:0:
192,192,48822,1,0,0:0:0:0:
320,192,48879,1,0,0:0:0:0:
448,192,48936,1,0,0:0:0:0:
64,192,48936,1,0,0:0:0:0:
192,192,48992,1,0,0:0:0:0:
320,192,49049,1,0,0:0:0:0:
448,192,49049,1,0,0:0:0:0:
64,192,49105,1,0,0:0:0:0:
192,192,49162,1,0,0:0:0:0:
320,192,49162,1,0,0:0:0:0:
448,192,49219,1,0,0:0:0:0:
64,192,49275,1,0,0:0:0:0:
320,192,49332,1,0,0:0:0:0:
192,192,49388,1,0,0:0:0:0:
64,192,49388,1,0,0:0:0:0:
448,192,49388,1,0,0:0:0:0:
448,192,49502,1,0,0:0:0:0:
64,192,49615,1,0,0:0:0:0:
320,192,49615,1,0,0:0:0:0:
192,192,49615,1,0,0:0:0:0:
64,192,49728,1,0,0:0:0:0:
448,192,49841,1,0,0:0:0:0:
320,192,49841,1,0,0:0:0:0:
192,192,49841,1,0,0:0:0:0:
64,192,49898,1,0,0:0:0:0:
448,192,49954,1,0,0:0:0:0:
320,192,50011,1,0,0:0:0:0:
64,192,50068,1,0,0:0:0:0:
192,192,50068,1,0,0:0:0:0:
448,192,50124,1,0,0:0:0:0:
64,192,50181,1,0,0:0:0:0:
320,192,50181,1,0,0:0:0:0:
192,192,50237,1,0,0:0:0:0:
448,192,50294,1,0,0:0:0:0:
320,192,50294,1,0,0:0:0:0:
64,192,50351,1,0,0:0:0:0:
192,192,50407,1,0,0:0:0:0:
320,192,50464,1,0,0:0:0:0:
448,192,50520,1,0,0:0:0:0:
64,192,50520,1,0,0:0:0:0:
192,192,50577,1,0,0:0:0:0:
320,192,50634,1,0,0:0:0:0:
448,192,50634,1,0,0:0:0:0:
64,192,50690,1,0,0:0:0:0:
192,192,50747,1,0,0:0:0:0:
320,192,50747,1,0,0:0:0:0:
448,192,50803,1,0,0:0:0:0:
64,192,50860,1,0,0:0:0:0:
320,192,50917,1,0,0:0:0:0:
192,192,50973,1,0,0:0:0:0:
448,192,50973,1,0,0:0:0:0:
64,192,51030,1,0,0:0:0:0:
320,192,51086,1,0,0:0:0:0:
448,192,51143,1,0,0:0:0:0:
64,192,51200,1,0,0:0:0:0:
192,192,51200,1,0,0:0:0:0:
320,192,51256,1,0,0:0:0:0:
192,192,51313,1,0,0:0:0:0:
64,192,51313,1,0,0:0:0:0:
448,192,51369,1,0,0:0:0:0:
192,192,51426,1,0,0:0:0:0:
64,192,51426,1,0,0:0:0:0:
320,192,51483,1,0,0:0:0:0:
448,192,51539,1,0,0:0:0:0:
64,192,51596,1,0,0:0:0:0:
192,192,51652,1,0,0:0:0:0:
320,192,51652,1,0,0:0:0:0:
448,192,51652,1,0,0:0:0:0:
64,192,51766,1,0,0:0:0:0:
192,192,51822,1,0,0:0:0:0:
448,192,51879,1,0,0:0:0:0:
320,192,51879,1,0,0:0:0:0:
64,192,51936,1,0,0:0:0:0:
192,192,51992,1,0,0:0:0:0:
448,192,52049,1,0,0:0:0:0:
192,192,52105,1,0,0:0:0:0:
64,192,52105,1,0,0:0:0:0:
320,192,52162,1,0,0:0:0:0:
448,192,52219,1,0,0:0:0:0:
64,192,52219,1,0,0:0:0:0:
192,192,52275,1,0,0:0:0:0:
320,192,52332,1,0,0:0:0:0:
448,192,52332,1,0,0:0:0:0:
64,192,52388,1,0,0:0:0:0:
192,192,52445,1,0,0:0:0:0:
448,192,52502,1,0,0:0:0:0:
320,192,52558,1,0,0:0:0:0:
64,192,52558,1,0,0:0:0:0:
192,192,52615,1,0,0:0:0:0:
448,192,52671,1,0,0:0:0:0:
320,192,52671,1,0,0:0:0:0:
64,192,52728,1,0,0:0:0:0:
192,192,52785,1,0,0:0:0:0:
448,192,52785,1,0,0:0:0:0:
320,192,52841,1,0,0:0:0:0:
64,192,52898,1,0,0:0:0:0:
448,192,52954,1,0,0:0:0:0:
320,192,53011,1,0,0:0:0:0:
64,192,53011,1,0,0:0:0:0:
192,192,53011,1,0,0:0:0:0:
192,192,53124,1,0,0:0:0:0:
64,192,53237,1,0,0:0:0:0:
448,192,53237,1,0,0:0:0:0:
320,192,53237,1,0,0:0:0:0:
448,192,53351,1,0,0:0:0:0:
320,192,53464,1,0,0:0:0:0:
192,192,53464,1,0,0:0:0:0:
64,192,53464,1,0,0:0:0:0:
448,192,53577,1,0,0:0:0:0:
320,192,53634,1,0,0:0:0:0:
64,192,53690,1,0,0:0:0:0:
192,192,53690,1,0,0:0:0:0:
448,192,53747,1,0,0:0:0:0:
320,192,53803,1,0,0:0:0:0:
64,192,53860,1,0,0:0:0:0:
320,192,53917,1,0,0:0:0:0:
448,192,53917,1,0,0:0:0:0:
192,192,53973,1,0,0:0:0:0:
64,192,54030,1,0,0:0:0:0:
448,192,54030,1,0,0:0:0:0:
320,192,54086,1,0,0:0:0:0:
192,192,54143,1,0,0:0:0:0:
64,192,54143,1,0,0:0:0:0:
448,192,54200,1,0,0:0:0:0:
320,192,54256,1,0,0:0:0:0:
64,192,54313,1,0,0:0:0:0:
192,192,54369,1,0,0:0:0:0:
448,192,54369,1,0,0:0:0:0:
320,192,54426,1,0,0:0:0:0:
64,192,54483,1,0,0:0:0:0:
192,192,54483,1,0,0:0:0:0:
448,192,54539,1,0,0:0:0:0:
320,192,54596,1,0,0:0:0:0:
64,192,54596,1,0,0:0:0:0:
192,192,54652,1,0,0:0:0:0:
448,192,54709,1,0,0:0:0:0:
64,192,54766,5,0,0:0:0:0:
192,192,54822,1,0,0:0:0:0:
448,192,54822,1,0,0:0:0:0:
320,192,54822,1,0,0:0:0:0:
192,192,54936,1,0,0:0:0:0:
448,192,55049,1,0,0:0:0:0:
64,192,55049,1,0,0:0:0:0:
320,192,55049,1,0,0:0:0:0:
448,192,55162,1,0,0:0:0:0:
64,192,55275,1,0,0:0:0:0:
320,192,55275,1,0,0:0:0:0:
192,192,55294,1,0,0:0:0:0:
448,192,55388,1,0,0:0:0:0:
320,192,55407,1,0,0:0:0:0:
64,192,55502,1,0,0:0:0:0:
192,192,55502,1,0,0:0:0:0:
320,192,55520,1,0,0:0:0:0:
448,192,55615,1,0,0:0:0:0:
64,192,55634,1,0,0:0:0:0:
448,192,55728,1,0,0:0:0:0:
192,192,55728,1,0,0:0:0:0:
320,192,55747,1,0,0:0:0:0:
64,192,55841,1,0,0:0:0:0:
448,192,55860,1,0,0:0:0:0:
320,192,55954,1,0,0:0:0:0:
64,192,55954,1,0,0:0:0:0:
192,192,55973,1,0,0:0:0:0:
320,192,56068,1,0,0:0:0:0:
448,192,56086,1,0,0:0:0:0:
192,192,56181,5,0,0:0:0:0:
64,192,56181,1,0,0:0:0:0:
448,192,56200,1,0,0:0:0:0:
192,192,56294,1,0,0:0:0:0:
320,192,56313,1,0,0:0:0:0:
192,192,56407,1,0,0:0:0:0:
64,192,56407,1,0,0:0:0:0:
320,192,56426,1,0,0:0:0:0:
448,192,56520,1,0,0:0:0:0:
64,192,56539,1,0,0:0:0:0:
320,192,56634,1,0,0:0:0:0:
192,192,56634,1,0,0:0:0:0:
448,192,56652,1,0,0:0:0:0:
192,192,56747,1,0,0:0:0:0:
64,192,56766,1,0,0:0:0:0:
448,192,56860,1,0,0:0:0:0:
320,192,56860,1,0,0:0:0:0:
192,192,56917,1,0,0:0:0:0:
64,192,56917,1,0,0:0:0:0:
448,192,56973,1,0,0:0:0:0:
320,192,56973,1,0,0:0:0:0:
192,192,57030,1,0,0:0:0:0:
64,192,57030,1,0,0:0:0:0:
448,192,57086,1,0,0:0:0:0:
320,192,57086,1,0,0:0:0:0:
192,192,57143,1,0,0:0:0:0:
64,192,57200,1,0,0:0:0:0:
448,192,57256,1,0,0:0:0:0:
320,192,57313,1,0,0:0:0:0:
192,192,57369,1,0,0:0:0:0:
320,192,57426,1,0,0:0:0:0:
448,192,57426,1,0,0:0:0:0:
64,192,57426,1,0,0:0:0:0:
192,192,57483,1,0,0:0:0:0:
448,192,57539,1,0,0:0:0:0:
320,192,57596,1,0,0:0:0:0:
64,192,57652,1,0,0:0:0:0:
192,192,57709,1,0,0:0:0:0:
320,192,57766,1,0,0:0:0:0:
448,192,57822,1,0,0:0:0:0:
192,192,57879,1,0,0:0:0:0:
64,192,57879,1,0,0:0:0:0:
320,192,57917,1,0,0:0:0:0:
448,192,57954,1,0,0:0:0:0:
64,192,57992,1,0,0:0:0:0:
192,192,58030,1,0,0:0:0:0:
320,192,58068,1,0,0:0:0:0:
448,192,58105,1,0,0:0:0:0:
64,192,58143,1,0,0:0:0:0:
192,192,58181,1,0,0:0:0:0:
320,192,58219,1,0,0:0:0:0:
448,192,58256,1,0,0:0:0:0:
192,192,58294,1,0,0:0:0:0:
64,192,58332,1,0,0:0:0:0:
448,192,58369,1,0,0:0:0:0:
320,192,58407,1,0,0:0:0:0:
192,192,58445,1,0,0:0:0:0:
64,192,58483,1,0,0:0:0:0:
448,192,58520,1,0,0:0:0:0:
320,192,58558,1,0,0:0:0:0:
192,192,58596,1,0,0:0:0:0:
64,192,58634,1,0,0:0:0:0:
448,192,58671,128,0,58728:0:0:0:0:
320,192,58728,128,0,58785:0:0:0:0:
192,192,58785,128,0,58841:0:0:0:0:
64,192,58841,128,0,58898:0:0:0:0:
448,192,58898,128,0,59351:0:0:0:0:
320,192,58898,128,0,59237:0:0:0:0:
192,192,58898,128,0,59124:0:0:0:0:
64,192,59351,1,0,0:0:0:0:
320,192,59351,1,0,0:0:0:0:
192,192,59365,1,0,0:0:0:0:
64,192,59464,1,0,0:0:0:0:
448,192,59483,1,0,0:0:0:0:
192,192,59577,1,0,0:0:0:0:
320,192,59591,1,0,0:0:0:0:
448,192,59690,1,0,0:0:0:0:
320,192,59704,1,0,0:0:0:0:
64,192,59803,1,0,0:0:0:0:
192,192,59818,1,0,0:0:0:0:
448,192,59860,1,0,0:0:0:0:
320,192,59874,1,0,0:0:0:0:
192,192,59917,1,0,0:0:0:0:
64,192,59931,1,0,0:0:0:0:
320,192,59973,1,0,0:0:0:0:
448,192,59987,1,0,0:0:0:0:
64,192,60030,1,0,0:0:0:0:
192,192,60044,1,0,0:0:0:0:
320,192,60143,1,0,0:0:0:0:
192,192,60157,1,0,0:0:0:0:
320,192,60256,1,0,0:0:0:0:
448,192,60270,1,0,0:0:0:0:
192,192,60313,1,0,0:0:0:0:
64,192,60327,1,0,0:0:0:0:
448,192,60369,1,0,0:0:0:0:
320,192,60384,1,0,0:0:0:0:
64,192,60426,1,0,0:0:0:0:
192,192,60440,1,0,0:0:0:0:
320,192,60483,1,0,0:0:0:0:
448,192,60497,1,0,0:0:0:0:
192,192,60596,1,0,0:0:0:0:
64,192,60709,128,0,60879:0:0:0:0:
192,192,60709,128,0,60936:0:0:0:0:
320,192,60709,128,0,60822:0:0:0:0:
448,192,60936,128,0,60992:0:0:0:0:
320,192,60954,128,0,61011:0:0:0:0:
448,192,61049,128,0,61105:0:0:0:0:
192,192,61068,128,0,61124:0:0:0:0:
320,192,61162,128,0,61275:0:0:0:0:
448,192,61162,128,0,61219:0:0:0:0:
64,192,61162,128,0,61388:0:0:0:0:
192,192,61219,128,0,61332:0:0:0:0:
448,192,61388,1,0,0:0:0:0:
320,192,61388,1,0,0:0:0:0:
192,192,61445,1,0,0:0:0:0:
448,192,61502,1,0,0:0:0:0:
192,192,61558,1,0,0:0:0:0:
64,192,61615,128,0,61785:0:0:0:0:
448,192,61615,128,0,61841:0:0:0:0:
320,192,61615,128,0,61728:0:0:0:0:
320,192,61841,1,0,0:0:0:0:
192,192,61841,1,0,0:0:0:0:
64,192,61898,1,0,0:0:0:0:
320,192,61954,1,0,0:0:0:0:
64,192,62011,1,0,0:0:0:0:
448,192,62068,128,0,62181:0:0:0:0:
320,192,62068,128,0,62294:0:0:0:0:
192,192,62068,128,0,62237:0:0:0:0:
64,192,62181,1,0,0:0:0:0:
64,192,62294,128,0,62407:0:0:0:0:
448,192,62294,1,0,0:0:0:0:
192,192,62313,128,0,62426:0:0:0:0:
448,192,62407,1,0,0:0:0:0:
64,192,62520,128,0,62973:0:0:0:0:
192,192,62520,1,0,0:0:0:0:
320,192,62577,1,0,0:0:0:0:
448,192,62634,1,0,0:0:0:0:
192,192,62690,1,0,0:0:0:0:
320,192,62747,1,0,0:0:0:0:
448,192,62803,1,0,0:0:0:0:
192,192,62860,1,0,0:0:0:0:
448,192,62973,1,0,0:0:0:0:
192,192,62973,1,0,0:0:0:0:
320,192,62987,1,0,0:0:0:0:
448,192,63086,1,0,0:0:0:0:
64,192,63101,1,0,0:0:0:0:
320,192,63200,1,0,0:0:0:0:
192,192,63214,1,0,0:0:0:0:
64,192,63313,1,0,0:0:0:0:
192,192,63327,1,0,0:0:0:0:
320,192,63426,1,0,0:0:0:0:
448,192,63440,1,0,0:0:0:0:
64,192,63483,1,0,0:0:0:0:
192,192,63497,1,0,0:0:0:0:
448,192,63539,1,0,0:0:0:0:
320,192,63553,1,0,0:0:0:0:
192,192,63596,1,0,0:0:0:0:
64,192,63610,1,0,0:0:0:0:
448,192,63652,1,0,0:0:0:0:
320,192,63667,1,0,0:0:0:0:
64,192,63766,1,0,0:0:0:0:
192,192,63780,1,0,0:0:0:0:
192,192,63879,1,0,0:0:0:0:
64,192,63879,1,0,0:0:0:0:
320,192,63936,1,0,0:0:0:0:
448,192,63992,1,0,0:0:0:0:
64,192,63992,1,0,0:0:0:0:
192,192,64049,1,0,0:0:0:0:
448,192,64105,1,0,0:0:0:0:
320,192,64105,1,0,0:0:0:0:
64,192,64162,1,0,0:0:0:0:
192,192,64219,1,0,0:0:0:0:
320,192,64219,1,0,0:0:0:0:
448,192,64275,1,0,0:0:0:0:
192,192,64332,1,0,0:0:0:0:
64,192,64332,128,0,64530:0:0:0:0:
192,192,64558,1,0,0:0:0:0:
448,192,64558,128,0,64643:0:0:0:0:
320,192,64671,128,0,64756:0:0:0:0:
192,192,64785,128,0,64869:0:0:0:0:
64,192,64898,1,0,0:0:0:0:
320,192,64898,128,0,64983:0:0:0:0:
448,192,65011,128,0,65096:0:0:0:0:
64,192,65124,128,0,65322:0:0:0:0:
192,192,65351,1,0,0:0:0:0:
448,192,65351,128,0,65436:0:0:0:0:
320,192,65464,128,0,65549:0:0:0:0:
192,192,65577,128,0,65662:0:0:0:0:
448,192,65690,1,0,0:0:0:0:
64,192,65690,128,0,65775:0:0:0:0:
320,192,65747,1,0,0:0:0:0:
192,192,65803,1,0,0:0:0:0:
448,192,65860,1,0,0:0:0:0:
320,192,65917,1,0,0:0:0:0:
64,192,65917,128,0,66002:0:0:0:0:
320,192,66030,128,0,66086:0:0:0:0:
64,192,66143,1,0,0:0:0:0:
320,192,66143,1,0,0:0:0:0:
192,192,66143,1,0,0:0:0:0:
448,192,66143,1,0,0:0:0:0:
448,192,66256,1,0,0:0:0:0:
64,192,66369,1,0,0:0:0:0:
192,192,66369,1,0,0:0:0:0:
320,192,66369,1,0,0:0:0:0:
64,192,66483,1,0,0:0:0:0:
448,192,66483,1,0,0:0:0:0:
448,192,66596,1,0,0:0:0:0:
192,192,66596,1,0,0:0:0:0:
320,192,66596,1,0,0:0:0:0:
64,192,66709,1,0,0:0:0:0:
192,192,66709,1,0,0:0:0:0:
448,192,66822,1,0,0:0:0:0:
64,192,66822,1,0,0:0:0:0:
320,192,66822,1,0,0:0:0:0:
448,192,66936,128,0,66992:0:0:0:0:
192,192,66936,128,0,66992:0:0:0:0:
64,192,67049,1,0,0:0:0:0:
320,192,67049,1,0,0:0:0:0:
448,192,67162,128,0,67219:0:0:0:0:
64,192,67162,128,0,67219:0:0:0:0:
192,192,67275,1,0,0:0:0:0:
320,192,67275,1,0,0:0:0:0:
448,192,67388,128,0,67445:0:0:0:0:
192,192,67388,128,0,67445:0:0:0:0:
320,192,67502,1,0,0:0:0:0:
64,192,67502,1,0,0:0:0:0:
64,192,67615,128,0,67671:0:0:0:0:
448,192,67615,128,0,67671:0:0:0:0:
320,192,67671,1,0,0:0:0:0:
448,192,67728,1,0,0:0:0:0:
192,192,67728,1,0,0:0:0:0:
64,192,67785,1,0,0:0:0:0:
320,192,67841,1,0,0:0:0:0:
192,192,67898,1,0,0:0:0:0:
64,192,67954,128,0,68011:0:0:0:0:
320,192,67954,1,0,0:0:0:0:
448,192,67954,128,0,68011:0:0:0:0:
64,192,68068,128,0,68124:0:0:0:0:
448,192,68068,128,0,68124:0:0:0:0:
320,192,68181,1,0,0:0:0:0:
192,192,68181,1,0,0:0:0:0:
192,192,68294,128,0,68351:0:0:0:0:
64,192,68294,128,0,68351:0:0:0:0:
448,192,68407,1,0,0:0:0:0:
320,192,68407,1,0,0:0:0:0:
320,192,68520,128,0,68577:0:0:0:0:
192,192,68520,128,0,68577:0:0:0:0:
64,192,68634,1,0,0:0:0:0:
448,192,68634,1,0,0:0:0:0:
448,192,68747,128,0,68803:0:0:0:0:
64,192,68747,128,0,68803:0:0:0:0:
192,192,68860,128,0,68917:0:0:0:0:
448,192,68860,128,0,68917:0:0:0:0:
320,192,68860,1,0,0:0:0:0:
64,192,68973,1,0,0:0:0:0:
64,192,69086,128,0,69143:0:0:0:0:
192,192,69086,128,0,69143:0:0:0:0:
320,192,69086,1,0,0:0:0:0:
448,192,69200,128,0,69256:0:0:0:0:
192,192,69200,128,0,69256:0:0:0:0:
64,192,69313,1,0,0:0:0:0:
448,192,69313,1,0,0:0:0:0:
320,192,69313,1,0,0:0:0:0:
320,192,69426,1,0,0:0:0:0:
448,192,69539,1,0,0:0:0:0:
64,192,69539,1,0,0:0:0:0:
192,192,69539,1,0,0:0:0:0:
192,192,69652,1,0,0:0:0:0:
448,192,69766,1,0,0:0:0:0:
64,192,69766,1,0,0:0:0:0:
320,192,69766,1,0,0:0:0:0:
64,192,69879,1,0,0:0:0:0:
320,192,69992,1,0,0:0:0:0:
448,192,69992,1,0,0:0:0:0:
192,192,69992,1,0,0:0:0:0:
64,192,70105,1,0,0:0:0:0:
320,192,70105,1,0,0:0:0:0:
192,192,70219,1,0,0:0:0:0:
448,192,70219,1,0,0:0:0:0:
64,192,70219,1,0,0:0:0:0:
192,192,70332,1,0,0:0:0:0:
320,192,70332,1,0,0:0:0:0:
64,192,70445,1,0,0:0:0:0:
320,192,70445,1,0,0:0:0:0:
448,192,70445,1,0,0:0:0:0:
448,192,70558,128,0,70615:0:0:0:0:
192,192,70558,128,0,70615:0:0:0:0:
64,192,70671,1,0,0:0:0:0:
320,192,70671,1,0,0:0:0:0:
64,192,70785,128,0,70841:0:0:0:0:
192,192,70785,128,0,70841:0:0:0:0:
448,192,70898,1,0,0:0:0:0:
320,192,70898,1,0,0:0:0:0:
448,192,71011,128,0,71068:0:0:0:0:
64,192,71011,128,0,71068:0:0:0:0:
192,192,71124,1,0,0:0:0:0:
320,192,71124,1,0,0:0:0:0:
320,192,71237,128,0,71294:0:0:0:0:
448,192,71237,128,0,71294:0:0:0:0:
64,192,71294,1,0,0:0:0:0:
448,192,71351,1,0,0:0:0:0:
192,192,71351,1,0,0:0:0:0:
320,192,71407,1,0,0:0:0:0:
64,192,71464,1,0,0:0:0:0:
448,192,71520,1,0,0:0:0:0:
192,192,71577,128,0,71634:0:0:0:0:
320,192,71577,128,0,71634:0:0:0:0:
64,192,71577,1,0,0:0:0:0:
192,192,71690,128,0,71747:0:0:0:0:
320,192,71690,128,0,71747:0:0:0:0:
64,192,71803,1,0,0:0:0:0:
448,192,71803,1,0,0:0:0:0:
448,192,71917,128,0,71973:0:0:0:0:
64,192,71917,128,0,71973:0:0:0:0:
320,192,71973,1,0,0:0:0:0:
192,192,72030,1,0,0:0:0:0:
448,192,72030,1,0,0:0:0:0:
448,192,72143,128,0,72200:0:0:0:0:
192,192,72143,128,0,72200:0:0:0:0:
320,192,72200,1,0,0:0:0:0:
64,192,72256,1,0,0:0:0:0:
192,192,72256,1,0,0:0:0:0:
320,192,72369,128,0,72426:0:0:0:0:
448,192,72369,128,0,72426:0:0:0:0:
64,192,72426,1,0,0:0:0:0:
192,192,72483,1,0,0:0:0:0:
448,192,72483,1,0,0:0:0:0:
320,192,72539,1,0,0:0:0:0:
192,192,72596,1,0,0:0:0:0:
64,192,72652,1,0,0:0:0:0:
320,192,72709,1,0,0:0:0:0:
448,192,72709,1,0,0:0:0:0:
192,192,72766,1,0,0:0:0:0:
64,192,72822,1,0,0:0:0:0:
320,192,72879,1,0,0:0:0:0:
192,192,72936,1,0,0:0:0:0:
448,192,72936,1,0,0:0:0:0:
64,192,72992,1,0,0:0:0:0:
448,192,73049,1,0,0:0:0:0:
320,192,73049,1,0,0:0:0:0:
192,192,73105,1,0,0:0:0:0:
448,192,73162,1,0,0:0:0:0:
64,192,73162,128,0,73219:0:0:0:0:
192,192,73219,128,0,73275:0:0:0:0:
320,192,73275,128,0,73332:0:0:0:0:
448,192,73332,128,0,73388:0:0:0:0:
320,192,73388,1,0,0:0:0:0:
192,192,73388,1,0,0:0:0:0:
64,192,73388,1,0,0:0:0:0:
64,192,73502,1,0,0:0:0:0:
192,192,73502,1,0,0:0:0:0:
320,192,73502,1,0,0:0:0:0:
64,192,73615,1,0,0:0:0:0:
192,192,73615,1,0,0:0:0:0:
448,192,73615,1,0,0:0:0:0:
448,192,73728,1,0,0:0:0:0:
320,192,73728,1,0,0:0:0:0:
64,192,73841,1,0,0:0:0:0:
192,192,73841,1,0,0:0:0:0:
320,192,73841,1,0,0:0:0:0:
192,192,73954,1,0,0:0:0:0:
448,192,73954,1,0,0:0:0:0:
448,192,74068,1,0,0:0:0:0:
320,192,74068,1,0,0:0:0:0:
64,192,74068,1,0,0:0:0:0:
192,192,74181,128,0,74237:0:0:0:0:
320,192,74181,128,0,74237:0:0:0:0:
448,192,74294,1,0,0:0:0:0:
64,192,74294,1,0,0:0:0:0:
448,192,74407,128,0,74464:0:0:0:0:
64,192,74407,128,0,74464:0:0:0:0:
320,192,74520,1,0,0:0:0:0:
192,192,74520,1,0,0:0:0:0:
320,192,74634,128,0,74690:0:0:0:0:
64,192,74634,128,0,74690:0:0:0:0:
448,192,74747,1,0,0:0:0:0:
192,192,74747,1,0,0:0:0:0:
64,192,74860,128,0,74917:0:0:0:0:
448,192,74860,128,0,74917:0:0:0:0:
192,192,74917,1,0,0:0:0:0:
448,192,74973,1,0,0:0:0:0:
320,192,74973,1,0,0:0:0:0:
192,192,75030,1,0,0:0:0:0:
64,192,75086,1,0,0:0:0:0:
320,192,75143,1,0,0:0:0:0:
192,192,75200,128,0,75256:0:0:0:0:
64,192,75200,128,0,75256:0:0:0:0:
448,192,75200,1,0,0:0:0:0:
64,192,75313,128,0,75369:0:0:0:0:
192,192,75313,128,0,75369:0:0:0:0:
320,192,75426,1,0,0:0:0:0:
448,192,75426,1,0,0:0:0:0:
64,192,75539,128,0,75596:0:0:0:0:
448,192,75539,128,0,75596:0:0:0:0:
320,192,75652,1,0,0:0:0:0:
192,192,75652,1,0,0:0:0:0:
320,192,75766,128,0,75822:0:0:0:0:
64,192,75766,128,0,75822:0:0:0:0:
448,192,75879,1,0,0:0:0:0:
192,192,75879,1,0,0:0:0:0:
448,192,75992,128,0,76049:0:0:0:0:
64,192,75992,128,0,76049:0:0:0:0:
192,192,76105,128,0,76162:0:0:0:0:
320,192,76105,128,0,76162:0:0:0:0:
448,192,76105,1,0,0:0:0:0:
64,192,76219,1,0,0:0:0:0:
64,192,76332,128,0,76388:0:0:0:0:
448,192,76332,128,0,76388:0:0:0:0:
192,192,76332,1,0,0:0:0:0:
320,192,76445,128,0,76502:0:0:0:0:
448,192,76445,128,0,76502:0:0:0:0:
320,192,76558,1,0,0:0:0:0:
64,192,76558,1,0,0:0:0:0:
192,192,76558,1,0,0:0:0:0:
448,192,76728,1,0,0:0:0:0:
320,192,76728,1,0,0:0:0:0:
192,192,76785,1,0,0:0:0:0:
64,192,76785,1,0,0:0:0:0:
192,192,76898,1,0,0:0:0:0:
64,192,76898,1,0,0:0:0:0:
320,192,76954,1,0,0:0:0:0:
64,192,77011,1,0,0:0:0:0:
192,192,77011,1,0,0:0:0:0:
448,192,77011,1,0,0:0:0:0:
320,192,77124,1,0,0:0:0:0:
64,192,77237,1,0,0:0:0:0:
192,192,77237,1,0,0:0:0:0:
320,192,77237,1,0,0:0:0:0:
448,192,77351,1,0,0:0:0:0:
192,192,77351,1,0,0:0:0:0:
320,192,77464,1,0,0:0:0:0:
64,192,77464,1,0,0:0:0:0:
448,192,77464,1,0,0:0:0:0:
64,192,77577,1,0,0:0:0:0:
192,192,77577,1,0,0:0:0:0:
448,192,77690,1,0,0:0:0:0:
320,192,77690,1,0,0:0:0:0:
192,192,77690,1,0,0:0:0:0:
64,192,77803,128,0,77860:0:0:0:0:
192,192,77803,128,0,77860:0:0:0:0:
320,192,77917,1,0,0:0:0:0:
448,192,77917,1,0,0:0:0:0:
192,192,78030,128,0,78086:0:0:0:0:
448,192,78030,128,0,78086:0:0:0:0:
64,192,78143,1,0,0:0:0:0:
320,192,78143,1,0,0:0:0:0:
320,192,78256,128,0,78313:0:0:0:0:
192,192,78256,128,0,78313:0:0:0:0:
448,192,78369,1,0,0:0:0:0:
64,192,78369,1,0,0:0:0:0:
448,192,78483,128,0,78539:0:0:0:0:
64,192,78483,128,0,78539:0:0:0:0:
192,192,78539,1,0,0:0:0:0:
320,192,78596,1,0,0:0:0:0:
64,192,78596,1,0,0:0:0:0:
448,192,78652,1,0,0:0:0:0:
192,192,78709,1,0,0:0:0:0:
320,192,78766,1,0,0:0:0:0:
64,192,78822,128,0,78879:0:0:0:0:
192,192,78822,128,0,78879:0:0:0:0:
448,192,78822,1,0,0:0:0:0:
192,192,78936,128,0,78992:0:0:0:0:
64,192,78936,128,0,78992:0:0:0:0:
320,192,79049,1,0,0:0:0:0:
448,192,79049,1,0,0:0:0:0:
64,192,79049,1,0,0:0:0:0:
448,192,79162,128,0,79219:0:0:0:0:
192,192,79162,1,0,0:0:0:0:
320,192,79162,128,0,79219:0:0:0:0:
64,192,79219,1,0,0:0:0:0:
192,192,79275,1,0,0:0:0:0:
192,192,79388,128,0,79445:0:0:0:0:
320,192,79388,128,0,79445:0:0:0:0:
64,192,79388,1,0,0:0:0:0:
448,192,79445,1,0,0:0:0:0:
64,192,79502,1,0,0:0:0:0:
192,192,79615,128,0,79671:0:0:0:0:
320,192,79615,128,0,79671:0:0:0:0:
448,192,79615,1,0,0:0:0:0:
64,192,79671,1,0,0:0:0:0:
448,192,79728,1,0,0:0:0:0:
320,192,79785,1,0,0:0:0:0:
64,192,79841,1,0,0:0:0:0:
192,192,79841,1,0,0:0:0:0:
448,192,79898,1,0,0:0:0:0:
320,192,79954,1,0,0:0:0:0:
192,192,79954,1,0,0:0:0:0:
64,192,80011,1,0,0:0:0:0:
448,192,80068,1,0,0:0:0:0:
320,192,80068,1,0,0:0:0:0:
64,192,80124,1,0,0:0:0:0:
192,192,80181,1,0,0:0:0:0:
320,192,80181,1,0,0:0:0:0:
448,192,80181,1,0,0:0:0:0:
64,192,80237,1,0,0:0:0:0:
448,192,80294,1,0,0:0:0:0:
192,192,80351,1,0,0:0:0:0:
448,192,80407,1,0,0:0:0:0:
64,192,80407,1,0,0:0:0:0:
320,192,80407,1,0,0:0:0:0:
320,192,80520,1,0,0:0:0:0:
448,192,80520,1,0,0:0:0:0:
64,192,80520,1,0,0:0:0:0:
192,192,80634,1,0,0:0:0:0:
320,192,80634,1,0,0:0:0:0:
64,192,80634,1,0,0:0:0:0:
448,192,80747,1,0,0:0:0:0:
192,192,80860,1,0,0:0:0:0:
64,192,80973,128,0,81313:0:0:0:0:
448,192,81086,1,0,0:0:0:0:
192,192,81086,128,0,81539:0:0:0:0:
320,192,81200,128,0,81426:0:0:0:0:
448,192,81313,128,0,81426:0:0:0:0:
64,192,81426,128,0,81539:0:0:0:0:
448,192,81539,128,0,81766:0:0:0:0:
320,192,81596,128,0,81766:0:0:0:0:
64,192,81652,128,0,81766:0:0:0:0:
192,192,81652,128,0,81766:0:0:0:0:
64,192,81879,1,0,0:0:0:0:
320,192,81879,1,0,0:0:0:0:
448,192,81879,128,0,82445:0:0:0:0:
192,192,81992,1,0,0:0:0:0:
64,192,81992,1,0,0:0:0:0:
320,192,82049,1,0,0:0:0:0:
192,192,82105,1,0,0:0:0:0:
64,192,82162,1,0,0:0:0:0:
320,192,82219,1,0,0:0:0:0:
192,192,82275,1,0,0:0:0:0:
64,192,82332,1,0,0:0:0:0:
320,192,82388,1,0,0:0:0:0:
64,192,82445,1,0,0:0:0:0:
192,192,82445,1,0,0:0:0:0:
448,192,82558,1,0,0:0:0:0:
192,192,82671,1,0,0:0:0:0:
448,192,82785,128,0,83124:0:0:0:0:
64,192,82898,1,0,0:0:0:0:
320,192,82898,128,0,83351:0:0:0:0:
192,192,83011,128,0,83237:0:0:0:0:
64,192,83124,128,0,83237:0:0:0:0:
448,192,83237,128,0,83351:0:0:0:0:
64,192,83351,128,0,83577:0:0:0:0:
192,192,83407,128,0,83577:0:0:0:0:
448,192,83464,128,0,83577:0:0:0:0:
320,192,83464,128,0,83577:0:0:0:0:
448,192,83690,1,0,0:0:0:0:
192,192,83690,1,0,0:0:0:0:
64,192,83690,128,0,84256:0:0:0:0:
448,192,83803,1,0,0:0:0:0:
320,192,83803,1,0,0:0:0:0:
192,192,83860,1,0,0:0:0:0:
320,192,83917,1,0,0:0:0:0:
448,192,83973,1,0,0:0:0:0:
192,192,84030,1,0,0:0:0:0:
320,192,84086,1,0,0:0:0:0:
448,192,84143,1,0,0:0:0:0:
192,192,84200,1,0,0:0:0:0:
320,192,84256,1,0,0:0:0:0:
448,192,84256,1,0,0:0:0:0:
64,192,84369,1,0,0:0:0:0:
320,192,84483,1,0,0:0:0:0:
64,192,84596,128,0,84936:0:0:0:0:
448,192,84709,1,0,0:0:0:0:
320,192,84709,128,0,85162:0:0:0:0:
192,192,84822,128,0,85049:0:0:0:0:
448,192,84936,128,0,85049:0:0:0:0:
64,192,85049,128,0,85162:0:0:0:0:
448,192,85162,128,0,85388:0:0:0:0:
192,192,85219,128,0,85388:0:0:0:0:
320,192,85275,128,0,85388:0:0:0:0:
64,192,85275,128,0,85388:0:0:0:0:
448,192,85502,1,0,0:0:0:0:
192,192,85502,1,0,0:0:0:0:
64,192,85502,128,0,85728:0:0:0:0:
448,192,85615,1,0,0:0:0:0:
320,192,85615,1,0,0:0:0:0:
192,192,85671,1,0,0:0:0:0:
448,192,85728,1,0,0:0:0:0:
320,192,85785,1,0,0:0:0:0:
192,192,85841,128,0,86068:0:0:0:0:
448,192,85898,1,0,0:0:0:0:
320,192,85954,1,0,0:0:0:0:
64,192,86011,1,0,0:0:0:0:
320,192,86068,1,0,0:0:0:0:
448,192,86068,128,0,86407:0:0:0:0:
64,192,86124,1,0,0:0:0:0:
192,192,86181,1,0,0:0:0:0:
320,192,86237,1,0,0:0:0:0:
64,192,86294,1,0,0:0:0:0:
192,192,86351,1,0,0:0:0:0:
320,192,86407,128,0,86520:0:0:0:0:
64,192,86464,1,0,0:0:0:0:
448,192,86520,1,0,0:0:0:0:
192,192,86520,1,0,0:0:0:0:
64,192,86634,128,0,86747:0:0:0:0:
448,192,86690,128,0,86803:0:0:0:0:
192,192,86747,1,0,0:0:0:0:
320,192,86860,128,0,86917:0:0:0:0:
192,192,86917,128,0,86973:0:0:0:0:
448,192,86973,1,0,0:0:0:0:
64,192,86973,128,0,87030:0:0:0:0:
320,192,87030,1,0,0:0:0:0:
192,192,87086,1,0,0:0:0:0:
448,192,87086,1,0,0:0:0:0:
64,192,87143,1,0,0:0:0:0:
320,192,87200,1,0,0:0:0:0:
192,192,87256,1,0,0:0:0:0:
64,192,87313,1,0,0:0:0:0:
448,192,87313,1,0,0:0:0:0:
320,192,87369,1,0,0:0:0:0:
192,192,87426,1,0,0:0:0:0:
64,192,87426,1,0,0:0:0:0:
448,192,87483,1,0,0:0:0:0:
192,192,87539,1,0,0:0:0:0:
64,192,87596,1,0,0:0:0:0:
320,192,87652,1,0,0:0:0:0:
192,192,87709,1,0,0:0:0:0:
448,192,87766,1,0,0:0:0:0:
320,192,87822,1,0,0:0:0:0:
192,192,87879,1,0,0:0:0:0:
64,192,87879,1,0,0:0:0:0:
448,192,87879,1,0,0:0:0:0:
64,192,87992,1,0,0:0:0:0:
320,192,88105,1,0,0:0:0:0:
448,192,88219,128,0,88558:0:0:0:0:
64,192,88332,1,0,0:0:0:0:
320,192,88332,128,0,88671:0:0:0:0:
192,192,88445,128,0,88671:0:0:0:0:
64,192,88558,128,0,88671:0:0:0:0:
448,192,88671,128,0,88785:0:0:0:0:
320,192,88785,128,0,88841:0:0:0:0:
192,192,88785,128,0,88898:0:0:0:0:
64,192,88785,128,0,88954:0:0:0:0:
448,192,88898,1,0,0:0:0:0:
320,192,88954,1,0,0:0:0:0:
192,192,89011,1,0,0:0:0:0:
64,192,89068,1,0,0:0:0:0:
448,192,89124,128,0,89690:0:0:0:0:
320,192,89124,128,0,89237:0:0:0:0:
192,192,89181,1,0,0:0:0:0:
64,192,89237,1,0,0:0:0:0:
192,192,89294,1,0,0:0:0:0:
320,192,89351,1,0,0:0:0:0:
64,192,89407,1,0,0:0:0:0:
192,192,89464,1,0,0:0:0:0:
320,192,89520,1,0,0:0:0:0:
64,192,89577,1,0,0:0:0:0:
192,192,89634,1,0,0:0:0:0:
64,192,89690,1,0,0:0:0:0:
320,192,89690,1,0,0:0:0:0:
320,192,89803,1,0,0:0:0:0:
448,192,89917,1,0,0:0:0:0:
64,192,90030,128,0,90369:0:0:0:0:
192,192,90143,128,0,90483:0:0:0:0:
448,192,90143,1,0,0:0:0:0:
320,192,90256,128,0,90483:0:0:0:0:
448,192,90369,128,0,90483:0:0:0:0:
64,192,90483,128,0,90596:0:0:0:0:
192,192,90596,128,0,90652:0:0:0:0:
320,192,90596,128,0,90709:0:0:0:0:
448,192,90596,128,0,90766:0:0:0:0:
64,192,90709,1,0,0:0:0:0:
192,192,90766,1,0,0:0:0:0:
320,192,90822,1,0,0:0:0:0:
448,192,90879,1,0,0:0:0:0:
64,192,90936,128,0,91275:0:0:0:0:
192,192,90936,128,0,91049:0:0:0:0:
320,192,90992,1,0,0:0:0:0:
448,192,91049,1,0,0:0:0:0:
320,192,91105,1,0,0:0:0:0:
192,192,91162,1,0,0:0:0:0:
448,192,91219,1,0,0:0:0:0:
320,192,91275,1,0,0:0:0:0:
192,192,91332,1,0,0:0:0:0:
64,192,91388,1,0,0:0:0:0:
448,192,91388,1,0,0:0:0:0:
320,192,91445,1,0,0:0:0:0:
192,192,91445,1,0,0:0:0:0:
64,192,91502,1,0,0:0:0:0:
448,192,91502,1,0,0:0:0:0:
448,192,91615,1,0,0:0:0:0:
64,192,91728,1,0,0:0:0:0:
192,192,91841,128,0,92181:0:0:0:0:
64,192,91954,128,0,92294:0:0:0:0:
448,192,91954,1,0,0:0:0:0:
320,192,92068,128,0,92294:0:0:0:0:
448,192,92181,128,0,92294:0:0:0:0:
192,192,92294,128,0,92407:0:0:0:0:
320,192,92407,128,0,92520:0:0:0:0:
448,192,92407,128,0,92464:0:0:0:0:
64,192,92407,128,0,92577:0:0:0:0:
192,192,92520,1,0,0:0:0:0:
448,192,92577,1,0,0:0:0:0:
320,192,92634,1,0,0:0:0:0:
64,192,92690,1,0,0:0:0:0:
192,192,92747,128,0,93030:0:0:0:0:
320,192,92747,128,0,92860:0:0:0:0:
448,192,92747,128,0,92803:0:0:0:0:
64,192,92860,1,0,0:0:0:0:
448,192,92917,1,0,0:0:0:0:
320,192,92973,1,0,0:0:0:0:
64,192,93030,1,0,0:0:0:0:
320,192,93086,1,0,0:0:0:0:
448,192,93086,128,0,93200:0:0:0:0:
192,192,93143,1,0,0:0:0:0:
64,192,93200,1,0,0:0:0:0:
320,192,93256,1,0,0:0:0:0:
64,192,93313,1,0,0:0:0:0:
192,192,93313,128,0,93652:0:0:0:0:
448,192,93369,1,0,0:0:0:0:
320,192,93426,1,0,0:0:0:0:
64,192,93483,1,0,0:0:0:0:
448,192,93539,1,0,0:0:0:0:
320,192,93596,1,0,0:0:0:0:
64,192,93652,128,0,93766:0:0:0:0:
448,192,93709,1,0,0:0:0:0:
320,192,93766,1,0,0:0:0:0:
192,192,93766,1,0,0:0:0:0:
448,192,93822,1,0,0:0:0:0:
192,192,93879,128,0,93992:0:0:0:0:
320,192,93936,1,0,0:0:0:0:
64,192,93992,1,0,0:0:0:0:
448,192,93992,1,0,0:0:0:0:
192,192,94105,1,0,0:0:0:0:
64,192,94105,1,0,0:0:0:0:
320,192,94162,1,0,0:0:0:0:
448,192,94219,1,0,0:0:0:0:
64,192,94219,1,0,0:0:0:0:
192,192,94219,1,0,0:0:0:0:
448,192,94332,1,0,0:0:0:0:
320,192,94332,1,0,0:0:0:0:
64,192,94445,1,0,0:0:0:0:
192,192,94445,1,0,0:0:0:0:
448,192,94558,1,0,0:0:0:0:
320,192,94558,1,0,0:0:0:0:
192,192,94558,1,0,0:0:0:0:
64,192,94671,1,0,0:0:0:0:
448,192,94671,1,0,0:0:0:0:
64,192,94785,1,0,0:0:0:0:
192,192,94785,1,0,0:0:0:0:
448,192,94898,1,0,0:0:0:0:
192,192,94898,1,0,0:0:0:0:
64,192,94898,1,0,0:0:0:0:
448,192,95011,1,0,0:0:0:0:
320,192,95011,1,0,0:0:0:0:
320,192,95124,1,0,0:0:0:0:
448,192,95124,1,0,0:0:0:0:
192,192,95124,1,0,0:0:0:0:
64,192,95124,128,0,98747:0:0:0:0:
448,192,96936,128,0,98747:0:0:0:0:
192,192,98747,1,0,0:0:0:0:
320,192,98747,128,0,98860:0:0:0:0:
64,192,98973,1,0,0:0:0:0:
448,192,98973,1,0,0:0:0:0:
192,192,99086,1,0,0:0:0:0:
448,192,99200,1,0,0:0:0:0:
192,192,99313,1,0,0:0:0:0:
320,192,99313,1,0,0:0:0:0:
64,192,99426,1,0,0:0:0:0:
448,192,99539,128,0,99652:0:0:0:0:
320,192,99539,1,0,0:0:0:0:
192,192,99766,1,0,0:0:0:0:
64,192,99766,1,0,0:0:0:0:
448,192,99879,1,0,0:0:0:0:
192,192,99992,1,0,0:0:0:0:
448,192,100105,128,0,100219:0:0:0:0:
320,192,100105,1,0,0:0:0:0:
448,192,100332,128,0,100445:0:0:0:0:
320,192,100332,1,0,0:0:0:0:
192,192,100558,128,0,100671:0:0:0:0:
64,192,100558,128,0,100671:0:0:0:0:
192,192,100898,128,0,101011:0:0:0:0:
448,192,100898,128,0,101011:0:0:0:0:
64,192,101237,1,0,0:0:0:0:
64,192,101351,1,0,0:0:0:0:
192,192,101351,1,0,0:0:0:0:
448,192,101464,1,0,0:0:0:0:
320,192,101464,1,0,0:0:0:0:
64,192,101520,1,0,0:0:0:0:
448,192,101577,1,0,0:0:0:0:
320,192,101634,1,0,0:0:0:0:
192,192,101690,1,0,0:0:0:0:
64,192,101747,1,0,0:0:0:0:
320,192,101803,1,0,0:0:0:0:
192,192,101860,1,0,0:0:0:0:
320,192,101917,1,0,0:0:0:0:
448,192,101973,1,0,0:0:0:0:
64,192,102030,1,0,0:0:0:0:
192,192,102086,1,0,0:0:0:0:
320,192,102143,1,0,0:0:0:0:
448,192,102200,1,0,0:0:0:0:
192,192,102256,1,0,0:0:0:0:
64,192,102313,1,0,0:0:0:0:
448,192,102369,1,0,0:0:0:0:
320,192,102369,1,0,0:0:0:0:
320,192,102483,1,0,0:0:0:0:
64,192,102596,1,0,0:0:0:0:
448,192,102596,1,0,0:0:0:0:
192,192,102709,1,0,0:0:0:0:
320,192,102822,1,0,0:0:0:0:
448,192,102822,1,0,0:0:0:0:
192,192,102936,1,0,0:0:0:0:
64,192,103049,1,0,0:0:0:0:
448,192,103049,1,0,0:0:0:0:
320,192,103105,1,0,0:0:0:0:
192,192,103162,1,0,0:0:0:0:
64,192,103219,1,0,0:0:0:0:
448,192,103275,1,0,0:0:0:0:
320,192,103275,1,0,0:0:0:0:
320,192,103388,1,0,0:0:0:0:
64,192,103502,1,0,0:0:0:0:
448,192,103502,1,0,0:0:0:0:
320,192,103615,1,0,0:0:0:0:
192,192,103728,1,0,0:0:0:0:
448,192,103728,1,0,0:0:0:0:
64,192,103841,1,0,0:0:0:0:
320,192,103898,1,0,0:0:0:0:
448,192,103954,1,0,0:0:0:0:
192,192,103954,1,0,0:0:0:0:
64,192,104011,1,0,0:0:0:0:
320,192,104068,1,0,0:0:0:0:
448,192,104124,1,0,0:0:0:0:
64,192,104181,1,0,0:0:0:0:
192,192,104181,1,0,0:0:0:0:
192,192,104294,1,0,0:0:0:0:
64,192,104407,1,0,0:0:0:0:
320,192,104407,1,0,0:0:0:0:
448,192,104520,1,0,0:0:0:0:
320,192,104520,1,0,0:0:0:0:
64,192,104634,1,0,0:0:0:0:
192,192,104634,1,0,0:0:0:0:
192,192,104747,1,0,0:0:0:0:
320,192,104747,1,0,0:0:0:0:
64,192,104860,1,0,0:0:0:0:
448,192,104860,1,0,0:0:0:0:
192,192,104917,1,0,0:0:0:0:
448,192,104973,1,0,0:0:0:0:
320,192,105030,1,0,0:0:0:0:
192,192,105086,1,0,0:0:0:0:
64,192,105086,1,0,0:0:0:0:
192,192,105200,1,0,0:0:0:0:
64,192,105313,1,0,0:0:0:0:
448,192,105313,1,0,0:0:0:0:
448,192,105426,1,0,0:0:0:0:
192,192,105426,1,0,0:0:0:0:
64,192,105539,1,0,0:0:0:0:
320,192,105539,1,0,0:0:0:0:
448,192,105596,1,0,0:0:0:0:
192,192,105652,1,0,0:0:0:0:
64,192,105709,1,0,0:0:0:0:
320,192,105766,1,0,0:0:0:0:
448,192,105766,1,0,0:0:0:0:
64,192,105822,1,0,0:0:0:0:
192,192,105879,1,0,0:0:0:0:
320,192,105936,1,0,0:0:0:0:
192,192,105992,1,0,0:0:0:0:
64,192,105992,1,0,0:0:0:0:
448,192,105992,1,0,0:0:0:0:
320,192,106049,1,0,0:0:0:0:
64,192,106105,1,0,0:0:0:0:
448,192,106162,1,0,0:0:0:0:
192,192,106219,1,0,0:0:0:0:
64,192,106275,1,0,0:0:0:0:
320,192,106332,1,0,0:0:0:0:
192,192,106332,1,0,0:0:0:0:
448,192,106332,1,0,0:0:0:0:
64,192,106388,1,0,0:0:0:0:
448,192,106445,1,0,0:0:0:0:
320,192,106502,1,0,0:0:0:0:
64,192,106558,1,0,0:0:0:0:
448,192,106615,1,0,0:0:0:0:
320,192,106671,1,0,0:0:0:0:
192,192,106671,1,0,0:0:0:0:
64,192,106671,1,0,0:0:0:0:
448,192,106728,1,0,0:0:0:0:
192,192,106785,1,0,0:0:0:0:
320,192,106841,1,0,0:0:0:0:
448,192,106898,1,0,0:0:0:0:
192,192,106954,1,0,0:0:0:0:
320,192,107011,1,0,0:0:0:0:
64,192,107011,1,0,0:0:0:0:
448,192,107011,1,0,0:0:0:0:
192,192,107068,1,0,0:0:0:0:
320,192,107124,1,0,0:0:0:0:
448,192,107181,1,0,0:0:0:0:
192,192,107237,1,0,0:0:0:0:
64,192,107294,1,0,0:0:0:0:
320,192,107351,1,0,0:0:0:0:
448,192,107351,1,0,0:0:0:0:
192,192,107407,1,0,0:0:0:0:
64,192,107407,1,0,0:0:0:0:
320,192,107464,1,0,0:0:0:0:
448,192,107464,1,0,0:0:0:0:
192,192,107520,1,0,0:0:0:0:
64,192,107520,1,0,0:0:0:0:
320,192,107577,1,0,0:0:0:0:
448,192,107577,1,0,0:0:0:0:
192,192,107634,1,0,0:0:0:0:
64,192,107634,1,0,0:0:0:0:
320,192,107690,1,0,0:0:0:0:
448,192,107690,1,0,0:0:0:0:
192,192,107747,1,0,0:0:0:0:
64,192,107747,1,0,0:0:0:0:
320,192,107803,1,0,0:0:0:0:
448,192,107803,128,0,108002:0:0:0:0:
320,192,108030,1,0,0:0:0:0:
64,192,108030,128,0,108115:0:0:0:0:
192,192,108143,128,0,108228:0:0:0:0:
320,192,108256,128,0,108341:0:0:0:0:
448,192,108369,1,0,0:0:0:0:
192,192,108369,128,0,108454:0:0:0:0:
64,192,108483,128,0,108568:0:0:0:0:
448,192,108596,128,0,108794:0:0:0:0:
320,192,108822,1,0,0:0:0:0:
64,192,108822,128,0,108907:0:0:0:0:
192,192,108936,128,0,109020:0:0:0:0:
320,192,109049,128,0,109134:0:0:0:0:
64,192,109162,1,0,0:0:0:0:
448,192,109162,128,0,109247:0:0:0:0:
192,192,109219,1,0,0:0:0:0:
320,192,109275,1,0,0:0:0:0:
64,192,109332,1,0,0:0:0:0:
320,192,109388,1,0,0:0:0:0:
448,192,109388,128,0,109473:0:0:0:0:
192,192,109502,128,0,109558:0:0:0:0:
448,192,109615,1,0,0:0:0:0:
192,192,109615,1,0,0:0:0:0:
320,192,109615,1,0,0:0:0:0:
64,192,109615,1,0,0:0:0:0:
64,192,109728,1,0,0:0:0:0:
448,192,109841,1,0,0:0:0:0:
320,192,109841,1,0,0:0:0:0:
192,192,109841,1,0,0:0:0:0:
448,192,109954,1,0,0:0:0:0:
64,192,109954,1,0,0:0:0:0:
64,192,110068,1,0,0:0:0:0:
320,192,110068,1,0,0:0:0:0:
192,192,110068,1,0,0:0:0:0:
448,192,110181,1,0,0:0:0:0:
320,192,110181,1,0,0:0:0:0:
64,192,110294,1,0,0:0:0:0:
448,192,110294,1,0,0:0:0:0:
192,192,110294,1,0,0:0:0:0:
64,192,110407,128,0,110464:0:0:0:0:
320,192,110407,128,0,110464:0:0:0:0:
448,192,110520,1,0,0:0:0:0:
192,192,110520,1,0,0:0:0:0:
64,192,110634,128,0,110690:0:0:0:0:
448,192,110634,128,0,110690:0:0:0:0:
320,192,110747,1,0,0:0:0:0:
192,192,110747,1,0,0:0:0:0:
64,192,110860,128,0,110917:0:0:0:0:
320,192,110860,128,0,110917:0:0:0:0:
192,192,110973,1,0,0:0:0:0:
448,192,110973,1,0,0:0:0:0:
448,192,111086,128,0,111143:0:0:0:0:
64,192,111086,128,0,111143:0:0:0:0:
192,192,111143,1,0,0:0:0:0:
64,192,111200,1,0,0:0:0:0:
320,192,111200,1,0,0:0:0:0:
448,192,111256,1,0,0:0:0:0:
192,192,111313,1,0,0:0:0:0:
320,192,111369,1,0,0:0:0:0:
448,192,111426,128,0,111483:0:0:0:0:
192,192,111426,1,0,0:0:0:0:
64,192,111426,128,0,111483:0:0:0:0:
448,192,111539,128,0,111596:0:0:0:0:
64,192,111539,128,0,111596:0:0:0:0:
192,192,111652,1,0,0:0:0:0:
320,192,111652,1,0,0:0:0:0:
320,192,111766,128,0,111822:0:0:0:0:
448,192,111766,128,0,111822:0:0:0:0:
64,192,111879,1,0,0:0:0:0:
192,192,111879,1,0,0:0:0:0:
192,192,111992,128,0,112049:0:0:0:0:
320,192,111992,128,0,112049:0:0:0:0:
448,192,112105,1,0,0:0:0:0:
64,192,112105,1,0,0:0:0:0:
64,192,112219,128,0,112275:0:0:0:0:
448,192,112219,128,0,112275:0:0:0:0:
320,192,112332,128,0,112388:0:0:0:0:
64,192,112332,128,0,112388:0:0:0:0:
192,192,112332,1,0,0:0:0:0:
448,192,112445,1,0,0:0:0:0:
448,192,112558,128,0,112615:0:0:0:0:
320,192,112558,128,0,112615:0:0:0:0:
192,192,112558,1,0,0:0:0:0:
64,192,112671,128,0,112728:0:0:0:0:
320,192,112671,128,0,112728:0:0:0:0:
448,192,112785,1,0,0:0:0:0:
64,192,112785,1,0,0:0:0:0:
192,192,112785,1,0,0:0:0:0:
192,192,112898,1,0,0:0:0:0:
64,192,113011,1,0,0:0:0:0:
448,192,113011,1,0,0:0:0:0:
320,192,113011,1,0,0:0:0:0:
320,192,113124,1,0,0:0:0:0:
64,192,113237,1,0,0:0:0:0:
448,192,113237,1,0,0:0:0:0:
192,192,113237,1,0,0:0:0:0:
448,192,113351,1,0,0:0:0:0:
192,192,113464,1,0,0:0:0:0:
64,192,113464,1,0,0:0:0:0:
320,192,113464,1,0,0:0:0:0:
448,192,113577,1,0,0:0:0:0:
192,192,113577,1,0,0:0:0:0:
320,192,113690,1,0,0:0:0:0:
64,192,113690,1,0,0:0:0:0:
448,192,113690,1,0,0:0:0:0:
320,192,113803,1,0,0:0:0:0:
192,192,113803,1,0,0:0:0:0:
448,192,113917,1,0,0:0:0:0:
192,192,113917,1,0,0:0:0:0:
64,192,113917,1,0,0:0:0:0:
64,192,114030,128,0,114086:0:0:0:0:
320,192,114030,128,0,114086:0:0:0:0:
448,192,114143,1,0,0:0:0:0:
192,192,114143,1,0,0:0:0:0:
448,192,114256,128,0,114313:0:0:0:0:
320,192,114256,128,0,114313:0:0:0:0:
64,192,114369,1,0,0:0:0:0:
192,192,114369,1,0,0:0:0:0:
64,192,114483,128,0,114539:0:0:0:0:
448,192,114483,128,0,114539:0:0:0:0:
320,192,114596,1,0,0:0:0:0:
192,192,114596,1,0,0:0:0:0:
192,192,114709,128,0,114766:0:0:0:0:
64,192,114709,128,0,114766:0:0:0:0:
448,192,114766,1,0,0:0:0:0:
64,192,114822,1,0,0:0:0:0:
320,192,114822,1,0,0:0:0:0:
192,192,114879,1,0,0:0:0:0:
448,192,114936,1,0,0:0:0:0:
64,192,114992,1,0,0:0:0:0:
320,192,115049,128,0,115105:0:0:0:0:
192,192,115049,128,0,115105:0:0:0:0:
448,192,115049,1,0,0:0:0:0:
320,192,115162,128,0,115219:0:0:0:0:
192,192,115162,128,0,115219:0:0:0:0:
448,192,115275,1,0,0:0:0:0:
64,192,115275,1,0,0:0:0:0:
192,192,115388,128,0,115445:0:0:0:0:
64,192,115388,128,0,115445:0:0:0:0:
448,192,115445,1,0,0:0:0:0:
320,192,115502,1,0,0:0:0:0:
64,192,115502,1,0,0:0:0:0:
192,192,115615,128,0,115671:0:0:0:0:
64,192,115615,128,0,115671:0:0:0:0:
320,192,115671,1,0,0:0:0:0:
448,192,115728,1,0,0:0:0:0:
192,192,115728,1,0,0:0:0:0:
192,192,115841,128,0,115898:0:0:0:0:
64,192,115841,128,0,115898:0:0:0:0:
448,192,115898,1,0,0:0:0:0:
320,192,115954,1,0,0:0:0:0:
64,192,115954,1,0,0:0:0:0:
192,192,116011,1,0,0:0:0:0:
320,192,116068,1,0,0:0:0:0:
448,192,116124,1,0,0:0:0:0:
192,192,116181,1,0,0:0:0:0:
64,192,116181,1,0,0:0:0:0:
320,192,116237,1,0,0:0:0:0:
448,192,116294,1,0,0:0:0:0:
64,192,116294,1,0,0:0:0:0:
192,192,116351,1,0,0:0:0:0:
320,192,116407,1,0,0:0:0:0:
448,192,116407,1,0,0:0:0:0:
64,192,116464,1,0,0:0:0:0:
192,192,116520,1,0,0:0:0:0:
320,192,116520,1,0,0:0:0:0:
448,192,116577,1,0,0:0:0:0:
64,192,116634,1,0,0:0:0:0:
192,192,116634,1,0,0:0:0:0:
320,192,116690,1,0,0:0:0:0:
448,192,116690,1,0,0:0:0:0:
192,192,116747,1,0,0:0:0:0:
64,192,116747,1,0,0:0:0:0:
320,192,116803,1,0,0:0:0:0:
192,192,116860,1,0,0:0:0:0:
64,192,116860,1,0,0:0:0:0:
448,192,116860,1,0,0:0:0:0:
448,192,116973,1,0,0:0:0:0:
320,192,116973,1,0,0:0:0:0:
64,192,116973,1,0,0:0:0:0:
448,192,117086,1,0,0:0:0:0:
320,192,117086,1,0,0:0:0:0:
192,192,117086,1,0,0:0:0:0:
64,192,117200,1,0,0:0:0:0:
192,192,117200,1,0,0:0:0:0:
448,192,117313,1,0,0:0:0:0:
320,192,117313,1,0,0:0:0:0:
192,192,117313,1,0,0:0:0:0:
320,192,117426,1,0,0:0:0:0:
64,192,117426,1,0,0:0:0:0:
64,192,117539,1,0,0:0:0:0:
192,192,117539,1,0,0:0:0:0:
448,192,117539,1,0,0:0:0:0:
320,192,117652,128,0,117709:0:0:0:0:
192,192,117652,128,0,117709:0:0:0:0:
64,192,117766,1,0,0:0:0:0:
448,192,117766,1,0,0:0:0:0:
64,192,117879,128,0,117936:0:0:0:0:
448,192,117879,128,0,117936:0:0:0:0:
192,192,117992,1,0,0:0:0:0:
320,192,117992,1,0,0:0:0:0:
192,192,118105,128,0,118162:0:0:0:0:
448,192,118105,128,0,118162:0:0:0:0:
64,192,118219,1,0,0:0:0:0:
320,192,118219,1,0,0:0:0:0:
448,192,118332,128,0,118388:0:0:0:0:
64,192,118332,128,0,118388:0:0:0:0:
320,192,118388,1,0,0:0:0:0:
64,192,118445,1,0,0:0:0:0:
192,192,118445,1,0,0:0:0:0:
320,192,118502,1,0,0:0:0:0:
448,192,118558,1,0,0:0:0:0:
192,192,118615,1,0,0:0:0:0:
320,192,118671,128,0,118728:0:0:0:0:
448,192,118671,128,0,118728:0:0:0:0:
64,192,118671,1,0,0:0:0:0:
448,192,118785,128,0,118841:0:0:0:0:
320,192,118785,128,0,118841:0:0:0:0:
192,192,118898,1,0,0:0:0:0:
64,192,118898,1,0,0:0:0:0:
448,192,119011,128,0,119068:0:0:0:0:
64,192,119011,128,0,119068:0:0:0:0:
192,192,119124,1,0,0:0:0:0:
320,192,119124,1,0,0:0:0:0:
192,192,119237,128,0,119294:0:0:0:0:
448,192,119237,128,0,119294:0:0:0:0:
64,192,119351,1,0,0:0:0:0:
320,192,119351,1,0,0:0:0:0:
64,192,119464,128,0,119520:0:0:0:0:
448,192,119464,128,0,119520:0:0:0:0:
320,192,119577,128,0,119634:0:0:0:0:
192,192,119577,128,0,119634:0:0:0:0:
64,192,119577,1,0,0:0:0:0:
448,192,119690,1,0,0:0:0:0:
448,192,119803,128,0,119860:0:0:0:0:
64,192,119803,128,0,119860:0:0:0:0:
320,192,119803,1,0,0:0:0:0:
192,192,119917,128,0,119973:0:0:0:0:
64,192,119917,128,0,119973:0:0:0:0:
192,192,120030,1,0,0:0:0:0:
448,192,120030,1,0,0:0:0:0:
320,192,120030,1,0,0:0:0:0:
320,192,120143,1,0,0:0:0:0:
448,192,120256,1,0,0:0:0:0:
64,192,120256,1,0,0:0:0:0:
192,192,120256,1,0,0:0:0:0:
320,192,120369,1,0,0:0:0:0:
448,192,120369,1,0,0:0:0:0:
192,192,120426,1,0,0:0:0:0:
448,192,120483,1,0,0:0:0:0:
320,192,120483,1,0,0:0:0:0:
64,192,120483,1,0,0:0:0:0:
192,192,120596,1,0,0:0:0:0:
448,192,120709,1,0,0:0:0:0:
320,192,120709,1,0,0:0:0:0:
192,192,120709,1,0,0:0:0:0:
64,192,120822,1,0,0:0:0:0:
320,192,120822,1,0,0:0:0:0:
192,192,120936,1,0,0:0:0:0:
448,192,120936,1,0,0:0:0:0:
64,192,120936,1,0,0:0:0:0:
448,192,121049,1,0,0:0:0:0:
320,192,121049,1,0,0:0:0:0:
64,192,121162,1,0,0:0:0:0:
192,192,121162,1,0,0:0:0:0:
320,192,121162,1,0,0:0:0:0:
448,192,121275,128,0,121332:0:0:0:0:
320,192,121275,128,0,121332:0:0:0:0:
192,192,121388,1,0,0:0:0:0:
64,192,121388,1,0,0:0:0:0:
320,192,121502,128,0,121558:0:0:0:0:
64,192,121502,128,0,121558:0:0:0:0:
448,192,121615,1,0,0:0:0:0:
192,192,121615,1,0,0:0:0:0:
192,192,121728,128,0,121785:0:0:0:0:
320,192,121728,128,0,121785:0:0:0:0:
64,192,121841,1,0,0:0:0:0:
448,192,121841,1,0,0:0:0:0:
64,192,121954,128,0,122011:0:0:0:0:
448,192,121954,128,0,122011:0:0:0:0:
320,192,122011,1,0,0:0:0:0:
192,192,122068,1,0,0:0:0:0:
448,192,122068,1,0,0:0:0:0:
64,192,122124,1,0,0:0:0:0:
320,192,122181,1,0,0:0:0:0:
192,192,122237,1,0,0:0:0:0:
448,192,122294,128,0,122351:0:0:0:0:
320,192,122294,128,0,122351:0:0:0:0:
64,192,122294,128,0,122520:0:0:0:0:
320,192,122407,128,0,122520:0:0:0:0:
448,192,122407,128,0,122520:0:0:0:0:
192,192,122634,128,0,122747:0:0:0:0:
320,192,122634,128,0,122747:0:0:0:0:
448,192,122634,128,0,122747:0:0:0:0:
64,192,122860,128,0,122973:0:0:0:0:
192,192,122860,128,0,122973:0:0:0:0:
320,192,122860,128,0,122973:0:0:0:0:
192,192,123086,1,0,0:0:0:0:
64,192,123086,1,0,0:0:0:0:
448,192,123086,1,0,0:0:0:0:
320,192,123143,1,0,0:0:0:0:
192,192,123200,1,0,0:0:0:0:
64,192,123256,1,0,0:0:0:0:
448,192,123313,1,0,0:0:0:0:
320,192,123313,1,0,0:0:0:0:
192,192,123369,1,0,0:0:0:0:
64,192,123369,1,0,0:0:0:0:
320,192,123426,1,0,0:0:0:0:
448,192,123426,1,0,0:0:0:0:
448,192,123539,1,0,0:0:0:0:
192,192,123539,1,0,0:0:0:0:
192,192,123652,1,0,0:0:0:0:
64,192,123652,1,0,0:0:0:0:
64,192,123766,1,0,0:0:0:0:
448,192,123766,1,0,0:0:0:0:
320,192,123879,1,0,0:0:0:0:
448,192,123879,1,0,0:0:0:0:
192,192,123879,1,0,0:0:0:0:
64,192,123992,1,0,0:0:0:0:
192,192,123992,1,0,0:0:0:0:
320,192,124105,1,0,0:0:0:0:
448,192,124105,1,0,0:0:0:0:
64,192,124105,1,0,0:0:0:0:
192,192,124219,1,0,0:0:0:0:
320,192,124332,1,0,0:0:0:0:
64,192,124332,1,0,0:0:0:0:
448,192,124445,128,0,124671:0:0:0:0:
64,192,124558,1,0,0:0:0:0:
320,192,124558,128,0,124898:0:0:0:0:
192,192,124671,128,0,124898:0:0:0:0:
64,192,124785,128,0,124898:0:0:0:0:
448,192,124785,1,0,0:0:0:0:
448,192,124898,128,0,125011:0:0:0:0:
64,192,125011,1,0,0:0:0:0:
320,192,125011,1,0,0:0:0:0:
192,192,125068,1,0,0:0:0:0:
448,192,125124,128,0,125237:0:0:0:0:
320,192,125124,128,0,125237:0:0:0:0:
192,192,125237,1,0,0:0:0:0:
64,192,125237,1,0,0:0:0:0:
448,192,125351,1,0,0:0:0:0:
192,192,125351,1,0,0:0:0:0:
64,192,125351,128,0,125464:0:0:0:0:
320,192,125464,1,0,0:0:0:0:
448,192,125464,1,0,0:0:0:0:
192,192,125520,1,0,0:0:0:0:
448,192,125577,1,0,0:0:0:0:
64,192,125577,1,0,0:0:0:0:
320,192,125634,1,0,0:0:0:0:
192,192,125690,1,0,0:0:0:0:
64,192,125690,1,0,0:0:0:0:
448,192,125747,1,0,0:0:0:0:
320,192,125803,1,0,0:0:0:0:
192,192,125860,1,0,0:0:0:0:
448,192,125917,1,0,0:0:0:0:
320,192,125917,1,0,0:0:0:0:
64,192,126030,1,0,0:0:0:0:
448,192,126143,1,0,0:0:0:0:
192,192,126143,1,0,0:0:0:0:
64,192,126256,128,0,126483:0:0:0:0:
448,192,126369,1,0,0:0:0:0:
192,192,126369,128,0,126709:0:0:0:0:
320,192,126483,128,0,126709:0:0:0:0:
448,192,126596,128,0,126709:0:0:0:0:
64,192,126596,1,0,0:0:0:0:
64,192,126709,128,0,126822:0:0:0:0:
192,192,126822,1,0,0:0:0:0:
448,192,126822,1,0,0:0:0:0:
320,192,126879,1,0,0:0:0:0:
192,192,126936,128,0,127049:0:0:0:0:
64,192,126936,128,0,127049:0:0:0:0:
448,192,127049,1,0,0:0:0:0:
320,192,127049,1,0,0:0:0:0:
320,192,127162,1,0,0:0:0:0:
448,192,127162,128,0,127275:0:0:0:0:
64,192,127162,1,0,0:0:0:0:
64,192,127275,1,0,0:0:0:0:
192,192,127275,1,0,0:0:0:0:
320,192,127332,1,0,0:0:0:0:
192,192,127388,1,0,0:0:0:0:
448,192,127388,1,0,0:0:0:0:
64,192,127445,1,0,0:0:0:0:
320,192,127502,1,0,0:0:0:0:
448,192,127502,1,0,0:0:0:0:
192,192,127558,1,0,0:0:0:0:
64,192,127615,1,0,0:0:0:0:
320,192,127671,1,0,0:0:0:0:
64,192,127728,1,0,0:0:0:0:
448,192,127728,1,0,0:0:0:0:
192,192,127841,1,0,0:0:0:0:
192,192,127954,1,0,0:0:0:0:
320,192,127954,1,0,0:0:0:0:
448,192,128068,128,0,128294:0:0:0:0:
64,192,128181,1,0,0:0:0:0:
192,192,128181,128,0,128520:0:0:0:0:
320,192,128294,128,0,128520:0:0:0:0:
64,192,128407,128,0,128520:0:0:0:0:
448,192,128407,1,0,0:0:0:0:
448,192,128520,128,0,128634:0:0:0:0:
192,192,128634,1,0,0:0:0:0:
64,192,128634,1,0,0:0:0:0:
320,192,128690,1,0,0:0:0:0:
192,192,128747,128,0,128860:0:0:0:0:
448,192,128747,128,0,128860:0:0:0:0:
64,192,128860,1,0,0:0:0:0:
320,192,128860,1,0,0:0:0:0:
320,192,128973,1,0,0:0:0:0:
192,192,128973,1,0,0:0:0:0:
448,192,128973,128,0,129086:0:0:0:0:
64,192,129086,1,0,0:0:0:0:
192,192,129086,1,0,0:0:0:0:
320,192,129143,1,0,0:0:0:0:
64,192,129200,1,0,0:0:0:0:
448,192,129200,1,0,0:0:0:0:
192,192,129256,1,0,0:0:0:0:
448,192,129313,1,0,0:0:0:0:
320,192,129313,128,0,129426:0:0:0:0:
64,192,129369,1,0,0:0:0:0:
192,192,129426,1,0,0:0:0:0:
448,192,129483,1,0,0:0:0:0:
320,192,129539,1,0,0:0:0:0:
64,192,129539,128,0,129652:0:0:0:0:
448,192,129596,1,0,0:0:0:0:
192,192,129652,1,0,0:0:0:0:
320,192,129709,1,0,0:0:0:0:
448,192,129766,1,0,0:0:0:0:
64,192,129766,1,0,0:0:0:0:
192,192,129822,1,0,0:0:0:0:
320,192,129879,128,0,129992:0:0:0:0:
448,192,129936,1,0,0:0:0:0:
64,192,129992,1,0,0:0:0:0:
192,192,129992,1,0,0:0:0:0:
320,192,130105,1,0,0:0:0:0:
448,192,130105,128,0,130219:0:0:0:0:
64,192,130162,128,0,130275:0:0:0:0:
192,192,130219,1,0,0:0:0:0:
320,192,130219,1,0,0:0:0:0:
192,192,130332,128,0,130388:0:0:0:0:
320,192,130388,128,0,130445:0:0:0:0:
64,192,130445,1,0,0:0:0:0:
448,192,130445,128,0,130502:0:0:0:0:
192,192,130502,1,0,0:0:0:0:
320,192,130558,1,0,0:0:0:0:
448,192,130615,1,0,0:0:0:0:
192,192,130671,1,0,0:0:0:0:
64,192,130671,1,0,0:0:0:0:
320,192,130728,1,0,0:0:0:0:
448,192,130785,1,0,0:0:0:0:
64,192,130785,1,0,0:0:0:0:
192,192,130841,1,0,0:0:0:0:
320,192,130898,1,0,0:0:0:0:
448,192,130954,1,0,0:0:0:0:
192,192,131011,1,0,0:0:0:0:
64,192,131011,1,0,0:0:0:0:
320,192,131068,1,0,0:0:0:0:
448,192,131124,1,0,0:0:0:0:
64,192,131124,1,0,0:0:0:0:
192,192,131181,1,0,0:0:0:0:
320,192,131237,1,0,0:0:0:0:
64,192,131294,1,0,0:0:0:0:
448,192,131351,128,0,131464:0:0:0:0:
320,192,131464,128,0,131577:0:0:0:0:
192,192,131577,128,0,131690:0:0:0:0:
64,192,131690,1,0,0:0:0:0:
448,192,131690,128,0,131917:0:0:0:0:
64,192,131803,128,0,132030:0:0:0:0:
192,192,131917,128,0,132143:0:0:0:0:
320,192,132030,128,0,132143:0:0:0:0:
448,192,132143,128,0,132256:0:0:0:0:
320,192,132256,128,0,132313:0:0:0:0:
192,192,132256,128,0,132369:0:0:0:0:
64,192,132256,128,0,132483:0:0:0:0:
448,192,132369,1,0,0:0:0:0:
320,192,132426,1,0,0:0:0:0:
192,192,132483,1,0,0:0:0:0:
448,192,132483,1,0,0:0:0:0:
192,192,132596,128,0,132652:0:0:0:0:
320,192,132596,128,0,132709:0:0:0:0:
448,192,132596,128,0,132766:0:0:0:0:
64,192,132709,1,0,0:0:0:0:
192,192,132766,1,0,0:0:0:0:
320,192,132822,1,0,0:0:0:0:
64,192,132822,1,0,0:0:0:0:
448,192,132879,1,0,0:0:0:0:
192,192,132936,1,0,0:0:0:0:
320,192,132936,1,0,0:0:0:0:
64,192,132992,1,0,0:0:0:0:
448,192,133049,1,0,0:0:0:0:
192,192,133105,1,0,0:0:0:0:
64,192,133162,128,0,133275:0:0:0:0:
192,192,133275,128,0,133388:0:0:0:0:
320,192,133388,128,0,133502:0:0:0:0:
448,192,133502,1,0,0:0:0:0:
64,192,133502,128,0,133728:0:0:0:0:
448,192,133615,128,0,133841:0:0:0:0:
320,192,133728,128,0,133954:0:0:0:0:
192,192,133841,128,0,133954:0:0:0:0:
64,192,133954,128,0,134068:0:0:0:0:
192,192,134068,128,0,134124:0:0:0:0:
320,192,134068,128,0,134181:0:0:0:0:
448,192,134068,128,0,134294:0:0:0:0:
64,192,134181,1,0,0:0:0:0:
192,192,134237,1,0,0:0:0:0:
320,192,134294,1,0,0:0:0:0:
64,192,134294,1,0,0:0:0:0:
320,192,134407,128,0,134464:0:0:0:0:
192,192,134407,128,0,134520:0:0:0:0:
64,192,134407,128,0,134577:0:0:0:0:
448,192,134520,1,0,0:0:0:0:
320,192,134577,1,0,0:0:0:0:
192,192,134634,1,0,0:0:0:0:
64,192,134690,1,0,0:0:0:0:
448,192,134747,1,0,0:0:0:0:
320,192,134747,1,0,0:0:0:0:
192,192,134803,1,0,0:0:0:0:
64,192,134860,1,0,0:0:0:0:
320,192,134917,1,0,0:0:0:0:
448,192,134973,128,0,135086:0:0:0:0:
320,192,135086,128,0,135200:0:0:0:0:
192,192,135200,128,0,135313:0:0:0:0:
64,192,135313,1,0,0:0:0:0:
448,192,135313,128,0,135539:0:0:0:0:
64,192,135426,128,0,135652:0:0:0:0:
192,192,135539,128,0,135766:0:0:0:0:
320,192,135652,128,0,135766:0:0:0:0:
448,192,135766,128,0,135879:0:0:0:0:
64,192,135879,128,0,136105:0:0:0:0:
320,192,135879,128,0,135936:0:0:0:0:
192,192,135879,128,0,135992:0:0:0:0:
448,192,135992,1,0,0:0:0:0:
320,192,136049,1,0,0:0:0:0:
192,192,136105,1,0,0:0:0:0:
448,192,136105,1,0,0:0:0:0:
192,192,136219,128,0,136445:0:0:0:0:
448,192,136219,128,0,136275:0:0:0:0:
320,192,136219,128,0,136332:0:0:0:0:
64,192,136332,1,0,0:0:0:0:
448,192,136388,1,0,0:0:0:0:
320,192,136445,1,0,0:0:0:0:
64,192,136445,1,0,0:0:0:0:
448,192,136558,128,0,136671:0:0:0:0:
192,192,136558,128,0,136671:0:0:0:0:
64,192,136671,1,0,0:0:0:0:
320,192,136728,1,0,0:0:0:0:
448,192,136785,128,0,136898:0:0:0:0:
64,192,136785,128,0,136954:0:0:0:0:
192,192,136785,128,0,136954:0:0:0:0:
448,192,137011,1,0,0:0:0:0:
320,192,137011,1,0,0:0:0:0:
192,192,137068,1,0,0:0:0:0:
64,192,137068,1,0,0:0:0:0:
320,192,137124,128,0,137237:0:0:0:0:
448,192,137124,128,0,137237:0:0:0:0:
64,192,137351,128,0,137464:0:0:0:0:
192,192,137351,128,0,137464:0:0:0:0:
448,192,137577,128,0,137634:0:0:0:0:
320,192,137577,128,0,137690:0:0:0:0:
192,192,137577,128,0,137803:0:0:0:0:
64,192,137690,1,0,0:0:0:0:
448,192,137747,1,0,0:0:0:0:
320,192,137803,1,0,0:0:0:0:
64,192,137860,1,0,0:0:0:0:
448,192,137917,1,0,0:0:0:0:
320,192,137917,1,0,0:0:0:0:
192,192,137973,1,0,0:0:0:0:
64,192,137973,1,0,0:0:0:0:
448,192,138030,1,0,0:0:0:0:
320,192,138030,1,0,0:0:0:0:
64,192,138086,1,0,0:0:0:0:
192,192,138086,1,0,0:0:0:0:
320,192,138143,128,0,138256:0:0:0:0:
448,192,138143,128,0,138200:0:0:0:0:
192,192,138200,1,0,0:0:0:0:
64,192,138256,1,0,0:0:0:0:
448,192,138313,1,0,0:0:0:0:
64,192,138369,1,0,0:0:0:0:
192,192,138369,128,0,138426:0:0:0:0:
320,192,138426,1,0,0:0:0:0:
64,192,138483,1,0,0:0:0:0:
448,192,138483,1,0,0:0:0:0:
192,192,138539,1,0,0:0:0:0:
64,192,138596,128,0,142219:0:0:0:0:
448,192,138596,1,0,0:0:0:0:
320,192,138596,1,0,0:0:0:0:
448,192,143011,128,0,144936:0:0:0:0:
64,192,144936,1,0,0:0:0:0:
192,192,144992,1,0,0:0:0:0:
448,192,145049,1,0,0:0:0:0:
320,192,145105,1,0,0:0:0:0:
64,192,145162,1,0,0:0:0:0:
448,192,145219,1,0,0:0:0:0:
320,192,145275,1,0,0:0:0:0:
192,192,145332,1,0,0:0:0:0:
64,192,145388,1,0,0:0:0:0:
320,192,145445,1,0,0:0:0:0:
192,192,145502,1,0,0:0:0:0:
448,192,145558,1,0,0:0:0:0:
320,192,145615,1,0,0:0:0:0:
192,192,145671,1,0,0:0:0:0:
64,192,145728,1,0,0:0:0:0:
448,192,145785,1,0,0:0:0:0:
192,192,145841,1,0,0:0:0:0:
320,192,145841,1,0,0:0:0:0:
64,192,145841,128,0,146181:0:0:0:0:
192,192,145954,128,0,146068:0:0:0:0:
448,192,145954,128,0,146181:0:0:0:0:
320,192,146068,128,0,146294:0:0:0:0:
192,192,146181,128,0,146294:0:0:0:0:
64,192,146294,128,0,146407:0:0:0:0:
448,192,146294,128,0,146407:0:0:0:0:
192,192,146407,128,0,146520:0:0:0:0:
320,192,146407,1,0,0:0:0:0:
64,192,146520,1,0,0:0:0:0:
448,192,146520,1,0,0:0:0:0:
320,192,146577,1,0,0:0:0:0:
192,192,146634,1,0,0:0:0:0:
320,192,146747,1,0,0:0:0:0:
192,192,146747,1,0,0:0:0:0:
64,192,146747,128,0,147086:0:0:0:0:
192,192,146860,128,0,146973:0:0:0:0:
448,192,146860,128,0,147086:0:0:0:0:
320,192,146973,128,0,147200:0:0:0:0:
192,192,147086,128,0,147200:0:0:0:0:
448,192,147200,128,0,147313:0:0:0:0:
64,192,147200,128,0,147313:0:0:0:0:
320,192,147313,1,0,0:0:0:0:
192,192,147313,128,0,147426:0:0:0:0:
64,192,147426,128,0,147483:0:0:0:0:
320,192,147426,128,0,147483:0:0:0:0:
192,192,147483,128,0,147539:0:0:0:0:
448,192,147539,128,0,147596:0:0:0:0:
192,192,147652,1,0,0:0:0:0:
320,192,147652,1,0,0:0:0:0:
64,192,147652,128,0,147992:0:0:0:0:
192,192,147766,128,0,147879:0:0:0:0:
448,192,147766,128,0,147992:0:0:0:0:
320,192,147879,128,0,148105:0:0:0:0:
192,192,147992,128,0,148105:0:0:0:0:
64,192,148105,128,0,148219:0:0:0:0:
448,192,148105,128,0,148219:0:0:0:0:
192,192,148219,128,0,148332:0:0:0:0:
320,192,148219,1,0,0:0:0:0:
448,192,148332,1,0,0:0:0:0:
320,192,148351,1,0,0:0:0:0:
64,192,148369,1,0,0:0:0:0:
320,192,148558,1,0,0:0:0:0:
192,192,148558,1,0,0:0:0:0:
64,192,148558,128,0,148898:0:0:0:0:
192,192,148671,128,0,148785:0:0:0:0:
448,192,148671,128,0,148898:0:0:0:0:
320,192,148785,128,0,149011:0:0:0:0:
192,192,148898,128,0,149011:0:0:0:0:
448,192,149011,128,0,149124:0:0:0:0:
64,192,149011,128,0,149124:0:0:0:0:
320,192,149124,1,0,0:0:0:0:
192,192,149124,128,0,149237:0:0:0:0:
448,192,149237,1,0,0:0:0:0:
320,192,149237,1,0,0:0:0:0:
64,192,149237,1,0,0:0:0:0:
320,192,149351,1,0,0:0:0:0:
448,192,149351,1,0,0:0:0:0:
192,192,149351,1,0,0:0:0:0:
192,192,149464,1,0,0:0:0:0:
64,192,149464,1,0,0:0:0:0:
448,192,149464,128,0,149803:0:0:0:0:
64,192,149577,128,0,149803:0:0:0:0:
320,192,149577,128,0,149690:0:0:0:0:
192,192,149690,128,0,149917:0:0:0:0:
320,192,149803,128,0,149917:0:0:0:0:
448,192,149917,128,0,150030:0:0:0:0:
64,192,149917,128,0,150030:0:0:0:0:
320,192,150030,128,0,150143:0:0:0:0:
192,192,150030,1,0,0:0:0:0:
64,192,150143,128,0,150256:0:0:0:0:
448,192,150143,128,0,150200:0:0:0:0:
192,192,150200,128,0,150313:0:0:0:0:
320,192,150369,1,0,0:0:0:0:
64,192,150369,1,0,0:0:0:0:
448,192,150369,128,0,150709:0:0:0:0:
64,192,150483,128,0,150709:0:0:0:0:
320,192,150483,128,0,150596:0:0:0:0:
192,192,150596,128,0,150822:0:0:0:0:
320,192,150709,128,0,150822:0:0:0:0:
448,192,150822,128,0,150936:0:0:0:0:
64,192,150822,128,0,150936:0:0:0:0:
320,192,150936,128,0,151049:0:0:0:0:
192,192,150936,1,0,0:0:0:0:
448,192,151049,128,0,151105:0:0:0:0:
64,192,151105,128,0,151162:0:0:0:0:
320,192,151162,128,0,151219:0:0:0:0:
64,192,151219,128,0,151275:0:0:0:0:
192,192,151275,1,0,0:0:0:0:
320,192,151275,1,0,0:0:0:0:
448,192,151275,128,0,151615:0:0:0:0:
320,192,151388,128,0,151502:0:0:0:0:
64,192,151388,128,0,151615:0:0:0:0:
192,192,151502,128,0,151728:0:0:0:0:
320,192,151615,128,0,151728:0:0:0:0:
64,192,151728,128,0,151841:0:0:0:0:
448,192,151728,128,0,151841:0:0:0:0:
192,192,151841,1,0,0:0:0:0:
320,192,151841,128,0,151954:0:0:0:0:
192,192,151954,128,0,152068:0:0:0:0:
448,192,151954,128,0,152011:0:0:0:0:
64,192,151954,128,0,152124:0:0:0:0:
320,192,152181,1,0,0:0:0:0:
192,192,152181,1,0,0:0:0:0:
448,192,152181,128,0,152520:0:0:0:0:
320,192,152294,128,0,152407:0:0:0:0:
64,192,152294,128,0,152520:0:0:0:0:
192,192,152407,128,0,152634:0:0:0:0:
320,192,152520,128,0,152634:0:0:0:0:
448,192,152634,128,0,152747:0:0:0:0:
64,192,152634,128,0,152747:0:0:0:0:
320,192,152747,128,0,152860:0:0:0:0:
192,192,152747,1,0,0:0:0:0:
448,192,152860,1,0,0:0:0:0:
64,192,152860,1,0,0:0:0:0:
192,192,152936,1,0,0:0:0:0:
320,192,152936,1,0,0:0:0:0:
448,192,153011,1,0,0:0:0:0:
64,192,153086,1,0,0:0:0:0:
192,192,153086,1,0,0:0:0:0:
320,192,153086,1,0,0:0:0:0:
64,192,153200,1,0,0:0:0:0:
448,192,153200,1,0,0:0:0:0:
192,192,153313,1,0,0:0:0:0:
320,192,153313,1,0,0:0:0:0:
448,192,153426,1,0,0:0:0:0:
320,192,153426,1,0,0:0:0:0:
64,192,153539,1,0,0:0:0:0:
448,192,153539,1,0,0:0:0:0:
192,192,153652,1,0,0:0:0:0:
320,192,153652,1,0,0:0:0:0:
64,192,153766,1,0,0:0:0:0:
192,192,153766,1,0,0:0:0:0:
448,192,153822,1,0,0:0:0:0:
320,192,153879,1,0,0:0:0:0:
192,192,153936,1,0,0:0:0:0:
448,192,153992,1,0,0:0:0:0:
64,192,153992,1,0,0:0:0:0:
320,192,153992,1,0,0:0:0:0:
64,192,154105,1,0,0:0:0:0:
192,192,154105,1,0,0:0:0:0:
448,192,154219,1,0,0:0:0:0:
320,192,154219,1,0,0:0:0:0:
448,192,154332,1,0,0:0:0:0:
192,192,154332,1,0,0:0:0:0:
64,192,154445,1,0,0:0:0:0:
320,192,154445,1,0,0:0:0:0:
448,192,154502,1,0,0:0:0:0:
64,192,154558,1,0,0:0:0:0:
192,192,154615,1,0,0:0:0:0:
448,192,154671,1,0,0:0:0:0:
320,192,154671,1,0,0:0:0:0:
64,192,154728,1,0,0:0:0:0:
192,192,154785,1,0,0:0:0:0:
320,192,154841,1,0,0:0:0:0:
64,192,154898,1,0,0:0:0:0:
448,192,154898,1,0,0:0:0:0:
192,192,154898,1,0,0:0:0:0:
64,192,155011,1,0,0:0:0:0:
448,192,155011,1,0,0:0:0:0:
320,192,155124,1,0,0:0:0:0:
192,192,155124,1,0,0:0:0:0:
448,192,155237,1,0,0:0:0:0:
320,192,155237,1,0,0:0:0:0:
192,192,155351,1,0,0:0:0:0:
64,192,155351,1,0,0:0:0:0:
320,192,155464,1,0,0:0:0:0:
64,192,155464,1,0,0:0:0:0:
448,192,155577,1,0,0:0:0:0:
320,192,155577,1,0,0:0:0:0:
64,192,155634,1,0,0:0:0:0:
192,192,155690,1,0,0:0:0:0:
448,192,155747,1,0,0:0:0:0:
320,192,155803,1,0,0:0:0:0:
64,192,155803,1,0,0:0:0:0:
192,192,155803,1,0,0:0:0:0:
192,192,155917,1,0,0:0:0:0:
64,192,155917,1,0,0:0:0:0:
448,192,156030,1,0,0:0:0:0:
320,192,156030,1,0,0:0:0:0:
448,192,156143,1,0,0:0:0:0:
64,192,156143,1,0,0:0:0:0:
320,192,156256,1,0,0:0:0:0:
192,192,156256,1,0,0:0:0:0:
448,192,156313,1,0,0:0:0:0:
64,192,156369,1,0,0:0:0:0:
320,192,156426,1,0,0:0:0:0:
448,192,156483,1,0,0:0:0:0:
192,192,156483,1,0,0:0:0:0:
64,192,156539,1,0,0:0:0:0:
320,192,156596,1,0,0:0:0:0:
448,192,156652,1,0,0:0:0:0:
64,192,156709,1,0,0:0:0:0:
192,192,156709,1,0,0:0:0:0:
320,192,156766,1,0,0:0:0:0:
448,192,156822,1,0,0:0:0:0:
192,192,156879,1,0,0:0:0:0:
448,192,156936,1,0,0:0:0:0:
192,192,156992,1,0,0:0:0:0:
320,192,157049,1,0,0:0:0:0:
64,192,157049,1,0,0:0:0:0:
448,192,157105,1,0,0:0:0:0:
192,192,157162,1,0,0:0:0:0:
320,192,157219,1,0,0:0:0:0:
192,192,157275,1,0,0:0:0:0:
320,192,157332,1,0,0:0:0:0:
448,192,157388,1,0,0:0:0:0:
64,192,157388,1,0,0:0:0:0:
192,192,157445,1,0,0:0:0:0:
320,192,157502,1,0,0:0:0:0:
64,192,157558,1,0,0:0:0:0:
320,192,157615,1,0,0:0:0:0:
64,192,157671,1,0,0:0:0:0:
448,192,157728,1,0,0:0:0:0:
192,192,157728,1,0,0:0:0:0:
320,192,157785,1,0,0:0:0:0:
64,192,157841,1,0,0:0:0:0:
448,192,157898,1,0,0:0:0:0:
64,192,157954,1,0,0:0:0:0:
448,192,158011,1,0,0:0:0:0:
192,192,158068,1,0,0:0:0:0:
64,192,158068,1,0,0:0:0:0:
320,192,158124,1,0,0:0:0:0:
448,192,158124,1,0,0:0:0:0:
192,192,158181,1,0,0:0:0:0:
64,192,158181,1,0,0:0:0:0:
320,192,158237,1,0,0:0:0:0:
448,192,158237,1,0,0:0:0:0:
192,192,158294,1,0,0:0:0:0:
64,192,158294,1,0,0:0:0:0:
320,192,158351,1,0,0:0:0:0:
448,192,158351,1,0,0:0:0:0:
192,192,158407,1,0,0:0:0:0:
64,192,158407,1,0,0:0:0:0:
320,192,158464,1,0,0:0:0:0:
448,192,158464,1,0,0:0:0:0:
192,192,158520,1,0,0:0:0:0:
64,192,158520,128,0,158719:0:0:0:0:
192,192,158747,1,0,0:0:0:0:
448,192,158747,128,0,158832:0:0:0:0:
320,192,158860,128,0,158945:0:0:0:0:
448,192,158973,128,0,159200:0:0:0:0:
192,192,158973,128,0,159313:0:0:0:0:
448,192,159313,1,0,0:0:0:0:
320,192,159369,1,0,0:0:0:0:
64,192,159426,1,0,0:0:0:0:
192,192,159426,1,0,0:0:0:0:
448,192,159426,1,0,0:0:0:0:
64,192,159539,1,0,0:0:0:0:
448,192,159652,1,0,0:0:0:0:
192,192,159652,1,0,0:0:0:0:
448,192,159766,1,0,0:0:0:0:
64,192,159766,1,0,0:0:0:0:
320,192,159766,1,0,0:0:0:0:
320,192,159879,1,0,0:0:0:0:
192,192,159879,1,0,0:0:0:0:
64,192,159992,1,0,0:0:0:0:
192,192,159992,1,0,0:0:0:0:
320,192,160105,1,0,0:0:0:0:
448,192,160105,1,0,0:0:0:0:
64,192,160105,1,0,0:0:0:0:
192,192,160162,1,0,0:0:0:0:
448,192,160219,1,0,0:0:0:0:
320,192,160219,1,0,0:0:0:0:
64,192,160275,1,0,0:0:0:0:
448,192,160332,1,0,0:0:0:0:
320,192,160332,1,0,0:0:0:0:
192,192,160388,1,0,0:0:0:0:
64,192,160445,1,0,0:0:0:0:
448,192,160502,1,0,0:0:0:0:
192,192,160558,1,0,0:0:0:0:
320,192,160558,1,0,0:0:0:0:
64,192,160615,1,0,0:0:0:0:
448,192,160671,1,0,0:0:0:0:
320,192,160728,1,0,0:0:0:0:
192,192,160785,1,0,0:0:0:0:
448,192,160785,1,0,0:0:0:0:
64,192,160841,1,0,0:0:0:0:
320,192,160898,1,0,0:0:0:0:
448,192,160954,1,0,0:0:0:0:
192,192,161011,1,0,0:0:0:0:
64,192,161011,1,0,0:0:0:0:
448,192,161068,1,0,0:0:0:0:
192,192,161124,1,0,0:0:0:0:
64,192,161124,1,0,0:0:0:0:
320,192,161181,1,0,0:0:0:0:
64,192,161237,1,0,0:0:0:0:
192,192,161237,1,0,0:0:0:0:
448,192,161294,1,0,0:0:0:0:
320,192,161351,1,0,0:0:0:0:
192,192,161407,1,0,0:0:0:0:
448,192,161464,1,0,0:0:0:0:
64,192,161464,1,0,0:0:0:0:
192,192,161520,1,0,0:0:0:0:
448,192,161577,1,0,0:0:0:0:
320,192,161634,1,0,0:0:0:0:
192,192,161690,1,0,0:0:0:0:
64,192,161690,1,0,0:0:0:0:
448,192,161747,1,0,0:0:0:0:
64,192,161803,1,0,0:0:0:0:
192,192,161860,1,0,0:0:0:0:
448,192,161917,1,0,0:0:0:0:
320,192,161917,1,0,0:0:0:0:
64,192,161973,1,0,0:0:0:0:
448,192,162030,1,0,0:0:0:0:
320,192,162030,1,0,0:0:0:0:
192,192,162086,1,0,0:0:0:0:
320,192,162143,1,0,0:0:0:0:
448,192,162143,1,0,0:0:0:0:
64,192,162200,1,0,0:0:0:0:
192,192,162256,1,0,0:0:0:0:
320,192,162313,1,0,0:0:0:0:
64,192,162369,1,0,0:0:0:0:
448,192,162369,1,0,0:0:0:0:
192,192,162426,1,0,0:0:0:0:
320,192,162483,1,0,0:0:0:0:
448,192,162483,1,0,0:0:0:0:
64,192,162539,1,0,0:0:0:0:
192,192,162596,1,0,0:0:0:0:
448,192,162596,1,0,0:0:0:0:
320,192,162652,1,0,0:0:0:0:
64,192,162709,1,0,0:0:0:0:
192,192,162709,1,0,0:0:0:0:
448,192,162766,1,0,0:0:0:0:
192,192,162822,1,0,0:0:0:0:
320,192,162822,1,0,0:0:0:0:
64,192,162879,1,0,0:0:0:0:
320,192,162936,1,0,0:0:0:0:
448,192,162936,1,0,0:0:0:0:
192,192,162992,1,0,0:0:0:0:
64,192,163049,1,0,0:0:0:0:
448,192,163049,1,0,0:0:0:0:
320,192,163105,1,0,0:0:0:0:
192,192,163162,1,0,0:0:0:0:
448,192,163162,1,0,0:0:0:0:
64,192,163219,1,0,0:0:0:0:
320,192,163275,1,0,0:0:0:0:
192,192,163275,1,0,0:0:0:0:
448,192,163332,1,0,0:0:0:0:
192,192,163388,1,0,0:0:0:0:
64,192,163388,1,0,0:0:0:0:
320,192,163445,1,0,0:0:0:0:
448,192,163502,1,0,0:0:0:0:
64,192,163502,1,0,0:0:0:0:
192,192,163558,1,0,0:0:0:0:
448,192,163615,1,0,0:0:0:0:
320,192,163615,1,0,0:0:0:0:
64,192,163671,1,0,0:0:0:0:
192,192,163728,1,0,0:0:0:0:
448,192,163728,1,0,0:0:0:0:
320,192,163785,1,0,0:0:0:0:
192,192,163841,1,0,0:0:0:0:
64,192,163841,1,0,0:0:0:0:
448,192,163898,1,0,0:0:0:0:
320,192,163954,1,0,0:0:0:0:
64,192,163954,1,0,0:0:0:0:
192,192,164011,1,0,0:0:0:0:
448,192,164068,1,0,0:0:0:0:
64,192,164124,1,0,0:0:0:0:
192,192,164181,1,0,0:0:0:0:
320,192,164181,1,0,0:0:0:0:
448,192,164237,1,0,0:0:0:0:
64,192,164294,1,0,0:0:0:0:
192,192,164322,1,0,0:0:0:0:
320,192,164351,1,0,0:0:0:0:
448,192,164379,1,0,0:0:0:0:
192,192,164407,1,0,0:0:0:0:
64,192,164407,1,0,0:0:0:0:
320,192,164464,1,0,0:0:0:0:
448,192,164520,1,0,0:0:0:0:
64,192,164577,1,0,0:0:0:0:
192,192,164634,1,0,0:0:0:0:
320,192,164634,1,0,0:0:0:0:
64,192,164690,1,0,0:0:0:0:
448,192,164747,1,0,0:0:0:0:
320,192,164803,1,0,0:0:0:0:
192,192,164860,1,0,0:0:0:0:
64,192,164860,1,0,0:0:0:0:
448,192,164917,1,0,0:0:0:0:
64,192,164973,1,0,0:0:0:0:
192,192,165030,1,0,0:0:0:0:
320,192,165086,1,0,0:0:0:0:
448,192,165086,1,0,0:0:0:0:
64,192,165143,1,0,0:0:0:0:
320,192,165200,1,0,0:0:0:0:
192,192,165256,1,0,0:0:0:0:
448,192,165313,1,0,0:0:0:0:
64,192,165313,1,0,0:0:0:0:
320,192,165369,1,0,0:0:0:0:
192,192,165426,1,0,0:0:0:0:
64,192,165483,1,0,0:0:0:0:
448,192,165539,1,0,0:0:0:0:
320,192,165539,1,0,0:0:0:0:
192,192,165596,1,0,0:0:0:0:
320,192,165652,1,0,0:0:0:0:
448,192,165652,1,0,0:0:0:0:
64,192,165709,1,0,0:0:0:0:
320,192,165766,1,0,0:0:0:0:
448,192,165766,1,0,0:0:0:0:
192,192,165822,1,0,0:0:0:0:
64,192,165879,1,0,0:0:0:0:
320,192,165936,1,0,0:0:0:0:
448,192,165992,1,0,0:0:0:0:
192,192,165992,1,0,0:0:0:0:
64,192,166049,1,0,0:0:0:0:
448,192,166105,1,0,0:0:0:0:
320,192,166105,1,0,0:0:0:0:
192,192,166162,1,0,0:0:0:0:
64,192,166219,1,0,0:0:0:0:
448,192,166219,1,0,0:0:0:0:
320,192,166275,1,0,0:0:0:0:
64,192,166332,1,0,0:0:0:0:
192,192,166388,1,0,0:0:0:0:
320,192,166445,1,0,0:0:0:0:
448,192,166445,1,0,0:0:0:0:
192,192,166502,1,0,0:0:0:0:
64,192,166558,1,0,0:0:0:0:
448,192,166558,1,0,0:0:0:0:
320,192,166615,1,0,0:0:0:0:
192,192,166671,1,0,0:0:0:0:
64,192,166671,1,0,0:0:0:0:
448,192,166728,1,0,0:0:0:0:
320,192,166785,1,0,0:0:0:0:
192,192,166841,1,0,0:0:0:0:
448,192,166898,1,0,0:0:0:0:
320,192,166898,1,0,0:0:0:0:
64,192,166954,1,0,0:0:0:0:
192,192,167011,1,0,0:0:0:0:
320,192,167068,1,0,0:0:0:0:
192,192,167124,1,0,0:0:0:0:
64,192,167124,1,0,0:0:0:0:
448,192,167181,1,0,0:0:0:0:
192,192,167237,1,0,0:0:0:0:
64,192,167237,1,0,0:0:0:0:
320,192,167294,1,0,0:0:0:0:
192,192,167351,1,0,0:0:0:0:
64,192,167351,1,0,0:0:0:0:
448,192,167407,1,0,0:0:0:0:
320,192,167464,1,0,0:0:0:0:
192,192,167520,1,0,0:0:0:0:
64,192,167577,1,0,0:0:0:0:
448,192,167577,1,0,0:0:0:0:
320,192,167634,1,0,0:0:0:0:
192,192,167690,1,0,0:0:0:0:
448,192,167747,1,0,0:0:0:0:
64,192,167803,1,0,0:0:0:0:
320,192,167803,1,0,0:0:0:0:
192,192,167860,1,0,0:0:0:0:
448,192,167917,1,0,0:0:0:0:
320,192,167973,1,0,0:0:0:0:
64,192,168030,1,0,0:0:0:0:
448,192,168030,1,0,0:0:0:0:
192,192,168086,1,0,0:0:0:0:
320,192,168143,1,0,0:0:0:0:
64,192,168200,1,0,0:0:0:0:
192,192,168256,1,0,0:0:0:0:
448,192,168256,1,0,0:0:0:0:
64,192,168313,1,0,0:0:0:0:
320,192,168369,1,0,0:0:0:0:
192,192,168426,1,0,0:0:0:0:
448,192,168483,1,0,0:0:0:0:
64,192,168483,1,0,0:0:0:0:
320,192,168520,1,0,0:0:0:0:
192,192,168558,1,0,0:0:0:0:
64,192,168596,1,0,0:0:0:0:
448,192,168634,1,0,0:0:0:0:
320,192,168671,1,0,0:0:0:0:
192,192,168709,1,0,0:0:0:0:
64,192,168709,1,0,0:0:0:0:
448,192,168766,1,0,0:0:0:0:
320,192,168822,1,0,0:0:0:0:
64,192,168879,1,0,0:0:0:0:
192,192,168936,1,0,0:0:0:0:
448,192,168936,1,0,0:0:0:0:
320,192,168992,1,0,0:0:0:0:
64,192,169049,1,0,0:0:0:0:
192,192,169105,1,0,0:0:0:0:
320,192,169162,1,0,0:0:0:0:
448,192,169162,1,0,0:0:0:0:
64,192,169219,1,0,0:0:0:0:
192,192,169275,1,0,0:0:0:0:
320,192,169332,1,0,0:0:0:0:
64,192,169388,1,0,0:0:0:0:
448,192,169388,1,0,0:0:0:0:
192,192,169426,1,0,0:0:0:0:
320,192,169464,1,0,0:0:0:0:
64,192,169502,1,0,0:0:0:0:
448,192,169558,1,0,0:0:0:0:
320,192,169615,1,0,0:0:0:0:
192,192,169615,1,0,0:0:0:0:
64,192,169671,1,0,0:0:0:0:
448,192,169728,1,0,0:0:0:0:
320,192,169785,1,0,0:0:0:0:
192,192,169841,1,0,0:0:0:0:
64,192,169841,1,0,0:0:0:0:
448,192,169898,1,0,0:0:0:0:
320,192,169954,1,0,0:0:0:0:
64,192,170011,1,0,0:0:0:0:
192,192,170068,1,0,0:0:0:0:
448,192,170068,1,0,0:0:0:0:
320,192,170124,1,0,0:0:0:0:
448,192,170181,1,0,0:0:0:0:
64,192,170237,1,0,0:0:0:0:
320,192,170294,1,0,0:0:0:0:
448,192,170294,1,0,0:0:0:0:
192,192,170332,1,0,0:0:0:0:
64,192,170369,1,0,0:0:0:0:
448,192,170407,1,0,0:0:0:0:
320,192,170445,1,0,0:0:0:0:
192,192,170483,1,0,0:0:0:0:
64,192,170520,1,0,0:0:0:0:
448,192,170520,1,0,0:0:0:0:
320,192,170577,1,0,0:0:0:0:
192,192,170634,1,0,0:0:0:0:
448,192,170690,1,0,0:0:0:0:
320,192,170747,1,0,0:0:0:0:
64,192,170747,1,0,0:0:0:0:
192,192,170803,1,0,0:0:0:0:
448,192,170860,1,0,0:0:0:0:
320,192,170917,1,0,0:0:0:0:
64,192,170973,1,0,0:0:0:0:
192,192,170973,1,0,0:0:0:0:
448,192,171030,1,0,0:0:0:0:
64,192,171086,1,0,0:0:0:0:
192,192,171143,1,0,0:0:0:0:
320,192,171200,1,0,0:0:0:0:
448,192,171200,1,0,0:0:0:0:
64,192,171237,1,0,0:0:0:0:
192,192,171275,1,0,0:0:0:0:
320,192,171313,1,0,0:0:0:0:
448,192,171351,1,0,0:0:0:0:
192,192,171388,1,0,0:0:0:0:
320,192,171426,1,0,0:0:0:0:
64,192,171426,1,0,0:0:0:0:
448,192,171483,1,0,0:0:0:0:
192,192,171539,1,0,0:0:0:0:
320,192,171596,1,0,0:0:0:0:
448,192,171652,1,0,0:0:0:0:
64,192,171652,1,0,0:0:0:0:
192,192,171709,1,0,0:0:0:0:
448,192,171766,1,0,0:0:0:0:
320,192,171822,1,0,0:0:0:0:
192,192,171879,1,0,0:0:0:0:
64,192,171879,1,0,0:0:0:0:
448,192,171936,1,0,0:0:0:0:
64,192,171992,1,0,0:0:0:0:
192,192,172030,1,0,0:0:0:0:
320,192,172068,1,0,0:0:0:0:
64,192,172105,1,0,0:0:0:0:
448,192,172105,1,0,0:0:0:0:
192,192,172162,1,0,0:0:0:0:
320,192,172219,1,0,0:0:0:0:
448,192,172275,1,0,0:0:0:0:
192,192,172332,1,0,0:0:0:0:
64,192,172332,1,0,0:0:0:0:
320,192,172388,1,0,0:0:0:0:
448,192,172445,1,0,0:0:0:0:
192,192,172502,1,0,0:0:0:0:
320,192,172558,1,0,0:0:0:0:
64,192,172558,1,0,0:0:0:0:
448,192,172615,1,0,0:0:0:0:
192,192,172671,1,0,0:0:0:0:
320,192,172728,5,0,0:0:0:0:
64,192,172785,1,0,0:0:0:0:
448,192,172785,1,0,0:0:0:0:
192,192,172841,1,0,0:0:0:0:
448,192,172898,5,0,0:0:0:0:
320,192,172936,1,0,0:0:0:0:
192,192,172973,1,0,0:0:0:0:
64,192,173011,1,0,0:0:0:0:
448,192,173011,1,0,0:0:0:0:
320,192,173068,1,0,0:0:0:0:
192,192,173124,1,0,0:0:0:0:
64,192,173181,1,0,0:0:0:0:
448,192,173237,1,0,0:0:0:0:
320,192,173237,1,0,0:0:0:0:
192,192,173294,1,0,0:0:0:0:
448,192,173351,1,0,0:0:0:0:
64,192,173351,1,0,0:0:0:0:
320,192,173407,1,0,0:0:0:0:
192,192,173464,1,0,0:0:0:0:
64,192,173464,1,0,0:0:0:0:
448,192,173520,1,0,0:0:0:0:
64,192,173577,1,0,0:0:0:0:
320,192,173634,1,0,0:0:0:0:
448,192,173690,1,0,0:0:0:0:
192,192,173690,1,0,0:0:0:0:
64,192,173747,1,0,0:0:0:0:
320,192,173803,1,0,0:0:0:0:
448,192,173860,1,0,0:0:0:0:
192,192,173917,1,0,0:0:0:0:
64,192,173917,1,0,0:0:0:0:
448,192,173973,1,0,0:0:0:0:
320,192,174030,1,0,0:0:0:0:
192,192,174086,1,0,0:0:0:0:
64,192,174086,1,0,0:0:0:0:
448,192,174143,1,0,0:0:0:0:
320,192,174143,1,0,0:0:0:0:
192,192,174200,1,0,0:0:0:0:
320,192,174256,1,0,0:0:0:0:
64,192,174256,1,0,0:0:0:0:
448,192,174313,1,0,0:0:0:0:
192,192,174369,1,0,0:0:0:0:
320,192,174426,1,0,0:0:0:0:
448,192,174426,1,0,0:0:0:0:
64,192,174483,1,0,0:0:0:0:
448,192,174539,1,0,0:0:0:0:
320,192,174596,1,0,0:0:0:0:
192,192,174596,1,0,0:0:0:0:
64,192,174652,1,0,0:0:0:0:
448,192,174709,1,0,0:0:0:0:
320,192,174766,1,0,0:0:0:0:
192,192,174822,1,0,0:0:0:0:
64,192,174822,1,0,0:0:0:0:
448,192,174822,1,0,0:0:0:0:
64,192,174936,1,0,0:0:0:0:
320,192,175049,1,0,0:0:0:0:
192,192,175049,1,0,0:0:0:0:
448,192,175105,1,0,0:0:0:0:
64,192,175162,1,0,0:0:0:0:
192,192,175219,1,0,0:0:0:0:
64,192,175275,1,0,0:0:0:0:
448,192,175275,1,0,0:0:0:0:
320,192,175275,1,0,0:0:0:0:
448,192,175388,1,0,0:0:0:0:
320,192,175388,1,0,0:0:0:0:
192,192,175445,1,0,0:0:0:0:
64,192,175502,1,0,0:0:0:0:
448,192,175502,1,0,0:0:0:0:
320,192,175558,1,0,0:0:0:0:
192,192,175615,1,0,0:0:0:0:
64,192,175671,1,0,0:0:0:0:
320,192,175728,1,0,0:0:0:0:
448,192,175728,1,0,0:0:0:0:
192,192,175785,1,0,0:0:0:0:
64,192,175841,1,0,0:0:0:0:
448,192,175841,1,0,0:0:0:0:
320,192,175898,1,0,0:0:0:0:
192,192,175954,1,0,0:0:0:0:
64,192,175954,1,0,0:0:0:0:
448,192,176011,1,0,0:0:0:0:
320,192,176068,1,0,0:0:0:0:
192,192,176068,1,0,0:0:0:0:
64,192,176124,1,0,0:0:0:0:
192,192,176181,1,0,0:0:0:0:
320,192,176181,1,0,0:0:0:0:
448,192,176181,1,0,0:0:0:0:
320,192,176294,1,0,0:0:0:0:
192,192,176407,1,0,0:0:0:0:
64,192,176407,1,0,0:0:0:0:
448,192,176464,1,0,0:0:0:0:
320,192,176520,1,0,0:0:0:0:
64,192,176577,1,0,0:0:0:0:
448,192,176634,1,0,0:0:0:0:
320,192,176634,1,0,0:0:0:0:
192,192,176634,1,0,0:0:0:0:
64,192,176690,1,0,0:0:0:0:
320,192,176747,1,0,0:0:0:0:
192,192,176803,1,0,0:0:0:0:
64,192,176860,1,0,0:0:0:0:
448,192,176860,1,0,0:0:0:0:
320,192,176917,1,0,0:0:0:0:
192,192,176973,1,0,0:0:0:0:
64,192,177030,1,0,0:0:0:0:
320,192,177086,1,0,0:0:0:0:
448,192,177086,1,0,0:0:0:0:
192,192,177086,1,0,0:0:0:0:
192,192,177200,1,0,0:0:0:0:
448,192,177313,1,0,0:0:0:0:
320,192,177313,1,0,0:0:0:0:
64,192,177313,1,0,0:0:0:0:
320,192,177426,1,0,0:0:0:0:
192,192,177539,1,0,0:0:0:0:
64,192,177539,1,0,0:0:0:0:
448,192,177615,1,0,0:0:0:0:
192,192,177652,1,0,0:0:0:0:
320,192,177652,1,0,0:0:0:0:
64,192,177690,1,0,0:0:0:0:
448,192,177766,1,0,0:0:0:0:
320,192,177766,1,0,0:0:0:0:
192,192,177822,1,0,0:0:0:0:
64,192,177879,1,0,0:0:0:0:
448,192,177879,1,0,0:0:0:0:
320,192,177936,1,0,0:0:0:0:
64,192,177992,1,0,0:0:0:0:
192,192,177992,1,0,0:0:0:0:
448,192,177992,1,0,0:0:0:0:
64,192,178105,1,0,0:0:0:0:
192,192,178105,1,0,0:0:0:0:
448,192,178162,1,0,0:0:0:0:
192,192,178219,1,0,0:0:0:0:
320,192,178219,1,0,0:0:0:0:
64,192,178275,1,0,0:0:0:0:
448,192,178332,1,0,0:0:0:0:
320,192,178388,1,0,0:0:0:0:
64,192,178445,1,0,0:0:0:0:
192,192,178445,1,0,0:0:0:0:
448,192,178445,1,0,0:0:0:0:
192,192,178558,1,0,0:0:0:0:
64,192,178558,1,0,0:0:0:0:
192,192,178671,1,0,0:0:0:0:
448,192,178671,1,0,0:0:0:0:
320,192,178671,1,0,0:0:0:0:
320,192,178785,1,0,0:0:0:0:
448,192,178785,1,0,0:0:0:0:
192,192,178898,1,0,0:0:0:0:
64,192,178898,1,0,0:0:0:0:
448,192,178898,1,0,0:0:0:0:
64,192,179011,1,0,0:0:0:0:
320,192,179011,1,0,0:0:0:0:
192,192,179124,1,0,0:0:0:0:
320,192,179124,1,0,0:0:0:0:
448,192,179124,1,0,0:0:0:0:
448,192,179237,1,0,0:0:0:0:
64,192,179237,1,0,0:0:0:0:
192,192,179351,1,0,0:0:0:0:
64,192,179351,1,0,0:0:0:0:
320,192,179351,1,0,0:0:0:0:
448,192,179464,1,0,0:0:0:0:
320,192,179464,1,0,0:0:0:0:
192,192,179577,1,0,0:0:0:0:
64,192,179577,1,0,0:0:0:0:
448,192,179577,1,0,0:0:0:0:
192,192,179690,1,0,0:0:0:0:
64,192,179690,1,0,0:0:0:0:
448,192,179803,1,0,0:0:0:0:
320,192,179803,1,0,0:0:0:0:
64,192,179803,1,0,0:0:0:0:
320,192,179917,1,0,0:0:0:0:
448,192,179917,1,0,0:0:0:0:
192,192,180030,1,0,0:0:0:0:
64,192,180030,1,0,0:0:0:0:
320,192,180030,1,0,0:0:0:0:
192,192,180143,1,0,0:0:0:0:
64,192,180143,1,0,0:0:0:0:
64,192,180256,1,0,0:0:0:0:
320,192,180256,1,0,0:0:0:0:
448,192,180256,1,0,0:0:0:0:
192,192,180369,1,0,0:0:0:0:
320,192,180483,1,0,0:0:0:0:
448,192,180483,1,0,0:0:0:0:
64,192,180483,1,0,0:0:0:0:
320,192,180596,1,0,0:0:0:0:
448,192,180596,1,0,0:0:0:0:
64,192,180596,1,0,0:0:0:0:
192,192,180709,1,0,0:0:0:0:
64,192,180709,1,0,0:0:0:0:
448,192,180822,1,0,0:0:0:0:
320,192,180822,1,0,0:0:0:0:
192,192,180822,1,0,0:0:0:0:
64,192,180936,1,0,0:0:0:0:
192,192,180936,1,0,0:0:0:0:
64,192,181049,1,0,0:0:0:0:
448,192,181049,1,0,0:0:0:0:
320,192,181105,1,0,0:0:0:0:
192,192,181162,1,0,0:0:0:0:
64,192,181219,1,0,0:0:0:0:
320,192,181275,1,0,0:0:0:0:
448,192,181275,1,0,0:0:0:0:
192,192,181332,1,0,0:0:0:0:
64,192,181388,1,0,0:0:0:0:
448,192,181388,1,0,0:0:0:0:
320,192,181445,1,0,0:0:0:0:
192,192,181502,1,0,0:0:0:0:
64,192,181502,1,0,0:0:0:0:
448,192,181558,1,0,0:0:0:0:
320,192,181615,1,0,0:0:0:0:
192,192,181615,1,0,0:0:0:0:
64,192,181671,1,0,0:0:0:0:
448,192,181728,1,0,0:0:0:0:
320,192,181728,1,0,0:0:0:0:
192,192,181785,1,0,0:0:0:0:
64,192,181841,1,0,0:0:0:0:
448,192,181841,1,0,0:0:0:0:
320,192,181898,1,0,0:0:0:0:
192,192,181954,1,0,0:0:0:0:
64,192,181954,1,0,0:0:0:0:
448,192,182011,1,0,0:0:0:0:
192,192,182068,1,0,0:0:0:0:
64,192,182068,1,0,0:0:0:0:
320,192,182068,1,0,0:0:0:0:
448,192,182181,1,0,0:0:0:0:
64,192,182294,1,0,0:0:0:0:
192,192,182294,1,0,0:0:0:0:
320,192,182407,1,0,0:0:0:0:
192,192,182407,1,0,0:0:0:0:
64,192,182520,1,0,0:0:0:0:
448,192,182520,1,0,0:0:0:0:
320,192,182520,1,0,0:0:0:0:
192,192,182634,1,0,0:0:0:0:
64,192,182747,1,0,0:0:0:0:
448,192,182747,1,0,0:0:0:0:
320,192,182803,1,0,0:0:0:0:
192,192,182860,1,0,0:0:0:0:
64,192,182917,1,0,0:0:0:0:
320,192,182973,1,0,0:0:0:0:
448,192,182973,1,0,0:0:0:0:
192,192,183030,1,0,0:0:0:0:
64,192,183086,1,0,0:0:0:0:
448,192,183086,1,0,0:0:0:0:
320,192,183143,1,0,0:0:0:0:
192,192,183200,1,0,0:0:0:0:
64,192,183200,1,0,0:0:0:0:
448,192,183256,1,0,0:0:0:0:
320,192,183313,1,0,0:0:0:0:
192,192,183313,1,0,0:0:0:0:
64,192,183369,1,0,0:0:0:0:
192,192,183426,1,0,0:0:0:0:
320,192,183426,1,0,0:0:0:0:
448,192,183426,1,0,0:0:0:0:
64,192,183539,1,0,0:0:0:0:
192,192,183652,1,0,0:0:0:0:
448,192,183652,1,0,0:0:0:0:
320,192,183709,1,0,0:0:0:0:
64,192,183766,1,0,0:0:0:0:
192,192,183822,1,0,0:0:0:0:
448,192,183879,1,0,0:0:0:0:
320,192,183879,1,0,0:0:0:0:
64,192,183936,1,0,0:0:0:0:
192,192,183992,1,0,0:0:0:0:
448,192,184049,1,0,0:0:0:0:
320,192,184105,1,0,0:0:0:0:
192,192,184162,1,0,0:0:0:0:
64,192,184219,1,0,0:0:0:0:
448,192,184275,1,0,0:0:0:0:
64,192,184332,1,0,0:0:0:0:
320,192,184332,1,0,0:0:0:0:
192,192,184332,1,0,0:0:0:0:
192,192,184445,1,0,0:0:0:0:
320,192,184502,1,0,0:0:0:0:
64,192,184558,1,0,0:0:0:0:
448,192,184558,1,0,0:0:0:0:
192,192,184615,1,0,0:0:0:0:
320,192,184671,1,0,0:0:0:0:
448,192,184671,1,0,0:0:0:0:
64,192,184728,1,0,0:0:0:0:
192,192,184785,1,0,0:0:0:0:
320,192,184785,1,0,0:0:0:0:
448,192,184841,1,0,0:0:0:0:
192,192,184898,1,0,0:0:0:0:
64,192,184898,1,0,0:0:0:0:
320,192,184954,1,0,0:0:0:0:
448,192,185011,1,0,0:0:0:0:
64,192,185011,1,0,0:0:0:0:
192,192,185068,1,0,0:0:0:0:
448,192,185124,1,0,0:0:0:0:
320,192,185124,1,0,0:0:0:0:
64,192,185181,1,0,0:0:0:0:
192,192,185237,1,0,0:0:0:0:
448,192,185237,1,0,0:0:0:0:
320,192,185237,1,0,0:0:0:0:
320,192,185351,1,0,0:0:0:0:
192,192,185464,1,0,0:0:0:0:
448,192,185464,1,0,0:0:0:0:
64,192,185464,1,0,0:0:0:0:
320,192,185577,1,0,0:0:0:0:
448,192,185577,1,0,0:0:0:0:
64,192,185690,1,0,0:0:0:0:
320,192,185690,1,0,0:0:0:0:
192,192,185690,1,0,0:0:0:0:
192,192,185803,1,0,0:0:0:0:
64,192,185803,1,0,0:0:0:0:
192,192,185917,1,0,0:0:0:0:
448,192,185917,1,0,0:0:0:0:
320,192,185917,1,0,0:0:0:0:
320,192,186030,1,0,0:0:0:0:
448,192,186030,1,0,0:0:0:0:
192,192,186143,1,0,0:0:0:0:
64,192,186143,1,0,0:0:0:0:
448,192,186143,1,0,0:0:0:0:
64,192,186256,1,0,0:0:0:0:
320,192,186256,1,0,0:0:0:0:
192,192,186369,1,0,0:0:0:0:
320,192,186369,1,0,0:0:0:0:
448,192,186369,1,0,0:0:0:0:
448,192,186483,1,0,0:0:0:0:
64,192,186483,1,0,0:0:0:0:
192,192,186596,1,0,0:0:0:0:
64,192,186596,1,0,0:0:0:0:
320,192,186596,1,0,0:0:0:0:
448,192,186709,1,0,0:0:0:0:
320,192,186709,1,0,0:0:0:0:
192,192,186822,1,0,0:0:0:0:
64,192,186822,1,0,0:0:0:0:
448,192,186822,1,0,0:0:0:0:
192,192,186936,1,0,0:0:0:0:
64,192,186936,1,0,0:0:0:0:
448,192,187049,1,0,0:0:0:0:
320,192,187049,1,0,0:0:0:0:
64,192,187049,1,0,0:0:0:0:
320,192,187162,1,0,0:0:0:0:
448,192,187162,1,0,0:0:0:0:
192,192,187275,1,0,0:0:0:0:
64,192,187275,1,0,0:0:0:0:
320,192,187275,1,0,0:0:0:0:
192,192,187388,1,0,0:0:0:0:
64,192,187388,1,0,0:0:0:0:
448,192,187502,1,0,0:0:0:0:
320,192,187502,1,0,0:0:0:0:
192,192,187558,1,0,0:0:0:0:
64,192,187615,1,0,0:0:0:0:
448,192,187671,1,0,0:0:0:0:
320,192,187728,1,0,0:0:0:0:
192,192,187785,1,0,0:0:0:0:
320,192,187841,1,0,0:0:0:0:
448,192,187841,1,0,0:0:0:0:
64,192,187841,1,0,0:0:0:0:
192,192,187898,1,0,0:0:0:0:
448,192,187954,1,0,0:0:0:0:
320,192,188011,1,0,0:0:0:0:
64,192,188068,1,0,0:0:0:0:
192,192,188124,1,0,0:0:0:0:
320,192,188181,1,0,0:0:0:0:
448,192,188237,1,0,0:0:0:0:
192,192,188294,1,0,0:0:0:0:
64,192,188294,1,0,0:0:0:0:
320,192,188332,1,0,0:0:0:0:
448,192,188369,1,0,0:0:0:0:
64,192,188407,1,0,0:0:0:0:
192,192,188445,1,0,0:0:0:0:
320,192,188483,1,0,0:0:0:0:
448,192,188520,1,0,0:0:0:0:
64,192,188558,1,0,0:0:0:0:
192,192,188596,1,0,0:0:0:0:
320,192,188634,1,0,0:0:0:0:
448,192,188671,1,0,0:0:0:0:
192,192,188709,1,0,0:0:0:0:
64,192,188747,1,0,0:0:0:0:
448,192,188785,1,0,0:0:0:0:
320,192,188822,1,0,0:0:0:0:
192,192,188860,1,0,0:0:0:0:
64,192,188898,1,0,0:0:0:0:
448,192,188936,1,0,0:0:0:0:
320,192,188973,1,0,0:0:0:0:
192,192,189011,1,0,0:0:0:0:
64,192,189049,1,0,0:0:0:0:
448,192,189086,128,0,189143:0:0:0:0:
320,192,189143,128,0,189200:0:0:0:0:
192,192,189200,128,0,189256:0:0:0:0:
64,192,189256,128,0,189313:0:0:0:0:
320,192,189313,1,0,0:0:0:0:
448,192,189313,1,0,0:0:0:0:
64,192,189992,1,0,0:0:0:0:
448,192,189992,1,0,0:0:0:0:
192,192,190011,1,0,0:0:0:0:
64,192,190898,1,0,0:0:0:0:
192,192,190973,1,0,0:0:0:0:
320,192,191049,1,0,0:0:0:0:
448,192,191124,1,0,0:0:0:0:
192,192,191237,1,0,0:0:0:0:
320,192,191256,1,0,0:0:0:0:
320,192,191464,1,0,0:0:0:0:
448,192,191483,1,0,0:0:0:0:
448,192,191690,1,0,0:0:0:0:
64,192,191709,1,0,0:0:0:0:
192,192,191803,1,0,0:0:0:0:
320,192,191822,1,0,0:0:0:0:
192,192,192030,1,0,0:0:0:0:
64,192,192049,1,0,0:0:0:0:
320,192,192105,1,0,0:0:0:0:
448,192,192181,1,0,0:0:0:0:
64,192,192256,1,0,0:0:0:0:
448,192,192369,1,0,0:0:0:0:
320,192,192388,1,0,0:0:0:0:
64,192,192483,1,0,0:0:0:0:
192,192,192502,1,0,0:0:0:0:
192,192,192596,1,0,0:0:0:0:
320,192,192615,1,0,0:0:0:0:
448,192,192822,1,0,0:0:0:0:
320,192,192841,1,0,0:0:0:0:
192,192,192860,1,0,0:0:0:0:
64,192,193049,1,0,0:0:0:0:
448,192,193162,1,0,0:0:0:0:
320,192,193275,1,0,0:0:0:0:
192,192,193388,1,0,0:0:0:0:
448,192,193502,1,0,0:0:0:0:
320,192,193615,1,0,0:0:0:0:
192,192,193728,1,0,0:0:0:0:
448,192,193747,1,0,0:0:0:0:
64,192,193841,1,0,0:0:0:0:
320,192,193860,1,0,0:0:0:0:
448,192,194124,1,0,0:0:0:0:
320,192,194181,1,0,0:0:0:0:
192,192,194256,1,0,0:0:0:0:
320,192,194369,1,0,0:0:0:0:
64,192,194388,1,0,0:0:0:0:
320,192,194520,1,0,0:0:0:0:
448,192,194539,1,0,0:0:0:0:
64,192,194671,1,0,0:0:0:0:
192,192,194690,1,0,0:0:0:0:
320,192,194709,1,0,0:0:0:0:
448,192,194728,1,0,0:0:0:0:
320,192,195313,1,0,0:0:0:0:
448,192,195426,1,0,0:0:0:0:
192,192,195502,1,0,0:0:0:0:
64,192,195577,1,0,0:0:0:0:
320,192,195652,1,0,0:0:0:0:
64,192,195728,1,0,0:0:0:0:
448,192,195803,1,0,0:0:0:0:
192,192,195879,1,0,0:0:0:0:
448,192,195954,1,0,0:0:0:0:
192,192,196030,1,0,0:0:0:0:
448,192,196105,1,0,0:0:0:0:
64,192,196105,1,0,0:0:0:0:
320,192,196124,1,0,0:0:0:0:
64,192,196332,1,0,0:0:0:0:
320,192,196351,1,0,0:0:0:0:
192,192,196445,1,0,0:0:0:0:
448,192,196464,1,0,0:0:0:0:
64,192,196785,1,0,0:0:0:0:
192,192,196803,1,0,0:0:0:0:
320,192,196822,1,0,0:0:0:0:
448,192,197124,1,0,0:0:0:0:
320,192,197143,1,0,0:0:0:0:
64,192,197379,1,0,0:0:0:0:
192,192,197464,1,0,0:0:0:0:
448,192,197577,1,0,0:0:0:0:
320,192,197719,1,0,0:0:0:0:
64,192,197841,1,0,0:0:0:0:
448,192,197954,1,0,0:0:0:0:
192,192,198068,1,0,0:0:0:0:
64,192,198200,1,0,0:0:0:0:
448,192,198313,1,0,0:0:0:0:
192,192,198332,1,0,0:0:0:0:
192,192,198558,1,0,0:0:0:0:
320,192,198577,1,0,0:0:0:0:
64,192,198822,1,0,0:0:0:0:
320,192,198841,1,0,0:0:0:0:
192,192,198973,1,0,0:0:0:0:
448,192,198992,1,0,0:0:0:0:
192,192,199162,1,0,0:0:0:0:
64,192,199181,1,0,0:0:0:0:
448,192,199313,1,0,0:0:0:0:
320,192,199332,1,0,0:0:0:0:
64,192,199502,1,0,0:0:0:0:
192,192,199520,1,0,0:0:0:0:
448,192,199652,1,0,0:0:0:0:
320,192,199671,1,0,0:0:0:0:
192,192,199841,1,0,0:0:0:0:
320,192,199860,1,0,0:0:0:0:
64,192,199992,1,0,0:0:0:0:
320,192,200011,1,0,0:0:0:0:
448,192,200143,1,0,0:0:0:0:
192,192,200162,1,0,0:0:0:0:
320,192,200256,1,0,0:0:0:0:
64,192,200275,1,0,0:0:0:0:
192,192,200464,1,0,0:0:0:0:
448,192,200483,1,0,0:0:0:0:
64,192,200634,1,0,0:0:0:0:
448,192,200652,1,0,0:0:0:0:
320,192,200860,1,0,0:0:0:0:
448,192,200879,1,0,0:0:0:0:
64,192,201992,128,0,207426:0:0:0:0:
192,192,201992,128,0,207369:0:0:0:0:
320,192,206520,1,0,0:0:0:0:
448,192,206520,1,0,0:0:0:0:
320,192,206973,1,0,0:0:0:0:
448,192,207426,1,0,0:0:0:0:
320,192,207426,1,0,0:0:0:0:
448,192,207652,1,0,0:0:0:0:
448,192,207879,1,0,0:0:0:0:
448,192,208105,1,0,0:0:0:0:
448,192,208332,1,0,0:0:0:0:
64,192,208785,1,0,0:0:0:0:
192,192,209011,1,0,0:0:0:0:
320,192,209237,1,0,0:0:0:0:
64,192,209237,1,0,0:0:0:0:
320,192,209464,1,0,0:0:0:0:
320,192,209690,1,0,0:0:0:0:
320,192,209917,1,0,0:0:0:0:
320,192,210143,1,0,0:0:0:0:
448,192,210596,1,0,0:0:0:0:
320,192,210822,1,0,0:0:0:0:
64,192,211049,1,0,0:0:0:0:
192,192,211049,1,0,0:0:0:0:
64,192,211275,1,0,0:0:0:0:
64,192,211502,1,0,0:0:0:0:
64,192,211728,1,0,0:0:0:0:
64,192,211954,1,0,0:0:0:0:
448,192,212407,1,0,0:0:0:0:
320,192,212634,1,0,0:0:0:0:
192,192,212860,1,0,0:0:0:0:
64,192,212860,1,0,0:0:0:0:
448,192,213539,1,0,0:0:0:0:
192,192,213766,1,0,0:0:0:0:
448,192,213766,1,0,0:0:0:0:
320,192,214219,128,0,214332:0:0:0:0:
64,192,214445,128,0,214558:0:0:0:0:
192,192,214671,128,0,215577:0:0:0:0:
320,192,214671,128,0,214785:0:0:0:0:
320,192,214898,128,0,215011:0:0:0:0:
320,192,215124,128,0,215237:0:0:0:0:
320,192,215351,128,0,215464:0:0:0:0:
320,192,215577,128,0,215690:0:0:0:0:
64,192,216030,128,0,216143:0:0:0:0:
320,192,216256,128,0,216369:0:0:0:0:
448,192,216483,128,0,217388:0:0:0:0:
64,192,216483,128,0,216596:0:0:0:0:
64,192,216709,128,0,216822:0:0:0:0:
64,192,216936,128,0,217049:0:0:0:0:
64,192,217162,128,0,217275:0:0:0:0:
64,192,217388,128,0,217502:0:0:0:0:
320,192,217841,128,0,217954:0:0:0:0:
192,192,218068,128,0,218181:0:0:0:0:
448,192,218294,128,0,218747:0:0:0:0:
192,192,218973,128,0,219086:0:0:0:0:
320,192,219200,128,0,219313:0:0:0:0:
64,192,219426,128,0,219539:0:0:0:0:
320,192,219652,128,0,219879:0:0:0:0:
448,192,219992,1,0,0:0:0:0:
448,192,220105,128,0,221803:0:0:0:0:
64,192,223275,128,0,223388:0:0:0:0:
192,192,223502,128,0,223615:0:0:0:0:
448,192,223728,128,0,224181:0:0:0:0:
192,192,224407,128,0,224520:0:0:0:0:
64,192,224634,128,0,224747:0:0:0:0:
320,192,224860,128,0,224973:0:0:0:0:
448,192,225086,128,0,225313:0:0:0:0:
64,192,225426,1,0,0:0:0:0:
64,192,225539,128,0,225992:0:0:0:0:
192,192,225539,1,0,0:0:0:0:
448,192,225766,1,0,0:0:0:0:
320,192,225879,1,0,0:0:0:0:
192,192,225992,128,0,226219:0:0:0:0:
448,192,225992,1,0,0:0:0:0:
320,192,226219,128,0,226445:0:0:0:0:
64,192,226219,1,0,0:0:0:0:
192,192,226332,1,0,0:0:0:0:
448,192,226445,128,0,226898:0:0:0:0:
64,192,226445,1,0,0:0:0:0:
192,192,226671,1,0,0:0:0:0:
320,192,226898,128,0,227351:0:0:0:0:
64,192,226898,1,0,0:0:0:0:
192,192,226954,1,0,0:0:0:0:
64,192,227011,1,0,0:0:0:0:
192,192,227068,1,0,0:0:0:0:
448,192,227124,1,0,0:0:0:0:
448,192,227351,128,0,227803:0:0:0:0:
64,192,227351,1,0,0:0:0:0:
192,192,227577,1,0,0:0:0:0:
320,192,227690,1,0,0:0:0:0:
64,192,227803,128,0,228256:0:0:0:0:
192,192,227803,1,0,0:0:0:0:
448,192,228030,1,0,0:0:0:0:
320,192,228143,1,0,0:0:0:0:
448,192,228256,1,0,0:0:0:0:
192,192,228256,128,0,229162:0:0:0:0:
320,192,228483,1,0,0:0:0:0:
448,192,228709,1,0,0:0:0:0:
320,192,228766,1,0,0:0:0:0:
448,192,228822,1,0,0:0:0:0:
320,192,228879,1,0,0:0:0:0:
64,192,228936,1,0,0:0:0:0:
448,192,229049,1,0,0:0:0:0:
320,192,229162,128,0,229615:0:0:0:0:
64,192,229162,1,0,0:0:0:0:
192,192,229388,1,0,0:0:0:0:
64,192,229502,1,0,0:0:0:0:
448,192,229615,128,0,229841:0:0:0:0:
192,192,229615,1,0,0:0:0:0:
192,192,229841,128,0,230068:0:0:0:0:
320,192,229841,1,0,0:0:0:0:
448,192,229954,1,0,0:0:0:0:
64,192,230068,128,0,230520:0:0:0:0:
320,192,230068,1,0,0:0:0:0:
192,192,230294,1,0,0:0:0:0:
192,192,230520,128,0,230973:0:0:0:0:
320,192,230520,1,0,0:0:0:0:
448,192,230577,1,0,0:0:0:0:
320,192,230634,1,0,0:0:0:0:
448,192,230690,1,0,0:0:0:0:
64,192,230747,1,0,0:0:0:0:
320,192,230973,1,0,0:0:0:0:
64,192,230973,128,0,231426:0:0:0:0:
448,192,231200,1,0,0:0:0:0:
192,192,231313,1,0,0:0:0:0:
320,192,231426,128,0,231879:0:0:0:0:
448,192,231426,1,0,0:0:0:0:
64,192,231652,1,0,0:0:0:0:
192,192,231766,1,0,0:0:0:0:
448,192,231879,128,0,232785:0:0:0:0:
64,192,231879,1,0,0:0:0:0:
320,192,232105,1,0,0:0:0:0:
320,192,232332,1,0,0:0:0:0:
192,192,232388,1,0,0:0:0:0:
320,192,232445,1,0,0:0:0:0:
192,192,232502,1,0,0:0:0:0:
64,192,232558,1,0,0:0:0:0:
64,192,232785,128,0,233237:0:0:0:0:
320,192,232785,1,0,0:0:0:0:
192,192,232785,1,0,0:0:0:0:
192,192,233011,1,0,0:0:0:0:
192,192,233237,128,0,233464:0:0:0:0:
448,192,233237,1,0,0:0:0:0:
320,192,233237,1,0,0:0:0:0:
320,192,233464,128,0,233690:0:0:0:0:
448,192,233690,128,0,234143:0:0:0:0:
192,192,233690,1,0,0:0:0:0:
64,192,233690,1,0,0:0:0:0:
192,192,233917,1,0,0:0:0:0:
320,192,234143,128,0,234596:0:0:0:0:
64,192,234143,1,0,0:0:0:0:
192,192,234143,1,0,0:0:0:0:
448,192,234369,1,0,0:0:0:0:
192,192,234596,128,0,235049:0:0:0:0:
448,192,234596,1,0,0:0:0:0:
64,192,234596,1,0,0:0:0:0:
64,192,234822,1,0,0:0:0:0:
448,192,235049,128,0,235502:0:0:0:0:
320,192,235049,1,0,0:0:0:0:
64,192,235049,1,0,0:0:0:0:
192,192,235275,1,0,0:0:0:0:
64,192,235502,128,0,236407:0:0:0:0:
320,192,235502,1,0,0:0:0:0:
192,192,235502,1,0,0:0:0:0:
320,192,235728,1,0,0:0:0:0:
448,192,235728,1,0,0:0:0:0:
448,192,235954,1,0,0:0:0:0:
320,192,235954,1,0,0:0:0:0:
192,192,235954,1,0,0:0:0:0:
448,192,236407,1,0,0:0:0:0:
192,192,236407,1,0,0:0:0:0:
320,192,236407,1,0,0:0:0:0:
448,192,236634,1,0,0:0:0:0:
320,192,236634,1,0,0:0:0:0:
64,192,236634,1,0,0:0:0:0:
448,192,236860,1,0,0:0:0:0:
192,192,236860,1,0,0:0:0:0:
64,192,236860,1,0,0:0:0:0:
448,192,237086,1,0,0:0:0:0:
320,192,237086,1,0,0:0:0:0:
192,192,237086,1,0,0:0:0:0:
64,192,237313,1,0,0:0:0:0:
192,192,237313,1,0,0:0:0:0:
320,192,237313,1,0,0:0:0:0:
448,192,237313,1,0,0:0:0:0:
448,192,237539,1,0,0:0:0:0:
320,192,237539,1,0,0:0:0:0:
192,192,237539,1,0,0:0:0:0:
64,192,237539,1,0,0:0:0:0:
448,192,237766,1,0,0:0:0:0:
320,192,237766,1,0,0:0:0:0:
192,192,237766,1,0,0:0:0:0:
64,192,237766,1,0,0:0:0:0:
448,192,237992,1,0,0:0:0:0:
320,192,237992,1,0,0:0:0:0:
192,192,237992,1,0,0:0:0:0:
64,192,237992,1,0,0:0:0:0:
192,192,238219,1,0,0:0:0:0:
64,192,238219,1,0,0:0:0:0:
192,192,238294,1,0,0:0:0:0:
64,192,238294,1,0,0:0:0:0:
448,192,238369,1,0,0:0:0:0:
320,192,238369,1,0,0:0:0:0:
448,192,238445,1,0,0:0:0:0:
320,192,238445,1,0,0:0:0:0:
192,192,238520,1,0,0:0:0:0:
64,192,238520,1,0,0:0:0:0:
64,192,238596,1,0,0:0:0:0:
192,192,238596,1,0,0:0:0:0:
448,192,238671,1,0,0:0:0:0:
320,192,238671,1,0,0:0:0:0:
448,192,238747,1,0,0:0:0:0:
320,192,238747,1,0,0:0:0:0:
192,192,238822,1,0,0:0:0:0:
64,192,238822,1,0,0:0:0:0:
192,192,238898,1,0,0:0:0:0:
64,192,238898,1,0,0:0:0:0:
320,192,238973,1,0,0:0:0:0:
448,192,238973,1,0,0:0:0:0:
448,192,239049,1,0,0:0:0:0:
320,192,239049,1,0,0:0:0:0:
192,192,239124,128,0,239181:0:0:0:0:
64,192,239124,128,0,239577:0:0:0:0:
192,192,239577,128,0,239690:0:0:0:0:
320,192,239577,128,0,239803:0:0:0:0:
448,192,239577,128,0,240030:0:0:0:0:
192,192,240030,1,0,0:0:0:0:
64,192,240030,1,0,0:0:0:0:
320,192,240030,1,0,0:0:0:0:
192,192,240105,1,0,0:0:0:0:
64,192,240105,1,0,0:0:0:0:
192,192,240181,1,0,0:0:0:0:
64,192,240181,1,0,0:0:0:0:
320,192,240256,1,0,0:0:0:0:
448,192,240256,1,0,0:0:0:0:
320,192,240483,1,0,0:0:0:0:
448,192,240483,1,0,0:0:0:0:
64,192,240483,1,0,0:0:0:0:
448,192,240558,1,0,0:0:0:0:
320,192,240558,1,0,0:0:0:0:
448,192,240634,1,0,0:0:0:0:
320,192,240634,1,0,0:0:0:0:
192,192,240709,1,0,0:0:0:0:
64,192,240709,1,0,0:0:0:0:
448,192,240936,1,0,0:0:0:0:
192,192,240936,1,0,0:0:0:0:
64,192,240936,1,0,0:0:0:0:
320,192,240992,1,0,0:0:0:0:
192,192,241049,1,0,0:0:0:0:
448,192,241105,1,0,0:0:0:0:
320,192,241162,1,0,0:0:0:0:
64,192,241162,1,0,0:0:0:0:
320,192,241388,1,0,0:0:0:0:
448,192,241388,1,0,0:0:0:0:
192,192,241502,1,0,0:0:0:0:
448,192,241615,1,0,0:0:0:0:
320,192,241615,1,0,0:0:0:0:
64,192,241615,1,0,0:0:0:0:
448,192,241728,1,0,0:0:0:0:
320,192,241728,1,0,0:0:0:0:
192,192,241841,1,0,0:0:0:0:
64,192,241841,1,0,0:0:0:0:
448,192,241841,1,0,0:0:0:0:
192,192,241917,1,0,0:0:0:0:
64,192,241917,1,0,0:0:0:0:
192,192,241992,1,0,0:0:0:0:
64,192,241992,1,0,0:0:0:0:
448,192,242068,1,0,0:0:0:0:
320,192,242068,1,0,0:0:0:0:
64,192,242294,1,0,0:0:0:0:
448,192,242294,1,0,0:0:0:0:
320,192,242294,1,0,0:0:0:0:
448,192,242369,1,0,0:0:0:0:
320,192,242369,1,0,0:0:0:0:
320,192,242445,1,0,0:0:0:0:
448,192,242445,1,0,0:0:0:0:
192,192,242520,1,0,0:0:0:0:
64,192,242520,1,0,0:0:0:0:
320,192,242634,1,0,0:0:0:0:
448,192,242634,1,0,0:0:0:0:
448,192,242747,1,0,0:0:0:0:
64,192,242747,1,0,0:0:0:0:
192,192,242747,1,0,0:0:0:0:
320,192,242803,1,0,0:0:0:0:
192,192,242860,1,0,0:0:0:0:
64,192,242860,1,0,0:0:0:0:
448,192,242917,1,0,0:0:0:0:
320,192,242973,1,0,0:0:0:0:
192,192,242973,1,0,0:0:0:0:
64,192,243200,1,0,0:0:0:0:
448,192,243200,1,0,0:0:0:0:
320,192,243200,1,0,0:0:0:0:
448,192,243313,1,0,0:0:0:0:
320,192,243313,1,0,0:0:0:0:
192,192,243426,1,0,0:0:0:0:
64,192,243426,1,0,0:0:0:0:
448,192,243426,1,0,0:0:0:0:
320,192,243539,1,0,0:0:0:0:
64,192,243652,1,0,0:0:0:0:
448,192,243652,1,0,0:0:0:0:
192,192,243652,1,0,0:0:0:0:
192,192,243766,1,0,0:0:0:0:
64,192,243766,1,0,0:0:0:0:
448,192,243766,1,0,0:0:0:0:
192,192,243879,1,0,0:0:0:0:
64,192,243879,1,0,0:0:0:0:
320,192,243879,1,0,0:0:0:0:
192,192,243992,1,0,0:0:0:0:
64,192,243992,1,0,0:0:0:0:
320,192,243992,1,0,0:0:0:0:
448,192,244105,1,0,0:0:0:0:
320,192,244105,1,0,0:0:0:0:
64,192,244162,1,0,0:0:0:0:
192,192,244219,1,0,0:0:0:0:
448,192,244275,1,0,0:0:0:0:
192,192,244332,1,0,0:0:0:0:
64,192,244332,1,0,0:0:0:0:
320,192,244332,1,0,0:0:0:0:
192,192,244445,1,0,0:0:0:0:
64,192,244445,1,0,0:0:0:0:
448,192,244558,1,0,0:0:0:0:
320,192,244558,1,0,0:0:0:0:
64,192,244558,1,0,0:0:0:0:
448,192,244671,1,0,0:0:0:0:
320,192,244671,1,0,0:0:0:0:
64,192,244785,1,0,0:0:0:0:
448,192,244785,1,0,0:0:0:0:
192,192,244841,1,0,0:0:0:0:
320,192,244898,1,0,0:0:0:0:
448,192,244898,1,0,0:0:0:0:
448,192,245011,1,0,0:0:0:0:
192,192,245011,1,0,0:0:0:0:
64,192,245011,1,0,0:0:0:0:
320,192,245124,1,0,0:0:0:0:
192,192,245124,1,0,0:0:0:0:
64,192,245237,1,0,0:0:0:0:
448,192,245237,1,0,0:0:0:0:
192,192,245294,1,0,0:0:0:0:
320,192,245351,1,0,0:0:0:0:
64,192,245464,1,0,0:0:0:0:
448,192,245464,1,0,0:0:0:0:
192,192,245464,1,0,0:0:0:0:
64,192,245577,1,0,0:0:0:0:
448,192,245577,1,0,0:0:0:0:
192,192,245577,1,0,0:0:0:0:
448,192,245690,1,0,0:0:0:0:
192,192,245690,1,0,0:0:0:0:
64,192,245690,1,0,0:0:0:0:
192,192,245803,1,0,0:0:0:0:
448,192,245917,1,0,0:0:0:0:
320,192,245917,1,0,0:0:0:0:
64,192,245917,1,0,0:0:0:0:
448,192,246030,1,0,0:0:0:0:
320,192,246030,1,0,0:0:0:0:
64,192,246030,1,0,0:0:0:0:
448,192,246143,1,0,0:0:0:0:
320,192,246143,1,0,0:0:0:0:
64,192,246143,1,0,0:0:0:0:
192,192,246256,1,0,0:0:0:0:
448,192,246369,1,0,0:0:0:0:
320,192,246369,1,0,0:0:0:0:
192,192,246445,1,0,0:0:0:0:
64,192,246445,1,0,0:0:0:0:
320,192,246520,1,0,0:0:0:0:
448,192,246520,1,0,0:0:0:0:
64,192,246596,1,0,0:0:0:0:
192,192,246596,1,0,0:0:0:0:
320,192,246671,1,0,0:0:0:0:
448,192,246671,1,0,0:0:0:0:
192,192,246747,1,0,0:0:0:0:
320,192,246822,1,0,0:0:0:0:
448,192,246822,1,0,0:0:0:0:
64,192,246822,1,0,0:0:0:0:
64,192,246936,1,0,0:0:0:0:
320,192,246936,1,0,0:0:0:0:
448,192,246936,1,0,0:0:0:0:
192,192,247049,1,0,0:0:0:0:
64,192,247049,1,0,0:0:0:0:
320,192,247049,1,0,0:0:0:0:
192,192,247162,1,0,0:0:0:0:
64,192,247162,1,0,0:0:0:0:
448,192,247275,1,0,0:0:0:0:
320,192,247275,1,0,0:0:0:0:
64,192,247275,1,0,0:0:0:0:
448,192,247351,1,0,0:0:0:0:
320,192,247351,1,0,0:0:0:0:
448,192,247426,1,0,0:0:0:0:
320,192,247426,1,0,0:0:0:0:
192,192,247502,1,0,0:0:0:0:
64,192,247502,1,0,0:0:0:0:
192,192,247728,1,0,0:0:0:0:
64,192,247728,1,0,0:0:0:0:
448,192,247728,1,0,0:0:0:0:
64,192,247803,1,0,0:0:0:0:
192,192,247803,1,0,0:0:0:0:
64,192,247879,1,0,0:0:0:0:
192,192,247879,1,0,0:0:0:0:
320,192,247954,1,0,0:0:0:0:
448,192,247954,1,0,0:0:0:0:
64,192,248181,1,0,0:0:0:0:
320,192,248181,1,0,0:0:0:0:
448,192,248181,1,0,0:0:0:0:
192,192,248237,1,0,0:0:0:0:
448,192,248294,1,0,0:0:0:0:
320,192,248351,1,0,0:0:0:0:
64,192,248407,1,0,0:0:0:0:
192,192,248407,1,0,0:0:0:0:
192,192,248634,1,0,0:0:0:0:
64,192,248634,1,0,0:0:0:0:
320,192,248747,1,0,0:0:0:0:
64,192,248860,1,0,0:0:0:0:
192,192,248860,1,0,0:0:0:0:
448,192,248860,1,0,0:0:0:0:
192,192,248973,1,0,0:0:0:0:
64,192,248973,1,0,0:0:0:0:
320,192,249086,1,0,0:0:0:0:
448,192,249086,1,0,0:0:0:0:
64,192,249086,1,0,0:0:0:0:
320,192,249162,1,0,0:0:0:0:
448,192,249162,1,0,0:0:0:0:
320,192,249237,1,0,0:0:0:0:
448,192,249237,1,0,0:0:0:0:
64,192,249313,1,0,0:0:0:0:
192,192,249313,1,0,0:0:0:0:
448,192,249539,1,0,0:0:0:0:
64,192,249539,1,0,0:0:0:0:
192,192,249539,1,0,0:0:0:0:
64,192,249615,1,0,0:0:0:0:
192,192,249615,1,0,0:0:0:0:
192,192,249690,1,0,0:0:0:0:
64,192,249690,1,0,0:0:0:0:
320,192,249766,1,0,0:0:0:0:
448,192,249766,1,0,0:0:0:0:
192,192,249879,1,0,0:0:0:0:
64,192,249879,1,0,0:0:0:0:
64,192,249992,1,0,0:0:0:0:
448,192,249992,1,0,0:0:0:0:
320,192,249992,1,0,0:0:0:0:
192,192,250049,1,0,0:0:0:0:
448,192,250105,1,0,0:0:0:0:
320,192,250105,1,0,0:0:0:0:
64,192,250162,1,0,0:0:0:0:
192,192,250219,1,0,0:0:0:0:
320,192,250219,1,0,0:0:0:0:
320,192,250445,1,0,0:0:0:0:
448,192,250445,1,0,0:0:0:0:
192,192,250445,1,0,0:0:0:0:
320,192,250558,1,0,0:0:0:0:
448,192,250558,1,0,0:0:0:0:
448,192,250671,1,0,0:0:0:0:
64,192,250671,1,0,0:0:0:0:
192,192,250671,1,0,0:0:0:0:
64,192,250785,1,0,0:0:0:0:
320,192,250898,1,0,0:0:0:0:
448,192,250898,1,0,0:0:0:0:
192,192,250898,1,0,0:0:0:0:
320,192,251011,1,0,0:0:0:0:
448,192,251011,1,0,0:0:0:0:
192,192,251011,1,0,0:0:0:0:
320,192,251124,1,0,0:0:0:0:
448,192,251124,1,0,0:0:0:0:
64,192,251124,1,0,0:0:0:0:
448,192,251237,1,0,0:0:0:0:
320,192,251237,1,0,0:0:0:0:
64,192,251237,1,0,0:0:0:0:
64,192,251351,1,0,0:0:0:0:
448,192,251351,1,0,0:0:0:0:
192,192,251407,1,0,0:0:0:0:
320,192,251464,1,0,0:0:0:0:
448,192,251520,1,0,0:0:0:0:
64,192,251577,1,0,0:0:0:0:
192,192,251577,1,0,0:0:0:0:
320,192,251634,1,0,0:0:0:0:
448,192,251634,1,0,0:0:0:0:
64,192,251690,1,0,0:0:0:0:
192,192,251690,1,0,0:0:0:0:
320,192,251747,1,0,0:0:0:0:
192,192,251803,1,0,0:0:0:0:
64,192,251803,1,0,0:0:0:0:
448,192,251803,1,0,0:0:0:0:
448,192,251917,1,0,0:0:0:0:
320,192,251917,1,0,0:0:0:0:
192,192,252030,1,0,0:0:0:0:
64,192,252030,1,0,0:0:0:0:
448,192,252030,1,0,0:0:0:0:
320,192,252143,1,0,0:0:0:0:
192,192,252143,1,0,0:0:0:0:
64,192,252256,1,0,0:0:0:0:
448,192,252256,1,0,0:0:0:0:
192,192,252313,1,0,0:0:0:0:
320,192,252369,1,0,0:0:0:0:
448,192,252426,1,0,0:0:0:0:
192,192,252483,1,0,0:0:0:0:
64,192,252483,1,0,0:0:0:0:
320,192,252539,1,0,0:0:0:0:
448,192,252539,1,0,0:0:0:0:
192,192,252596,1,0,0:0:0:0:
64,192,252596,1,0,0:0:0:0:
448,192,252652,1,0,0:0:0:0:
192,192,252709,1,0,0:0:0:0:
64,192,252709,1,0,0:0:0:0:
320,192,252709,1,0,0:0:0:0:
448,192,252822,1,0,0:0:0:0:
320,192,252822,1,0,0:0:0:0:
192,192,252936,1,0,0:0:0:0:
64,192,252936,1,0,0:0:0:0:
448,192,252936,1,0,0:0:0:0:
320,192,253049,1,0,0:0:0:0:
64,192,253049,1,0,0:0:0:0:
192,192,253162,1,0,0:0:0:0:
448,192,253162,1,0,0:0:0:0:
320,192,253162,1,0,0:0:0:0:
192,192,253275,1,0,0:0:0:0:
64,192,253275,1,0,0:0:0:0:
448,192,253388,1,0,0:0:0:0:
320,192,253388,1,0,0:0:0:0:
64,192,253388,1,0,0:0:0:0:
448,192,253502,1,0,0:0:0:0:
320,192,253502,1,0,0:0:0:0:
192,192,253615,1,0,0:0:0:0:
64,192,253615,1,0,0:0:0:0:
320,192,253615,1,0,0:0:0:0:
448,192,253728,1,0,0:0:0:0:
192,192,253728,1,0,0:0:0:0:
192,192,253841,1,0,0:0:0:0:
64,192,253841,1,0,0:0:0:0:
320,192,253841,1,0,0:0:0:0:
320,192,253954,1,0,0:0:0:0:
448,192,253954,1,0,0:0:0:0:
192,192,254068,1,0,0:0:0:0:
64,192,254068,1,0,0:0:0:0:
448,192,254068,1,0,0:0:0:0:
320,192,254181,1,0,0:0:0:0:
64,192,254181,1,0,0:0:0:0:
192,192,254294,1,0,0:0:0:0:
64,192,254294,1,0,0:0:0:0:
448,192,254294,1,0,0:0:0:0:
320,192,254407,1,0,0:0:0:0:
448,192,254407,1,0,0:0:0:0:
448,192,254520,1,0,0:0:0:0:
320,192,254520,1,0,0:0:0:0:
64,192,254520,1,0,0:0:0:0:
64,192,254634,1,0,0:0:0:0:
192,192,254634,1,0,0:0:0:0:
320,192,254747,1,0,0:0:0:0:
448,192,254747,1,0,0:0:0:0:
192,192,254747,1,0,0:0:0:0:
448,192,254860,1,0,0:0:0:0:
320,192,254860,1,0,0:0:0:0:
448,192,254973,1,0,0:0:0:0:
192,192,254973,1,0,0:0:0:0:
64,192,254973,1,0,0:0:0:0:
192,192,255086,1,0,0:0:0:0:
64,192,255086,1,0,0:0:0:0:
192,192,255200,1,0,0:0:0:0:
448,192,255200,1,0,0:0:0:0:
320,192,255200,1,0,0:0:0:0:
448,192,255313,1,0,0:0:0:0:
320,192,255313,1,0,0:0:0:0:
64,192,255426,1,0,0:0:0:0:
448,192,255426,1,0,0:0:0:0:
320,192,255502,1,0,0:0:0:0:
192,192,255577,1,0,0:0:0:0:
64,192,255652,1,0,0:0:0:0:
448,192,255652,1,0,0:0:0:0:
320,192,255728,1,0,0:0:0:0:
192,192,255803,1,0,0:0:0:0:
64,192,255879,1,0,0:0:0:0:
448,192,255879,1,0,0:0:0:0:
320,192,255954,1,0,0:0:0:0:
192,192,256030,1,0,0:0:0:0:
448,192,256105,1,0,0:0:0:0:
64,192,256105,1,0,0:0:0:0:
320,192,256181,1,0,0:0:0:0:
192,192,256256,1,0,0:0:0:0:
448,192,256332,1,0,0:0:0:0:
64,192,256332,1,0,0:0:0:0:
192,192,257011,1,0,0:0:0:0:
320,192,257237,1,0,0:0:0:0:
64,192,257464,1,0,0:0:0:0:
448,192,257690,1,0,0:0:0:0:
320,192,258030,1,0,0:0:0:0:
320,192,258143,128,0,259049:0:0:0:0:
64,192,259502,1,0,0:0:0:0:
192,192,259728,1,0,0:0:0:0:
320,192,259954,1,0,0:0:0:0:
448,192,260634,1,0,0:0:0:0:
192,192,260860,1,0,0:0:0:0:
320,192,261086,1,0,0:0:0:0:
64,192,261313,1,0,0:0:0:0:
192,192,261652,1,0,0:0:0:0:
192,192,261766,128,0,265388:0:0:0:0:
64,192,261766,1,0,0:0:0:0:
448,192,261766,1,0,0:0:0:0:
448,192,262671,1,0,0:0:0:0:
448,192,263577,1,0,0:0:0:0:
448,192,264483,1,0,0:0:0:0:
448,192,265388,1,0,0:0:0:0:
320,192,265615,1,0,0:0:0:0:
192,192,265841,1,0,0:0:0:0:
320,192,265954,1,0,0:0:0:0:
192,192,266181,1,0,0:0:0:0:
448,192,266294,1,0,0:0:0:0:
320,192,266407,1,0,0:0:0:0:
64,192,266747,1,0,0:0:0:0:
64,192,266973,1,0,0:0:0:0:
64,192,267200,1,0,0:0:0:0:
64,192,267539,1,0,0:0:0:0:
192,192,267879,1,0,0:0:0:0:
320,192,267992,1,0,0:0:0:0:
448,192,268558,1,0,0:0:0:0:
448,192,268785,1,0,0:0:0:0:
448,192,269011,1,0,0:0:0:0:
64,192,269011,1,0,0:0:0:0:
192,192,269237,128,0,269351:0:0:0:0:
64,192,269237,128,0,269351:0:0:0:0:
192,192,269577,128,0,269690:0:0:0:0:
448,192,269577,1,0,0:0:0:0:
64,192,269577,128,0,269690:0:0:0:0:
448,192,269917,1,0,0:0:0:0:
192,192,270030,128,0,270143:0:0:0:0:
64,192,270030,128,0,270143:0:0:0:0:
192,192,270369,128,0,270483:0:0:0:0:
64,192,270369,128,0,270483:0:0:0:0:
448,192,270483,1,0,0:0:0:0:
192,192,270596,128,0,270709:0:0:0:0:
64,192,270596,128,0,270709:0:0:0:0:
448,192,270822,1,0,0:0:0:0:
64,192,270822,1,0,0:0:0:0:
320,192,271049,128,0,271162:0:0:0:0:
448,192,271049,128,0,271162:0:0:0:0:
64,192,271388,1,0,0:0:0:0:
320,192,271388,128,0,271502:0:0:0:0:
448,192,271388,128,0,271502:0:0:0:0:
64,192,271728,1,0,0:0:0:0:
320,192,271841,128,0,271954:0:0:0:0:
448,192,271841,128,0,271954:0:0:0:0:
320,192,272181,128,0,272294:0:0:0:0:
448,192,272181,128,0,272294:0:0:0:0:
64,192,272294,1,0,0:0:0:0:
320,192,272407,128,0,272520:0:0:0:0:
448,192,272407,128,0,272520:0:0:0:0:
448,192,272634,1,0,0:0:0:0:
64,192,272634,1,0,0:0:0:0:
192,192,272860,128,0,272973:0:0:0:0:
64,192,272860,1,0,0:0:0:0:
320,192,272860,128,0,272973:0:0:0:0:
320,192,273200,128,0,273313:0:0:0:0:
192,192,273200,128,0,273313:0:0:0:0:
448,192,273200,1,0,0:0:0:0:
64,192,273313,1,0,0:0:0:0:
448,192,273539,1,0,0:0:0:0:
192,192,273652,128,0,273766:0:0:0:0:
320,192,273652,128,0,273766:0:0:0:0:
64,192,273766,1,0,0:0:0:0:
192,192,273992,128,0,274105:0:0:0:0:
320,192,273992,128,0,274105:0:0:0:0:
448,192,274105,1,0,0:0:0:0:
64,192,274219,1,0,0:0:0:0:
192,192,274219,128,0,274332:0:0:0:0:
320,192,274219,128,0,274332:0:0:0:0:
448,192,274445,1,0,0:0:0:0:
192,192,274445,128,0,274615:0:0:0:0:
64,192,274445,128,0,274558:0:0:0:0:
320,192,274445,128,0,274671:0:0:0:0:
64,192,274671,1,0,0:0:0:0:
192,192,274785,128,0,274898:0:0:0:0:
320,192,274785,128,0,274898:0:0:0:0:
64,192,275011,1,0,0:0:0:0:
448,192,275011,1,0,0:0:0:0:
320,192,275124,1,0,0:0:0:0:
192,192,275237,1,0,0:0:0:0:
64,192,275237,1,0,0:0:0:0:
320,192,275294,1,0,0:0:0:0:
448,192,275351,1,0,0:0:0:0:
64,192,275351,1,0,0:0:0:0:
192,192,275351,1,0,0:0:0:0:
64,192,275464,1,0,0:0:0:0:
320,192,275464,1,0,0:0:0:0:
448,192,275577,1,0,0:0:0:0:
192,192,275577,1,0,0:0:0:0:
64,192,275690,5,0,0:0:0:0:
192,192,275690,1,0,0:0:0:0:
320,192,275803,1,0,0:0:0:0:
448,192,275803,1,0,0:0:0:0:
192,192,275860,1,0,0:0:0:0:
64,192,275860,1,0,0:0:0:0:
320,192,275917,1,0,0:0:0:0:
448,192,275917,1,0,0:0:0:0:
192,192,275973,1,0,0:0:0:0:
64,192,275973,1,0,0:0:0:0:
320,192,276030,1,0,0:0:0:0:
448,192,276030,1,0,0:0:0:0:
192,192,276086,1,0,0:0:0:0:
64,192,276086,1,0,0:0:0:0:
320,192,276143,1,0,0:0:0:0:
448,192,276143,1,0,0:0:0:0:
192,192,276200,1,0,0:0:0:0:
320,192,276256,1,0,0:0:0:0:
448,192,276256,1,0,0:0:0:0:
64,192,276256,1,0,0:0:0:0:
192,192,276369,1,0,0:0:0:0:
320,192,276483,1,0,0:0:0:0:
64,192,276483,1,0,0:0:0:0:
320,192,276596,1,0,0:0:0:0:
192,192,276709,1,0,0:0:0:0:
64,192,276709,1,0,0:0:0:0:
448,192,276709,1,0,0:0:0:0:
192,192,276822,1,0,0:0:0:0:
64,192,276822,1,0,0:0:0:0:
448,192,276936,1,0,0:0:0:0:
320,192,276936,1,0,0:0:0:0:
192,192,276950,1,0,0:0:0:0:
320,192,277049,1,0,0:0:0:0:
64,192,277162,1,0,0:0:0:0:
448,192,277275,1,0,0:0:0:0:
320,192,277289,1,0,0:0:0:0:
448,192,277388,1,0,0:0:0:0:
64,192,277502,1,0,0:0:0:0:
192,192,277516,1,0,0:0:0:0:
320,192,277615,1,0,0:0:0:0:
64,192,277728,1,0,0:0:0:0:
192,192,277756,1,0,0:0:0:0:
320,192,277785,1,0,0:0:0:0:
448,192,277813,1,0,0:0:0:0:
64,192,277841,1,0,0:0:0:0:
320,192,277954,1,0,0:0:0:0:
64,192,278068,1,0,0:0:0:0:
320,192,278068,1,0,0:0:0:0:
192,192,278082,1,0,0:0:0:0:
448,192,278181,1,0,0:0:0:0:
64,192,278294,1,0,0:0:0:0:
192,192,278294,1,0,0:0:0:0:
448,192,278407,1,0,0:0:0:0:
320,192,278520,1,0,0:0:0:0:
64,192,278634,1,0,0:0:0:0:
448,192,278634,1,0,0:0:0:0:
192,192,278747,1,0,0:0:0:0:
448,192,278860,1,0,0:0:0:0:
64,192,278860,1,0,0:0:0:0:
320,192,278874,1,0,0:0:0:0:
64,192,278973,1,0,0:0:0:0:
192,192,279086,1,0,0:0:0:0:
320,192,279101,1,0,0:0:0:0:
448,192,279200,1,0,0:0:0:0:
64,192,279214,1,0,0:0:0:0:
448,192,279313,1,0,0:0:0:0:
320,192,279327,1,0,0:0:0:0:
64,192,279426,1,0,0:0:0:0:
320,192,279440,1,0,0:0:0:0:
448,192,279539,1,0,0:0:0:0:
192,192,279553,1,0,0:0:0:0:
448,192,279652,1,0,0:0:0:0:
320,192,279667,1,0,0:0:0:0:
64,192,279766,1,0,0:0:0:0:
192,192,279780,1,0,0:0:0:0:
64,192,279879,1,0,0:0:0:0:
448,192,279879,1,0,0:0:0:0:
320,192,279893,1,0,0:0:0:0:
448,192,279992,1,0,0:0:0:0:
320,192,280105,1,0,0:0:0:0:
192,192,280105,1,0,0:0:0:0:
64,192,280219,1,0,0:0:0:0:
192,192,280332,1,0,0:0:0:0:
448,192,280445,1,0,0:0:0:0:
320,192,280445,1,0,0:0:0:0:
192,192,280558,1,0,0:0:0:0:
448,192,280671,1,0,0:0:0:0:
64,192,280785,1,0,0:0:0:0:
320,192,280898,1,0,0:0:0:0:
448,192,280898,1,0,0:0:0:0:
192,192,281011,1,0,0:0:0:0:
320,192,281011,1,0,0:0:0:0:
64,192,281124,1,0,0:0:0:0:
448,192,281124,1,0,0:0:0:0:
320,192,281237,1,0,0:0:0:0:
192,192,281237,1,0,0:0:0:0:
320,192,281351,1,0,0:0:0:0:
192,192,281464,1,0,0:0:0:0:
64,192,281464,1,0,0:0:0:0:
448,192,281577,1,0,0:0:0:0:
320,192,281577,1,0,0:0:0:0:
192,192,281634,1,0,0:0:0:0:
64,192,281634,1,0,0:0:0:0:
448,192,281690,1,0,0:0:0:0:
320,192,281690,1,0,0:0:0:0:
64,192,281747,1,0,0:0:0:0:
192,192,281803,1,0,0:0:0:0:
448,192,281860,1,0,0:0:0:0:
64,192,281917,1,0,0:0:0:0:
320,192,281973,1,0,0:0:0:0:
192,192,282030,1,0,0:0:0:0:
64,192,282030,1,0,0:0:0:0:
448,192,282086,1,0,0:0:0:0:
64,192,282143,1,0,0:0:0:0:
192,192,282200,1,0,0:0:0:0:
448,192,282256,1,0,0:0:0:0:
320,192,282313,1,0,0:0:0:0:
192,192,282369,1,0,0:0:0:0:
64,192,282426,1,0,0:0:0:0:
320,192,282483,1,0,0:0:0:0:
448,192,282483,1,0,0:0:0:0:
192,192,282520,1,0,0:0:0:0:
64,192,282558,1,0,0:0:0:0:
448,192,282596,1,0,0:0:0:0:
320,192,282634,1,0,0:0:0:0:
192,192,282671,1,0,0:0:0:0:
64,192,282709,1,0,0:0:0:0:
448,192,282747,1,0,0:0:0:0:
320,192,282785,1,0,0:0:0:0:
192,192,282822,1,0,0:0:0:0:
64,192,282860,1,0,0:0:0:0:
320,192,282898,1,0,0:0:0:0:
448,192,282936,1,0,0:0:0:0:
64,192,282973,1,0,0:0:0:0:
192,192,283011,1,0,0:0:0:0:
320,192,283049,1,0,0:0:0:0:
448,192,283086,1,0,0:0:0:0:
64,192,283124,1,0,0:0:0:0:
192,192,283162,1,0,0:0:0:0:
320,192,283200,1,0,0:0:0:0:
448,192,283237,1,0,0:0:0:0:
64,192,283275,128,0,283332:0:0:0:0:
192,192,283332,128,0,283388:0:0:0:0:
320,192,283388,128,0,283445:0:0:0:0:
448,192,283445,128,0,283502:0:0:0:0:
192,192,283502,1,0,0:0:0:0:
64,192,283502,1,0,0:0:0:0:
320,192,283502,1,0,0:0:0:0:
192,192,283615,1,0,0:0:0:0:
448,192,283615,1,0,0:0:0:0:
320,192,283615,1,0,0:0:0:0:
448,192,283728,1,0,0:0:0:0:
192,192,283728,1,0,0:0:0:0:
64,192,283728,1,0,0:0:0:0:
64,192,283841,1,0,0:0:0:0:
320,192,283841,1,0,0:0:0:0:
448,192,283841,1,0,0:0:0:0:
64,192,283954,1,0,0:0:0:0:
192,192,283954,1,0,0:0:0:0:
320,192,283954,1,0,0:0:0:0:
448,192,284068,1,0,0:0:0:0:
192,192,284068,1,0,0:0:0:0:
320,192,284068,1,0,0:0:0:0:
64,192,284181,1,0,0:0:0:0:
192,192,284219,1,0,0:0:0:0:
320,192,284256,1,0,0:0:0:0:
448,192,284294,1,0,0:0:0:0:
64,192,284332,1,0,0:0:0:0:
192,192,284369,1,0,0:0:0:0:
448,192,284407,1,0,0:0:0:0:
320,192,284407,1,0,0:0:0:0:
320,192,284520,1,0,0:0:0:0:
448,192,284520,1,0,0:0:0:0:
192,192,284520,1,0,0:0:0:0:
320,192,284634,1,0,0:0:0:0:
64,192,284634,1,0,0:0:0:0:
192,192,284634,1,0,0:0:0:0:
448,192,284747,1,0,0:0:0:0:
64,192,284747,1,0,0:0:0:0:
192,192,284747,1,0,0:0:0:0:
320,192,284860,1,0,0:0:0:0:
448,192,284860,1,0,0:0:0:0:
64,192,284860,1,0,0:0:0:0:
192,192,284973,1,0,0:0:0:0:
320,192,284973,1,0,0:0:0:0:
448,192,284973,1,0,0:0:0:0:
320,192,285086,128,0,285256:0:0:0:0:
192,192,285143,128,0,285256:0:0:0:0:
64,192,285200,128,0,285256:0:0:0:0:
448,192,285313,1,0,0:0:0:0:
192,192,285313,1,0,0:0:0:0:
320,192,285313,1,0,0:0:0:0:
448,192,285426,1,0,0:0:0:0:
320,192,285426,1,0,0:0:0:0:
64,192,285426,1,0,0:0:0:0:
448,192,285539,1,0,0:0:0:0:
192,192,285539,1,0,0:0:0:0:
64,192,285539,1,0,0:0:0:0:
448,192,285652,1,0,0:0:0:0:
320,192,285652,1,0,0:0:0:0:
64,192,285652,1,0,0:0:0:0:
448,192,285766,1,0,0:0:0:0:
192,192,285766,128,0,285822:0:0:0:0:
320,192,285766,128,0,285879:0:0:0:0:
64,192,285879,128,0,285992:0:0:0:0:
448,192,285879,128,0,285936:0:0:0:0:
320,192,285992,128,0,286049:0:0:0:0:
192,192,285992,128,0,286143:0:0:0:0:
64,192,286068,128,0,286143:0:0:0:0:
448,192,286143,128,0,286219:0:0:0:0:
64,192,286219,1,0,0:0:0:0:
192,192,286219,1,0,0:0:0:0:
320,192,286275,1,0,0:0:0:0:
448,192,286332,1,0,0:0:0:0:
64,192,286332,1,0,0:0:0:0:
192,192,286388,1,0,0:0:0:0:
320,192,286445,1,0,0:0:0:0:
448,192,286445,1,0,0:0:0:0:
64,192,286502,1,0,0:0:0:0:
192,192,286558,1,0,0:0:0:0:
320,192,286558,1,0,0:0:0:0:
448,192,286615,1,0,0:0:0:0:
64,192,286671,1,0,0:0:0:0:
192,192,286671,1,0,0:0:0:0:
320,192,286728,1,0,0:0:0:0:
448,192,286785,1,0,0:0:0:0:
64,192,286785,1,0,0:0:0:0:
192,192,286841,1,0,0:0:0:0:
320,192,286898,1,0,0:0:0:0:
448,192,286898,1,0,0:0:0:0:
320,192,287011,1,0,0:0:0:0:
448,192,287011,1,0,0:0:0:0:
320,192,287124,1,0,0:0:0:0:
448,192,287124,1,0,0:0:0:0:
192,192,287124,1,0,0:0:0:0:
192,192,287237,1,0,0:0:0:0:
64,192,287237,1,0,0:0:0:0:
320,192,287237,1,0,0:0:0:0:
448,192,287351,1,0,0:0:0:0:
64,192,287351,1,0,0:0:0:0:
192,192,287351,1,0,0:0:0:0:
320,192,287464,1,0,0:0:0:0:
448,192,287464,1,0,0:0:0:0:
64,192,287464,1,0,0:0:0:0:
192,192,287577,1,0,0:0:0:0:
320,192,287577,1,0,0:0:0:0:
448,192,287577,1,0,0:0:0:0:
320,192,287690,1,0,0:0:0:0:
64,192,287690,1,0,0:0:0:0:
192,192,287690,1,0,0:0:0:0:
448,192,287803,128,0,287860:0:0:0:0:
320,192,287803,128,0,287860:0:0:0:0:
64,192,287917,128,0,287973:0:0:0:0:
192,192,287917,128,0,287973:0:0:0:0:
192,192,288030,1,0,0:0:0:0:
64,192,288030,1,0,0:0:0:0:
448,192,288030,1,0,0:0:0:0:
192,192,288143,1,0,0:0:0:0:
64,192,288143,1,0,0:0:0:0:
320,192,288143,1,0,0:0:0:0:
192,192,288256,1,0,0:0:0:0:
448,192,288256,1,0,0:0:0:0:
320,192,288256,1,0,0:0:0:0:
64,192,288369,1,0,0:0:0:0:
448,192,288369,1,0,0:0:0:0:
320,192,288369,1,0,0:0:0:0:
64,192,288483,1,0,0:0:0:0:
192,192,288483,1,0,0:0:0:0:
448,192,288483,1,0,0:0:0:0:
192,192,288596,1,0,0:0:0:0:
320,192,288596,1,0,0:0:0:0:
64,192,288596,1,0,0:0:0:0:
448,192,288709,1,0,0:0:0:0:
192,192,288747,1,0,0:0:0:0:
64,192,288785,1,0,0:0:0:0:
448,192,288822,1,0,0:0:0:0:
320,192,288860,1,0,0:0:0:0:
192,192,288898,1,0,0:0:0:0:
64,192,288936,1,0,0:0:0:0:
448,192,288936,1,0,0:0:0:0:
64,192,289049,1,0,0:0:0:0:
192,192,289049,1,0,0:0:0:0:
320,192,289049,1,0,0:0:0:0:
320,192,289162,1,0,0:0:0:0:
448,192,289162,1,0,0:0:0:0:
192,192,289162,1,0,0:0:0:0:
64,192,289275,1,0,0:0:0:0:
320,192,289275,1,0,0:0:0:0:
448,192,289275,1,0,0:0:0:0:
64,192,289388,1,0,0:0:0:0:
192,192,289388,1,0,0:0:0:0:
448,192,289388,1,0,0:0:0:0:
64,192,289502,1,0,0:0:0:0:
192,192,289502,1,0,0:0:0:0:
320,192,289502,1,0,0:0:0:0:
320,192,289615,128,0,289785:0:0:0:0:
192,192,289615,128,0,289671:0:0:0:0:
448,192,289615,128,0,289728:0:0:0:0:
448,192,289841,1,0,0:0:0:0:
320,192,289841,1,0,0:0:0:0:
192,192,289841,1,0,0:0:0:0:
64,192,289841,1,0,0:0:0:0:
448,192,289954,1,0,0:0:0:0:
192,192,289954,1,0,0:0:0:0:
64,192,290068,1,0,0:0:0:0:
192,192,290096,1,0,0:0:0:0:
320,192,290124,1,0,0:0:0:0:
448,192,290152,1,0,0:0:0:0:
64,192,290181,1,0,0:0:0:0:
448,192,290294,1,0,0:0:0:0:
64,192,290294,1,0,0:0:0:0:
192,192,290294,1,0,0:0:0:0:
320,192,290351,1,0,0:0:0:0:
192,192,290407,1,0,0:0:0:0:
64,192,290464,1,0,0:0:0:0:
448,192,290520,1,0,0:0:0:0:
320,192,290520,1,0,0:0:0:0:
192,192,290520,1,0,0:0:0:0:
320,192,290634,1,0,0:0:0:0:
448,192,290634,1,0,0:0:0:0:
64,192,290747,1,0,0:0:0:0:
192,192,290747,1,0,0:0:0:0:
320,192,290803,1,0,0:0:0:0:
448,192,290860,1,0,0:0:0:0:
192,192,290860,1,0,0:0:0:0:
64,192,290917,1,0,0:0:0:0:
320,192,290973,1,0,0:0:0:0:
448,192,290973,1,0,0:0:0:0:
192,192,291030,1,0,0:0:0:0:
64,192,291086,1,0,0:0:0:0:
448,192,291086,1,0,0:0:0:0:
320,192,291143,1,0,0:0:0:0:
192,192,291200,1,0,0:0:0:0:
64,192,291200,1,0,0:0:0:0:
448,192,291256,1,0,0:0:0:0:
64,192,291313,1,0,0:0:0:0:
320,192,291313,1,0,0:0:0:0:
192,192,291369,1,0,0:0:0:0:
448,192,291426,1,0,0:0:0:0:
320,192,291426,1,0,0:0:0:0:
64,192,291483,1,0,0:0:0:0:
192,192,291539,1,0,0:0:0:0:
320,192,291539,1,0,0:0:0:0:
448,192,291596,1,0,0:0:0:0:
192,192,291652,1,0,0:0:0:0:
64,192,291652,1,0,0:0:0:0:
320,192,291709,1,0,0:0:0:0:
448,192,291766,1,0,0:0:0:0:
192,192,291766,1,0,0:0:0:0:
64,192,291822,1,0,0:0:0:0:
448,192,291879,1,0,0:0:0:0:
320,192,291879,1,0,0:0:0:0:
192,192,291936,1,0,0:0:0:0:
64,192,291992,1,0,0:0:0:0:
448,192,291992,1,0,0:0:0:0:
320,192,292049,1,0,0:0:0:0:
192,192,292105,1,0,0:0:0:0:
64,192,292105,1,0,0:0:0:0:
448,192,292162,1,0,0:0:0:0:
64,192,292219,1,0,0:0:0:0:
320,192,292219,1,0,0:0:0:0:
192,192,292275,1,0,0:0:0:0:
320,192,292332,1,0,0:0:0:0:
448,192,292332,1,0,0:0:0:0:
192,192,292445,1,0,0:0:0:0:
64,192,292445,1,0,0:0:0:0:
448,192,292558,1,0,0:0:0:0:
320,192,292558,1,0,0:0:0:0:
192,192,292615,1,0,0:0:0:0:
64,192,292671,1,0,0:0:0:0:
320,192,292671,1,0,0:0:0:0:
448,192,292728,1,0,0:0:0:0:
64,192,292785,1,0,0:0:0:0:
192,192,292785,1,0,0:0:0:0:
320,192,292841,1,0,0:0:0:0:
448,192,292898,1,0,0:0:0:0:
64,192,292898,1,0,0:0:0:0:
192,192,292954,1,0,0:0:0:0:
320,192,293011,1,0,0:0:0:0:
448,192,293011,1,0,0:0:0:0:
64,192,293068,1,0,0:0:0:0:
192,192,293124,1,0,0:0:0:0:
448,192,293124,1,0,0:0:0:0:
320,192,293181,1,0,0:0:0:0:
192,192,293237,1,0,0:0:0:0:
64,192,293237,1,0,0:0:0:0:
448,192,293294,1,0,0:0:0:0:
64,192,293351,1,0,0:0:0:0:
320,192,293351,1,0,0:0:0:0:
192,192,293407,1,0,0:0:0:0:
320,192,293464,1,0,0:0:0:0:
448,192,293464,1,0,0:0:0:0:
64,192,293520,1,0,0:0:0:0:
192,192,293577,1,0,0:0:0:0:
448,192,293577,1,0,0:0:0:0:
320,192,293634,1,0,0:0:0:0:
192,192,293690,1,0,0:0:0:0:
64,192,293690,1,0,0:0:0:0:
448,192,293747,1,0,0:0:0:0:
320,192,293803,1,0,0:0:0:0:
192,192,293803,1,0,0:0:0:0:
64,192,293860,1,0,0:0:0:0:
320,192,293917,1,0,0:0:0:0:
448,192,293917,1,0,0:0:0:0:
192,192,293973,1,0,0:0:0:0:
64,192,294030,1,0,0:0:0:0:
320,192,294030,1,0,0:0:0:0:
448,192,294086,1,0,0:0:0:0:
192,192,294143,1,0,0:0:0:0:
64,192,294143,1,0,0:0:0:0:
320,192,294256,1,0,0:0:0:0:
448,192,294256,1,0,0:0:0:0:
64,192,294369,1,0,0:0:0:0:
192,192,294407,1,0,0:0:0:0:
320,192,294445,1,0,0:0:0:0:
64,192,294483,1,0,0:0:0:0:
192,192,294520,1,0,0:0:0:0:
448,192,294558,1,0,0:0:0:0:
64,192,294596,1,0,0:0:0:0:
320,192,294634,1,0,0:0:0:0:
448,192,294671,1,0,0:0:0:0:
192,192,294709,1,0,0:0:0:0:
320,192,294747,1,0,0:0:0:0:
448,192,294785,1,0,0:0:0:0:
64,192,294822,1,0,0:0:0:0:
192,192,294860,1,0,0:0:0:0:
448,192,294898,1,0,0:0:0:0:
320,192,294936,1,0,0:0:0:0:
192,192,294973,1,0,0:0:0:0:
64,192,295011,1,0,0:0:0:0:
320,192,295049,1,0,0:0:0:0:
448,192,295086,1,0,0:0:0:0:
64,192,295124,1,0,0:0:0:0:
192,192,295162,1,0,0:0:0:0:
320,192,295200,1,0,0:0:0:0:
448,192,295237,1,0,0:0:0:0:
64,192,295275,1,0,0:0:0:0:
192,192,295303,1,0,0:0:0:0:
320,192,295332,1,0,0:0:0:0:
448,192,295360,1,0,0:0:0:0:
64,192,295388,1,0,0:0:0:0:
192,192,295417,1,0,0:0:0:0:
320,192,295445,1,0,0:0:0:0:
448,192,295473,1,0,0:0:0:0:
64,192,295502,1,0,0:0:0:0:
192,192,295530,1,0,0:0:0:0:
320,192,295558,1,0,0:0:0:0:
448,192,295586,1,0,0:0:0:0:
64,192,295615,1,0,0:0:0:0:
192,192,295643,1,0,0:0:0:0:
320,192,295671,1,0,0:0:0:0:
448,192,295700,1,0,0:0:0:0:
64,192,295728,1,0,0:0:0:0:
192,192,295756,1,0,0:0:0:0:
320,192,295785,1,0,0:0:0:0:
448,192,295813,1,0,0:0:0:0:
64,192,295841,1,0,0:0:0:0:
192,192,295869,1,0,0:0:0:0:
320,192,295898,1,0,0:0:0:0:
448,192,295926,1,0,0:0:0:0:
64,192,295954,1,0,0:0:0:0:
192,192,295983,1,0,0:0:0:0:
320,192,296011,1,0,0:0:0:0:
448,192,296039,1,0,0:0:0:0:
64,192,296068,1,0,0:0:0:0:
192,192,296096,1,0,0:0:0:0:
320,192,296124,1,0,0:0:0:0:
448,192,296152,1,0,0:0:0:0:
192,192,296181,1,0,0:0:0:0:
64,192,296181,128,0,296379:0:0:0:0:
448,192,296407,128,0,296492:0:0:0:0:
192,192,296407,1,0,0:0:0:0:
320,192,296520,128,0,296605:0:0:0:0:
64,192,296520,1,0,0:0:0:0:
448,192,296577,1,0,0:0:0:0:
192,192,296634,128,0,296719:0:0:0:0:
64,192,296634,1,0,0:0:0:0:
320,192,296747,128,0,296832:0:0:0:0:
448,192,296747,1,0,0:0:0:0:
448,192,296860,128,0,296945:0:0:0:0:
192,192,296860,1,0,0:0:0:0:
64,192,296973,128,0,297171:0:0:0:0:
320,192,296973,1,0,0:0:0:0:
192,192,297200,1,0,0:0:0:0:
448,192,297200,128,0,297285:0:0:0:0:
320,192,297313,128,0,297398:0:0:0:0:
192,192,297426,128,0,297511:0:0:0:0:
448,192,297539,1,0,0:0:0:0:
64,192,297539,128,0,297624:0:0:0:0:
320,192,297596,1,0,0:0:0:0:
192,192,297652,1,0,0:0:0:0:
448,192,297709,1,0,0:0:0:0:
320,192,297766,1,0,0:0:0:0:
64,192,297766,128,0,297851:0:0:0:0:
320,192,297879,128,0,297936:0:0:0:0:
192,192,297992,1,0,0:0:0:0:
320,192,297992,1,0,0:0:0:0:
448,192,297992,1,0,0:0:0:0:
64,192,299690,1,0,0:0:0:0:
192,192,299690,1,0,0:0:0:0:
320,192,299747,1,0,0:0:0:0:
192,192,299803,1,0,0:0:0:0:
64,192,299803,1,0,0:0:0:0:
448,192,299803,1,0,0:0:0:0:
192,192,299917,1,0,0:0:0:0:
64,192,299917,1,0,0:0:0:0:
448,192,300030,1,0,0:0:0:0:
320,192,300030,1,0,0:0:0:0:
192,192,300030,1,0,0:0:0:0:
64,192,300030,1,0,0:0:0:0:
320,192,300143,1,0,0:0:0:0:
448,192,300143,1,0,0:0:0:0:
448,192,300256,1,0,0:0:0:0:
320,192,300256,1,0,0:0:0:0:
192,192,300256,1,0,0:0:0:0:
64,192,300256,1,0,0:0:0:0:
192,192,300369,1,0,0:0:0:0:
64,192,300369,1,0,0:0:0:0:
192,192,300483,1,0,0:0:0:0:
64,192,300483,1,0,0:0:0:0:
320,192,300483,1,0,0:0:0:0:
448,192,300483,1,0,0:0:0:0:
448,192,300596,1,0,0:0:0:0:
320,192,300596,1,0,0:0:0:0:
448,192,300709,1,0,0:0:0:0:
320,192,300709,1,0,0:0:0:0:
192,192,300766,1,0,0:0:0:0:
64,192,300766,1,0,0:0:0:0:
320,192,300822,1,0,0:0:0:0:
448,192,300822,1,0,0:0:0:0:
192,192,300879,1,0,0:0:0:0:
64,192,300879,1,0,0:0:0:0:
320,192,300936,1,0,0:0:0:0:
448,192,300936,1,0,0:0:0:0:
192,192,300992,1,0,0:0:0:0:
64,192,300992,1,0,0:0:0:0:
320,192,301049,1,0,0:0:0:0:
448,192,301049,1,0,0:0:0:0:
192,192,301105,1,0,0:0:0:0:
64,192,301162,128,0,301275:0:0:0:0:
448,192,301162,128,0,301275:0:0:0:0:
192,192,301219,128,0,301332:0:0:0:0:
320,192,301275,128,0,301388:0:0:0:0:
448,192,301332,128,0,301445:0:0:0:0:
64,192,301388,128,0,301502:0:0:0:0:
192,192,301445,128,0,301558:0:0:0:0:
320,192,301502,128,0,301615:0:0:0:0:
448,192,301558,128,0,301615:0:0:0:0:
192,192,301615,1,0,0:0:0:0:
64,192,301615,1,0,0:0:0:0:
192,192,301728,1,0,0:0:0:0:
320,192,301728,1,0,0:0:0:0:
320,192,301841,1,0,0:0:0:0:
448,192,301841,1,0,0:0:0:0:
64,192,301841,1,0,0:0:0:0:
448,192,301954,1,0,0:0:0:0:
192,192,301954,1,0,0:0:0:0:
192,192,302068,1,0,0:0:0:0:
320,192,302068,1,0,0:0:0:0:
64,192,302068,1,0,0:0:0:0:
448,192,302181,1,0,0:0:0:0:
64,192,302181,1,0,0:0:0:0:
64,192,302294,1,0,0:0:0:0:
192,192,302294,1,0,0:0:0:0:
320,192,302294,1,0,0:0:0:0:
320,192,302407,1,0,0:0:0:0:
448,192,302407,1,0,0:0:0:0:
192,192,302464,1,0,0:0:0:0:
448,192,302520,1,0,0:0:0:0:
320,192,302520,1,0,0:0:0:0:
64,192,302520,1,0,0:0:0:0:
320,192,302634,1,0,0:0:0:0:
448,192,302634,1,0,0:0:0:0:
64,192,302747,1,0,0:0:0:0:
448,192,302747,1,0,0:0:0:0:
192,192,302747,1,0,0:0:0:0:
320,192,302803,1,0,0:0:0:0:
192,192,302860,1,0,0:0:0:0:
64,192,302860,1,0,0:0:0:0:
320,192,302917,1,0,0:0:0:0:
192,192,302973,1,0,0:0:0:0:
448,192,302973,1,0,0:0:0:0:
64,192,302973,1,0,0:0:0:0:
448,192,303086,1,0,0:0:0:0:
320,192,303086,1,0,0:0:0:0:
64,192,303200,1,0,0:0:0:0:
192,192,303200,1,0,0:0:0:0:
320,192,303200,1,0,0:0:0:0:
448,192,303313,1,0,0:0:0:0:
64,192,303313,1,0,0:0:0:0:
192,192,303369,1,0,0:0:0:0:
320,192,303426,1,0,0:0:0:0:
448,192,303426,1,0,0:0:0:0:
64,192,303426,1,0,0:0:0:0:
448,192,303539,1,0,0:0:0:0:
320,192,303568,1,0,0:0:0:0:
192,192,303596,1,0,0:0:0:0:
64,192,303624,1,0,0:0:0:0:
320,192,303652,1,0,0:0:0:0:
448,192,303709,1,0,0:0:0:0:
64,192,303766,1,0,0:0:0:0:
192,192,303794,1,0,0:0:0:0:
320,192,303822,1,0,0:0:0:0:
448,192,303851,1,0,0:0:0:0:
64,192,303879,1,0,0:0:0:0:
192,192,303879,1,0,0:0:0:0:
448,192,303992,1,0,0:0:0:0:
320,192,303992,1,0,0:0:0:0:
64,192,304049,1,0,0:0:0:0:
192,192,304105,1,0,0:0:0:0:
320,192,304105,1,0,0:0:0:0:
448,192,304162,1,0,0:0:0:0:
64,192,304219,1,0,0:0:0:0:
192,192,304219,1,0,0:0:0:0:
320,192,304275,1,0,0:0:0:0:
192,192,304332,1,0,0:0:0:0:
448,192,304332,1,0,0:0:0:0:
64,192,304332,1,0,0:0:0:0:
320,192,304445,1,0,0:0:0:0:
448,192,304473,1,0,0:0:0:0:
64,192,304502,1,0,0:0:0:0:
192,192,304530,1,0,0:0:0:0:
320,192,304558,1,0,0:0:0:0:
448,192,304615,1,0,0:0:0:0:
64,192,304671,1,0,0:0:0:0:
192,192,304728,1,0,0:0:0:0:
448,192,304785,1,0,0:0:0:0:
320,192,304813,1,0,0:0:0:0:
192,192,304841,1,0,0:0:0:0:
64,192,304869,1,0,0:0:0:0:
448,192,304898,1,0,0:0:0:0:
320,192,304954,1,0,0:0:0:0:
64,192,305011,1,0,0:0:0:0:
192,192,305039,1,0,0:0:0:0:
320,192,305068,1,0,0:0:0:0:
448,192,305096,1,0,0:0:0:0:
64,192,305124,1,0,0:0:0:0:
192,192,305181,1,0,0:0:0:0:
448,192,305237,1,0,0:0:0:0:
320,192,305237,1,0,0:0:0:0:
64,192,305294,1,0,0:0:0:0:
448,192,305351,1,0,0:0:0:0:
192,192,305407,1,0,0:0:0:0:
64,192,305464,1,0,0:0:0:0:
320,192,305464,1,0,0:0:0:0:
448,192,305520,1,0,0:0:0:0:
192,192,305577,1,0,0:0:0:0:
64,192,305634,1,0,0:0:0:0:
320,192,305690,1,0,0:0:0:0:
448,192,305690,1,0,0:0:0:0:
192,192,305747,1,0,0:0:0:0:
64,192,305803,1,0,0:0:0:0:
320,192,305860,1,0,0:0:0:0:
448,192,305917,1,0,0:0:0:0:
192,192,305917,1,0,0:0:0:0:
64,192,305973,1,0,0:0:0:0:
320,192,306030,1,0,0:0:0:0:
192,192,306086,1,0,0:0:0:0:
64,192,306143,1,0,0:0:0:0:
448,192,306143,1,0,0:0:0:0:
320,192,306200,1,0,0:0:0:0:
192,192,306256,1,0,0:0:0:0:
448,192,306313,1,0,0:0:0:0:
320,192,306369,1,0,0:0:0:0:
64,192,306369,1,0,0:0:0:0:
192,192,306426,1,0,0:0:0:0:
448,192,306483,1,0,0:0:0:0:
320,192,306539,1,0,0:0:0:0:
64,192,306596,1,0,0:0:0:0:
192,192,306596,1,0,0:0:0:0:
448,192,306652,1,0,0:0:0:0:
320,192,306709,1,0,0:0:0:0:
64,192,306766,1,0,0:0:0:0:
448,192,306822,1,0,0:0:0:0:
192,192,306822,1,0,0:0:0:0:
320,192,306879,1,0,0:0:0:0:
192,192,306936,1,0,0:0:0:0:
64,192,306992,1,0,0:0:0:0:
192,192,307049,1,0,0:0:0:0:
320,192,307049,1,0,0:0:0:0:
448,192,307105,1,0,0:0:0:0:
64,192,307162,1,0,0:0:0:0:
320,192,307219,1,0,0:0:0:0:
192,192,307275,1,0,0:0:0:0:
448,192,307275,1,0,0:0:0:0:
64,192,307332,1,0,0:0:0:0:
448,192,307388,1,0,0:0:0:0:
192,192,307445,1,0,0:0:0:0:
448,192,307502,1,0,0:0:0:0:
320,192,307502,1,0,0:0:0:0:
64,192,307558,1,0,0:0:0:0:
192,192,307615,1,0,0:0:0:0:
320,192,307671,1,0,0:0:0:0:
448,192,307728,1,0,0:0:0:0:
192,192,307728,1,0,0:0:0:0:
64,192,307785,1,0,0:0:0:0:
448,192,307841,1,0,0:0:0:0:
320,192,307898,1,0,0:0:0:0:
64,192,307954,1,0,0:0:0:0:
192,192,307954,1,0,0:0:0:0:
448,192,308011,1,0,0:0:0:0:
320,192,308068,1,0,0:0:0:0:
64,192,308124,1,0,0:0:0:0:
320,192,308181,1,0,0:0:0:0:
192,192,308181,1,0,0:0:0:0:
448,192,308237,1,0,0:0:0:0:
64,192,308294,1,0,0:0:0:0:
192,192,308351,1,0,0:0:0:0:
320,192,308407,1,0,0:0:0:0:
448,192,308407,1,0,0:0:0:0:
64,192,308464,1,0,0:0:0:0:
320,192,308520,1,0,0:0:0:0:
448,192,308520,1,0,0:0:0:0:
192,192,308577,1,0,0:0:0:0:
320,192,308634,1,0,0:0:0:0:
448,192,308634,1,0,0:0:0:0:
64,192,308690,1,0,0:0:0:0:
192,192,308747,1,0,0:0:0:0:
448,192,308803,1,0,0:0:0:0:
320,192,308860,1,0,0:0:0:0:
64,192,308860,1,0,0:0:0:0:
192,192,308860,1,0,0:0:0:0:
448,192,308917,1,0,0:0:0:0:
64,192,308973,1,0,0:0:0:0:
192,192,308973,1,0,0:0:0:0:
320,192,309030,1,0,0:0:0:0:
64,192,309086,1,0,0:0:0:0:
192,192,309086,1,0,0:0:0:0:
448,192,309086,1,0,0:0:0:0:
320,192,309200,1,0,0:0:0:0:
448,192,309200,1,0,0:0:0:0:
64,192,309313,1,0,0:0:0:0:
192,192,309313,1,0,0:0:0:0:
320,192,309313,1,0,0:0:0:0:
448,192,309426,1,0,0:0:0:0:
64,192,309426,1,0,0:0:0:0:
192,192,309483,1,0,0:0:0:0:
448,192,309539,1,0,0:0:0:0:
64,192,309539,1,0,0:0:0:0:
320,192,309539,1,0,0:0:0:0:
320,192,309652,1,0,0:0:0:0:
192,192,309652,1,0,0:0:0:0:
448,192,309709,1,0,0:0:0:0:
64,192,309766,1,0,0:0:0:0:
192,192,309794,1,0,0:0:0:0:
320,192,309822,1,0,0:0:0:0:
448,192,309851,1,0,0:0:0:0:
64,192,309879,1,0,0:0:0:0:
192,192,309907,1,0,0:0:0:0:
320,192,309936,1,0,0:0:0:0:
448,192,309964,1,0,0:0:0:0:
64,192,309992,1,0,0:0:0:0:
192,192,310049,1,0,0:0:0:0:
448,192,310105,1,0,0:0:0:0:
320,192,310105,1,0,0:0:0:0:
64,192,310162,1,0,0:0:0:0:
448,192,310219,1,0,0:0:0:0:
192,192,310219,1,0,0:0:0:0:
320,192,310219,1,0,0:0:0:0:
192,192,310332,1,0,0:0:0:0:
64,192,310332,1,0,0:0:0:0:
448,192,310388,1,0,0:0:0:0:
64,192,310445,1,0,0:0:0:0:
320,192,310445,1,0,0:0:0:0:
192,192,310502,1,0,0:0:0:0:
448,192,310558,1,0,0:0:0:0:
320,192,310558,1,0,0:0:0:0:
448,192,310671,1,0,0:0:0:0:
64,192,310671,1,0,0:0:0:0:
192,192,310671,1,0,0:0:0:0:
192,192,310785,1,0,0:0:0:0:
320,192,310785,1,0,0:0:0:0:
448,192,310841,1,0,0:0:0:0:
64,192,310898,1,0,0:0:0:0:
192,192,310926,1,0,0:0:0:0:
320,192,310954,1,0,0:0:0:0:
448,192,310983,1,0,0:0:0:0:
64,192,311011,1,0,0:0:0:0:
192,192,311068,1,0,0:0:0:0:
448,192,311124,1,0,0:0:0:0:
320,192,311124,1,0,0:0:0:0:
64,192,311124,1,0,0:0:0:0:
448,192,311237,1,0,0:0:0:0:
320,192,311266,1,0,0:0:0:0:
192,192,311294,1,0,0:0:0:0:
64,192,311322,1,0,0:0:0:0:
448,192,311351,1,0,0:0:0:0:
320,192,311407,1,0,0:0:0:0:
64,192,311464,1,0,0:0:0:0:
192,192,311492,1,0,0:0:0:0:
320,192,311520,1,0,0:0:0:0:
448,192,311549,1,0,0:0:0:0:
64,192,311577,1,0,0:0:0:0:
192,192,311634,1,0,0:0:0:0:
320,192,311690,1,0,0:0:0:0:
448,192,311690,1,0,0:0:0:0:
64,192,311747,1,0,0:0:0:0:
448,192,311803,1,0,0:0:0:0:
192,192,311803,1,0,0:0:0:0:
320,192,311860,1,0,0:0:0:0:
64,192,311917,1,0,0:0:0:0:
192,192,311917,1,0,0:0:0:0:
320,192,311973,1,0,0:0:0:0:
448,192,312030,128,0,312143:0:0:0:0:
64,192,312030,128,0,312143:0:0:0:0:
192,192,312030,128,0,312143:0:0:0:0:
192,192,312200,128,0,312313:0:0:0:0:
448,192,312200,128,0,312313:0:0:0:0:
320,192,312200,128,0,312313:0:0:0:0:
64,192,312369,128,0,312426:0:0:0:0:
192,192,312369,128,0,312426:0:0:0:0:
320,192,312369,128,0,312426:0:0:0:0:
448,192,312483,1,0,0:0:0:0:
64,192,312483,1,0,0:0:0:0:
192,192,312483,1,0,0:0:0:0:
320,192,312539,1,0,0:0:0:0:
192,192,312596,1,0,0:0:0:0:
64,192,312652,1,0,0:0:0:0:
448,192,312709,1,0,0:0:0:0:
320,192,312709,1,0,0:0:0:0:
192,192,312766,1,0,0:0:0:0:
64,192,312822,1,0,0:0:0:0:
448,192,312879,1,0,0:0:0:0:
320,192,312936,1,0,0:0:0:0:
64,192,312936,1,0,0:0:0:0:
192,192,312992,1,0,0:0:0:0:
320,192,313049,1,0,0:0:0:0:
448,192,313105,1,0,0:0:0:0:
192,192,313162,1,0,0:0:0:0:
64,192,313162,1,0,0:0:0:0:
320,192,313219,1,0,0:0:0:0:
448,192,313275,1,0,0:0:0:0:
192,192,313332,1,0,0:0:0:0:
448,192,313388,1,0,0:0:0:0:
64,192,313388,1,0,0:0:0:0:
320,192,313445,1,0,0:0:0:0:
192,192,313502,1,0,0:0:0:0:
448,192,313558,1,0,0:0:0:0:
64,192,313615,1,0,0:0:0:0:
320,192,313615,1,0,0:0:0:0:
192,192,313671,1,0,0:0:0:0:
448,192,313728,1,0,0:0:0:0:
64,192,313785,1,0,0:0:0:0:
192,192,313841,1,0,0:0:0:0:
320,192,313841,1,0,0:0:0:0:
448,192,313898,1,0,0:0:0:0:
64,192,313954,1,0,0:0:0:0:
320,192,314011,1,0,0:0:0:0:
64,192,314068,1,0,0:0:0:0:
192,192,314068,1,0,0:0:0:0:
448,192,314124,1,0,0:0:0:0:
320,192,314181,1,0,0:0:0:0:
192,192,314237,1,0,0:0:0:0:
448,192,314294,1,0,0:0:0:0:
64,192,314294,1,0,0:0:0:0:
320,192,314351,1,0,0:0:0:0:
192,192,314407,1,0,0:0:0:0:
64,192,314464,1,0,0:0:0:0:
448,192,314520,1,0,0:0:0:0:
192,192,314577,1,0,0:0:0:0:
64,192,314634,1,0,0:0:0:0:
448,192,314634,1,0,0:0:0:0:
320,192,314690,1,0,0:0:0:0:
192,192,314747,1,0,0:0:0:0:
448,192,314803,1,0,0:0:0:0:
64,192,314860,1,0,0:0:0:0:
192,192,314917,1,0,0:0:0:0:
320,192,314973,1,0,0:0:0:0:
448,192,315030,1,0,0:0:0:0:
64,192,315086,1,0,0:0:0:0:
192,192,315086,1,0,0:0:0:0:
320,192,315124,1,0,0:0:0:0:
448,192,315162,1,0,0:0:0:0:
64,192,315200,1,0,0:0:0:0:
192,192,315237,1,0,0:0:0:0:
320,192,315275,1,0,0:0:0:0:
448,192,315313,1,0,0:0:0:0:
64,192,315351,1,0,0:0:0:0:
192,192,315388,1,0,0:0:0:0:
320,192,315426,1,0,0:0:0:0:
448,192,315464,1,0,0:0:0:0:
192,192,315502,1,0,0:0:0:0:
64,192,315539,1,0,0:0:0:0:
448,192,315577,1,0,0:0:0:0:
320,192,315615,1,0,0:0:0:0:
192,192,315652,1,0,0:0:0:0:
64,192,315690,1,0,0:0:0:0:
448,192,315728,1,0,0:0:0:0:
320,192,315766,1,0,0:0:0:0:
192,192,315803,1,0,0:0:0:0:
64,192,315841,1,0,0:0:0:0:
448,192,315879,128,0,315936:0:0:0:0:
320,192,315936,128,0,315992:0:0:0:0:
64,192,315992,128,0,316049:0:0:0:0:
192,192,316049,128,0,316105:0:0:0:0:
320,192,316105,1,0,0:0:0:0:
448,192,316105,1,0,0:0:0:0:
64,192,316105,1,0,0:0:0:0:
192,192,316162,1,0,0:0:0:0:
448,192,316219,1,0,0:0:0:0:
320,192,316275,1,0,0:0:0:0:
192,192,316332,1,0,0:0:0:0:
64,192,316332,1,0,0:0:0:0:
448,192,316388,1,0,0:0:0:0:
192,192,316445,1,0,0:0:0:0:
320,192,316502,1,0,0:0:0:0:
448,192,316558,1,0,0:0:0:0:
64,192,316558,1,0,0:0:0:0:
192,192,316615,1,0,0:0:0:0:
64,192,316671,1,0,0:0:0:0:
320,192,316728,1,0,0:0:0:0:
448,192,316785,1,0,0:0:0:0:
192,192,316785,1,0,0:0:0:0:
64,192,316841,1,0,0:0:0:0:
448,192,316898,1,0,0:0:0:0:
320,192,316954,1,0,0:0:0:0:
64,192,317011,1,0,0:0:0:0:
192,192,317011,1,0,0:0:0:0:
448,192,317068,1,0,0:0:0:0:
64,192,317124,1,0,0:0:0:0:
192,192,317181,1,0,0:0:0:0:
448,192,317237,1,0,0:0:0:0:
320,192,317237,1,0,0:0:0:0:
64,192,317294,1,0,0:0:0:0:
192,192,317351,1,0,0:0:0:0:
448,192,317407,1,0,0:0:0:0:
64,192,317464,1,0,0:0:0:0:
320,192,317464,1,0,0:0:0:0:
192,192,317520,1,0,0:0:0:0:
320,192,317577,1,0,0:0:0:0:
448,192,317634,1,0,0:0:0:0:
64,192,317690,1,0,0:0:0:0:
192,192,317690,1,0,0:0:0:0:
448,192,317747,1,0,0:0:0:0:
320,192,317803,1,0,0:0:0:0:
192,192,317860,1,0,0:0:0:0:
448,192,317917,1,0,0:0:0:0:
64,192,317917,1,0,0:0:0:0:
320,192,317954,1,0,0:0:0:0:
192,192,317992,1,0,0:0:0:0:
448,192,318030,1,0,0:0:0:0:
320,192,318068,1,0,0:0:0:0:
64,192,318105,1,0,0:0:0:0:
192,192,318143,1,0,0:0:0:0:
448,192,318143,1,0,0:0:0:0:
320,192,318200,1,0,0:0:0:0:
64,192,318256,1,0,0:0:0:0:
192,192,318313,1,0,0:0:0:0:
448,192,318369,1,0,0:0:0:0:
320,192,318369,1,0,0:0:0:0:
64,192,318426,1,0,0:0:0:0:
448,192,318483,1,0,0:0:0:0:
320,192,318539,1,0,0:0:0:0:
64,192,318596,1,0,0:0:0:0:
192,192,318596,1,0,0:0:0:0:
448,192,318652,1,0,0:0:0:0:
320,192,318709,1,0,0:0:0:0:
64,192,318766,1,0,0:0:0:0:
192,192,318822,1,0,0:0:0:0:
448,192,318822,1,0,0:0:0:0:
64,192,318879,1,0,0:0:0:0:
320,192,318936,1,0,0:0:0:0:
192,192,318992,1,0,0:0:0:0:
64,192,319049,1,0,0:0:0:0:
448,192,319049,1,0,0:0:0:0:
320,192,319105,1,0,0:0:0:0:
448,192,319162,1,0,0:0:0:0:
64,192,319219,1,0,0:0:0:0:
192,192,319275,1,0,0:0:0:0:
320,192,319275,1,0,0:0:0:0:
448,192,319332,1,0,0:0:0:0:
64,192,319388,1,0,0:0:0:0:
192,192,319426,1,0,0:0:0:0:
320,192,319464,1,0,0:0:0:0:
448,192,319502,1,0,0:0:0:0:
64,192,319502,1,0,0:0:0:0:
192,192,319558,1,0,0:0:0:0:
448,192,319615,1,0,0:0:0:0:
320,192,319652,1,0,0:0:0:0:
192,192,319690,1,0,0:0:0:0:
448,192,319728,1,0,0:0:0:0:
64,192,319728,1,0,0:0:0:0:
320,192,319785,1,0,0:0:0:0:
64,192,319841,1,0,0:0:0:0:
192,192,319879,1,0,0:0:0:0:
448,192,319917,1,0,0:0:0:0:
64,192,319954,1,0,0:0:0:0:
320,192,319954,1,0,0:0:0:0:
192,192,320011,1,0,0:0:0:0:
448,192,320068,1,0,0:0:0:0:
320,192,320124,1,0,0:0:0:0:
64,192,320181,1,0,0:0:0:0:
192,192,320181,1,0,0:0:0:0:
448,192,320219,1,0,0:0:0:0:
320,192,320256,1,0,0:0:0:0:
64,192,320294,1,0,0:0:0:0:
192,192,320351,1,0,0:0:0:0:
320,192,320407,1,0,0:0:0:0:
448,192,320407,1,0,0:0:0:0:
64,192,320445,1,0,0:0:0:0:
192,192,320483,1,0,0:0:0:0:
320,192,320520,1,0,0:0:0:0:
448,192,320577,1,0,0:0:0:0:
64,192,320634,1,0,0:0:0:0:
192,192,320634,1,0,0:0:0:0:
320,192,320690,1,0,0:0:0:0:
448,192,320747,1,0,0:0:0:0:
192,192,320803,1,0,0:0:0:0:
448,192,320860,1,0,0:0:0:0:
320,192,320860,1,0,0:0:0:0:
64,192,320917,1,0,0:0:0:0:
192,192,320973,1,0,0:0:0:0:
448,192,321030,1,0,0:0:0:0:
320,192,321086,1,0,0:0:0:0:
64,192,321086,1,0,0:0:0:0:
192,192,321143,1,0,0:0:0:0:
64,192,321200,1,0,0:0:0:0:
448,192,321256,1,0,0:0:0:0:
320,192,321313,1,0,0:0:0:0:
192,192,321313,1,0,0:0:0:0:
448,192,321369,1,0,0:0:0:0:
64,192,321426,1,0,0:0:0:0:
320,192,321483,1,0,0:0:0:0:
64,192,321539,1,0,0:0:0:0:
448,192,321539,1,0,0:0:0:0:
192,192,321577,1,0,0:0:0:0:
320,192,321615,1,0,0:0:0:0:
448,192,321652,1,0,0:0:0:0:
64,192,321690,1,0,0:0:0:0:
192,192,321728,1,0,0:0:0:0:
320,192,321766,1,0,0:0:0:0:
448,192,321766,1,0,0:0:0:0:
64,192,321822,1,0,0:0:0:0:
192,192,321879,1,0,0:0:0:0:
320,192,321879,1,0,0:0:0:0:
448,192,321936,1,0,0:0:0:0:
64,192,321992,1,0,0:0:0:0:
192,192,322049,1,0,0:0:0:0:
448,192,322105,1,0,0:0:0:0:
320,192,322105,1,0,0:0:0:0:
64,192,322162,1,0,0:0:0:0:
192,192,322219,1,0,0:0:0:0:
448,192,322275,1,0,0:0:0:0:
320,192,322332,1,0,0:0:0:0:
192,192,322332,1,0,0:0:0:0:
64,192,322388,1,0,0:0:0:0:
448,192,322445,1,0,0:0:0:0:
320,192,322483,1,0,0:0:0:0:
192,192,322520,1,0,0:0:0:0:
64,192,322558,1,0,0:0:0:0:
448,192,322558,1,0,0:0:0:0:
320,192,322615,1,0,0:0:0:0:
64,192,322671,1,0,0:0:0:0:
192,192,322671,1,0,0:0:0:0:
448,192,322728,1,0,0:0:0:0:
192,192,322785,1,0,0:0:0:0:
320,192,322785,1,0,0:0:0:0:
64,192,322841,1,0,0:0:0:0:
448,192,322841,1,0,0:0:0:0:
192,192,322898,1,0,0:0:0:0:
320,192,322898,1,0,0:0:0:0:
64,192,322954,1,0,0:0:0:0:
320,192,323011,1,0,0:0:0:0:
448,192,323011,1,0,0:0:0:0:
192,192,323068,1,0,0:0:0:0:
64,192,323124,1,0,0:0:0:0:
448,192,323124,1,0,0:0:0:0:
320,192,323181,1,0,0:0:0:0:
64,192,323237,1,0,0:0:0:0:
192,192,323294,1,0,0:0:0:0:
320,192,323351,1,0,0:0:0:0:
448,192,323351,1,0,0:0:0:0:
64,192,323407,1,0,0:0:0:0:
192,192,323464,1,0,0:0:0:0:
448,192,323520,1,0,0:0:0:0:
320,192,323577,1,0,0:0:0:0:
64,192,323577,1,0,0:0:0:0:
192,192,323634,1,0,0:0:0:0:
448,192,323690,1,0,0:0:0:0:
320,192,323747,1,0,0:0:0:0:
192,192,323803,1,0,0:0:0:0:
64,192,323803,1,0,0:0:0:0:
448,192,323860,1,0,0:0:0:0:
320,192,323917,1,0,0:0:0:0:
64,192,323973,1,0,0:0:0:0:
192,192,324030,1,0,0:0:0:0:
448,192,324030,1,0,0:0:0:0:
320,192,324086,1,0,0:0:0:0:
64,192,324143,1,0,0:0:0:0:
192,192,324200,1,0,0:0:0:0:
448,192,324256,1,0,0:0:0:0:
320,192,324256,1,0,0:0:0:0:
64,192,324313,1,0,0:0:0:0:
192,192,324369,1,0,0:0:0:0:
448,192,324426,1,0,0:0:0:0:
320,192,324483,1,0,0:0:0:0:
64,192,324483,1,0,0:0:0:0:
192,192,324539,1,0,0:0:0:0:
64,192,324596,1,0,0:0:0:0:
448,192,324652,1,0,0:0:0:0:
320,192,324709,1,0,0:0:0:0:
192,192,324709,1,0,0:0:0:0:
64,192,324766,1,0,0:0:0:0:
448,192,324822,1,0,0:0:0:0:
320,192,324860,1,0,0:0:0:0:
64,192,324898,1,0,0:0:0:0:
448,192,324936,1,0,0:0:0:0:
192,192,324936,1,0,0:0:0:0:
320,192,324992,1,0,0:0:0:0:
64,192,325049,1,0,0:0:0:0:
192,192,325105,1,0,0:0:0:0:
320,192,325162,1,0,0:0:0:0:
448,192,325200,1,0,0:0:0:0:
64,192,325237,1,0,0:0:0:0:
192,192,325275,1,0,0:0:0:0:
320,192,325313,1,0,0:0:0:0:
64,192,325351,1,0,0:0:0:0:
448,192,325388,1,0,0:0:0:0:
192,192,325388,1,0,0:0:0:0:
320,192,325445,1,0,0:0:0:0:
64,192,325502,1,0,0:0:0:0:
448,192,325558,1,0,0:0:0:0:
192,192,325615,1,0,0:0:0:0:
320,192,325615,1,0,0:0:0:0:
64,192,325671,1,0,0:0:0:0:
320,192,325728,1,0,0:0:0:0:
448,192,325785,1,0,0:0:0:0:
192,192,325841,1,0,0:0:0:0:
64,192,325841,1,0,0:0:0:0:
448,192,325898,1,0,0:0:0:0:
320,192,325954,1,0,0:0:0:0:
192,192,326011,1,0,0:0:0:0:
64,192,326068,1,0,0:0:0:0:
320,192,326068,1,0,0:0:0:0:
448,192,326068,1,0,0:0:0:0:
192,192,326143,1,0,0:0:0:0:
320,192,326219,1,0,0:0:0:0:
192,192,326294,1,0,0:0:0:0:
64,192,326294,1,0,0:0:0:0:
448,192,326294,1,0,0:0:0:0:
320,192,326369,1,0,0:0:0:0:
64,192,326445,1,0,0:0:0:0:
320,192,326520,1,0,0:0:0:0:
448,192,326520,1,0,0:0:0:0:
192,192,326520,1,0,0:0:0:0:
64,192,326596,1,0,0:0:0:0:
448,192,326671,1,0,0:0:0:0:
192,192,326747,1,0,0:0:0:0:
64,192,326747,1,0,0:0:0:0:
320,192,326747,1,0,0:0:0:0:
448,192,326822,1,0,0:0:0:0:
64,192,326898,1,0,0:0:0:0:
448,192,326973,1,0,0:0:0:0:
320,192,326973,1,0,0:0:0:0:
192,192,326973,1,0,0:0:0:0:
320,192,327086,1,0,0:0:0:0:
448,192,327086,1,0,0:0:0:0:
192,192,327200,1,0,0:0:0:0:
64,192,327200,1,0,0:0:0:0:
448,192,327200,1,0,0:0:0:0:
64,192,327313,1,0,0:0:0:0:
320,192,327313,1,0,0:0:0:0:
192,192,327426,1,0,0:0:0:0:
320,192,327426,1,0,0:0:0:0:
448,192,327426,1,0,0:0:0:0:
192,192,327539,1,0,0:0:0:0:
64,192,327539,1,0,0:0:0:0:
448,192,327652,1,0,0:0:0:0:
320,192,327652,1,0,0:0:0:0:
192,192,327709,1,0,0:0:0:0:
64,192,327709,1,0,0:0:0:0:
320,192,327766,1,0,0:0:0:0:
448,192,327766,1,0,0:0:0:0:
192,192,327822,1,0,0:0:0:0:
320,192,327879,1,0,0:0:0:0:
448,192,327879,1,0,0:0:0:0:
64,192,327879,1,0,0:0:0:0:
192,192,327992,1,0,0:0:0:0:
64,192,327992,1,0,0:0:0:0:
64,192,328105,1,0,0:0:0:0:
192,192,328105,1,0,0:0:0:0:
448,192,328105,1,0,0:0:0:0:
320,192,328219,1,0,0:0:0:0:
448,192,328219,1,0,0:0:0:0:
192,192,328332,1,0,0:0:0:0:
64,192,328332,1,0,0:0:0:0:
320,192,328332,1,0,0:0:0:0:
320,192,328445,1,0,0:0:0:0:
448,192,328445,1,0,0:0:0:0:
192,192,328558,1,0,0:0:0:0:
64,192,328558,1,0,0:0:0:0:
320,192,328615,1,0,0:0:0:0:
448,192,328615,1,0,0:0:0:0:
64,192,328671,1,0,0:0:0:0:
192,192,328671,1,0,0:0:0:0:
320,192,328728,1,0,0:0:0:0:
64,192,328785,1,0,0:0:0:0:
192,192,328785,1,0,0:0:0:0:
448,192,328785,1,0,0:0:0:0:
320,192,328841,1,0,0:0:0:0:
448,192,328898,1,0,0:0:0:0:
64,192,328954,1,0,0:0:0:0:
192,192,329011,1,0,0:0:0:0:
320,192,329068,1,0,0:0:0:0:
192,192,329124,1,0,0:0:0:0:
64,192,329124,1,0,0:0:0:0:
448,192,329124,1,0,0:0:0:0:
320,192,329181,1,0,0:0:0:0:
64,192,329237,1,0,0:0:0:0:
192,192,329294,1,0,0:0:0:0:
448,192,329351,1,0,0:0:0:0:
320,192,329407,1,0,0:0:0:0:
192,192,329464,1,0,0:0:0:0:
64,192,329520,1,0,0:0:0:0:
320,192,329577,1,0,0:0:0:0:
448,192,329577,1,0,0:0:0:0:
192,192,329615,1,0,0:0:0:0:
64,192,329652,1,0,0:0:0:0:
448,192,329690,1,0,0:0:0:0:
320,192,329728,1,0,0:0:0:0:
192,192,329766,1,0,0:0:0:0:
64,192,329803,1,0,0:0:0:0:
448,192,329841,1,0,0:0:0:0:
320,192,329879,1,0,0:0:0:0:
192,192,329917,1,0,0:0:0:0:
64,192,329954,1,0,0:0:0:0:
320,192,329992,1,0,0:0:0:0:
448,192,330030,1,0,0:0:0:0:
64,192,330068,1,0,0:0:0:0:
192,192,330105,1,0,0:0:0:0:
320,192,330143,1,0,0:0:0:0:
448,192,330181,1,0,0:0:0:0:
64,192,330219,1,0,0:0:0:0:
192,192,330256,1,0,0:0:0:0:
320,192,330294,1,0,0:0:0:0:
448,192,330332,1,0,0:0:0:0:
64,192,330369,128,0,330426:0:0:0:0:
192,192,330426,128,0,330483:0:0:0:0:
320,192,330483,128,0,330539:0:0:0:0:
448,192,330539,128,0,330596:0:0:0:0:
64,192,330596,128,0,330709:0:0:0:0:
192,192,330596,128,0,330766:0:0:0:0:
64,192,330808,1,0,0:0:0:0:
192,192,330822,1,0,0:0:0:0:
320,192,330822,1,0,0:0:0:0:
448,192,330921,1,0,0:0:0:0:
320,192,330936,1,0,0:0:0:0:
192,192,331035,1,0,0:0:0:0:
320,192,331049,1,0,0:0:0:0:
64,192,331148,1,0,0:0:0:0:
192,192,331162,1,0,0:0:0:0:
448,192,331261,1,0,0:0:0:0:
64,192,331275,1,0,0:0:0:0:
320,192,331374,1,0,0:0:0:0:
448,192,331388,1,0,0:0:0:0:
64,192,331487,1,0,0:0:0:0:
192,192,331502,1,0,0:0:0:0:
448,192,331544,1,0,0:0:0:0:
320,192,331558,1,0,0:0:0:0:
64,192,331601,1,0,0:0:0:0:
192,192,331615,1,0,0:0:0:0:
320,192,331671,1,0,0:0:0:0:
192,192,331714,1,0,0:0:0:0:
64,192,331728,1,0,0:0:0:0:
448,192,331728,1,0,0:0:0:0:
192,192,331827,1,0,0:0:0:0:
64,192,331841,1,0,0:0:0:0:
448,192,331940,1,0,0:0:0:0:
320,192,331954,1,0,0:0:0:0:
64,192,331997,1,0,0:0:0:0:
192,192,332011,1,0,0:0:0:0:
448,192,332053,1,0,0:0:0:0:
320,192,332068,1,0,0:0:0:0:
192,192,332124,1,0,0:0:0:0:
320,192,332167,1,0,0:0:0:0:
448,192,332181,1,0,0:0:0:0:
64,192,332181,1,0,0:0:0:0:
192,192,332294,1,0,0:0:0:0:
192,192,332407,128,0,332634:0:0:0:0:
448,192,332407,128,0,332520:0:0:0:0:
64,192,332407,128,0,332577:0:0:0:0:
320,192,332407,128,0,332520:0:0:0:0:
448,192,332619,1,0,0:0:0:0:
320,192,332634,1,0,0:0:0:0:
64,192,332733,1,0,0:0:0:0:
192,192,332747,1,0,0:0:0:0:
448,192,332860,1,0,0:0:0:0:
320,192,332917,1,0,0:0:0:0:
192,192,332973,1,0,0:0:0:0:
64,192,333030,1,0,0:0:0:0:
448,192,333086,1,0,0:0:0:0:
320,192,333124,1,0,0:0:0:0:
192,192,333162,1,0,0:0:0:0:
64,192,333200,1,0,0:0:0:0:
448,192,333237,1,0,0:0:0:0:
320,192,333275,1,0,0:0:0:0:
64,192,333313,1,0,0:0:0:0:
192,192,333369,1,0,0:0:0:0:
320,192,333426,1,0,0:0:0:0:
448,192,333483,1,0,0:0:0:0:
64,192,333539,1,0,0:0:0:0:
192,192,333577,1,0,0:0:0:0:
448,192,333615,1,0,0:0:0:0:
320,192,333652,1,0,0:0:0:0:
192,192,333690,1,0,0:0:0:0:
64,192,333728,1,0,0:0:0:0:
448,192,333766,1,0,0:0:0:0:
320,192,333822,1,0,0:0:0:0:
64,192,333879,1,0,0:0:0:0:
448,192,333936,1,0,0:0:0:0:
320,192,333992,1,0,0:0:0:0:
192,192,334030,1,0,0:0:0:0:
64,192,334068,1,0,0:0:0:0:
448,192,334105,1,0,0:0:0:0:
320,192,334143,1,0,0:0:0:0:
192,192,334181,1,0,0:0:0:0:
64,192,334219,128,0,334388:0:0:0:0:
448,192,334219,128,0,334445:0:0:0:0:
192,192,334445,1,0,0:0:0:0:
64,192,334445,1,0,0:0:0:0:
448,192,334502,1,0,0:0:0:0:
192,192,334558,1,0,0:0:0:0:
320,192,334615,1,0,0:0:0:0:
64,192,334671,1,0,0:0:0:0:
448,192,334671,1,0,0:0:0:0:
192,192,334728,1,0,0:0:0:0:
448,192,334785,1,0,0:0:0:0:
320,192,334841,1,0,0:0:0:0:
192,192,334898,1,0,0:0:0:0:
64,192,334898,1,0,0:0:0:0:
448,192,334954,1,0,0:0:0:0:
320,192,334954,1,0,0:0:0:0:
192,192,335011,1,0,0:0:0:0:
64,192,335011,1,0,0:0:0:0:
320,192,335068,1,0,0:0:0:0:
192,192,335124,1,0,0:0:0:0:
64,192,335124,1,0,0:0:0:0:
448,192,335124,1,0,0:0:0:0:
448,192,335237,1,0,0:0:0:0:
320,192,335237,1,0,0:0:0:0:
192,192,335294,1,0,0:0:0:0:
64,192,335351,1,0,0:0:0:0:
320,192,335351,1,0,0:0:0:0:
448,192,335351,1,0,0:0:0:0:
192,192,335464,1,0,0:0:0:0:
64,192,335464,1,0,0:0:0:0:
448,192,335577,1,0,0:0:0:0:
320,192,335577,1,0,0:0:0:0:
192,192,335634,1,0,0:0:0:0:
64,192,335634,1,0,0:0:0:0:
320,192,335690,1,0,0:0:0:0:
448,192,335690,1,0,0:0:0:0:
64,192,335747,1,0,0:0:0:0:
192,192,335747,1,0,0:0:0:0:
320,192,335803,1,0,0:0:0:0:
448,192,335803,1,0,0:0:0:0:
192,192,335860,1,0,0:0:0:0:
64,192,335860,1,0,0:0:0:0:
320,192,335917,1,0,0:0:0:0:
448,192,335917,1,0,0:0:0:0:
64,192,335973,1,0,0:0:0:0:
192,192,335973,1,0,0:0:0:0:
320,192,336030,1,0,0:0:0:0:
448,192,336030,128,0,336228:0:0:0:0:
320,192,336256,1,0,0:0:0:0:
64,192,336256,128,0,336341:0:0:0:0:
192,192,336369,128,0,336454:0:0:0:0:
320,192,336483,128,0,336568:0:0:0:0:
448,192,336596,1,0,0:0:0:0:
192,192,336596,128,0,336681:0:0:0:0:
64,192,336709,128,0,336794:0:0:0:0:
320,192,336822,1,0,0:0:0:0:
448,192,336822,128,0,337020:0:0:0:0:
192,192,336936,128,0,337020:0:0:0:0:
320,192,337049,1,0,0:0:0:0:
64,192,337049,128,0,337134:0:0:0:0:
192,192,337162,128,0,337247:0:0:0:0:
320,192,337275,128,0,337360:0:0:0:0:
64,192,337388,1,0,0:0:0:0:
448,192,337388,128,0,337473:0:0:0:0:
192,192,337445,1,0,0:0:0:0:
320,192,337502,1,0,0:0:0:0:
64,192,337558,1,0,0:0:0:0:
448,192,337615,128,0,337728:0:0:0:0:
192,192,337615,1,0,0:0:0:0:
192,192,337728,128,0,337785:0:0:0:0:
448,192,337841,1,0,0:0:0:0:
64,192,337841,1,0,0:0:0:0:
320,192,337898,1,0,0:0:0:0:
192,192,337954,1,0,0:0:0:0:
64,192,338011,1,0,0:0:0:0:
320,192,338068,1,0,0:0:0:0:
192,192,338124,1,0,0:0:0:0:
64,192,338181,1,0,0:0:0:0:
448,192,338181,1,0,0:0:0:0:
320,192,338181,1,0,0:0:0:0:
192,192,338294,1,0,0:0:0:0:
64,192,338407,1,0,0:0:0:0:
448,192,338407,1,0,0:0:0:0:
192,192,338520,1,0,0:0:0:0:
64,192,338520,1,0,0:0:0:0:
320,192,338520,1,0,0:0:0:0:
320,192,338634,1,0,0:0:0:0:
448,192,338634,1,0,0:0:0:0:
192,192,338690,1,0,0:0:0:0:
64,192,338747,1,0,0:0:0:0:
448,192,338747,1,0,0:0:0:0:
320,192,338803,1,0,0:0:0:0:
192,192,338860,1,0,0:0:0:0:
64,192,338917,1,0,0:0:0:0:
448,192,338973,1,0,0:0:0:0:
320,192,339030,1,0,0:0:0:0:
64,192,339086,1,0,0:0:0:0:
192,192,339086,1,0,0:0:0:0:
448,192,339086,1,0,0:0:0:0:
448,192,339200,1,0,0:0:0:0:
64,192,339313,1,0,0:0:0:0:
192,192,339313,1,0,0:0:0:0:
320,192,339426,1,0,0:0:0:0:
448,192,339426,1,0,0:0:0:0:
64,192,339483,1,0,0:0:0:0:
192,192,339483,1,0,0:0:0:0:
320,192,339539,1,0,0:0:0:0:
448,192,339539,1,0,0:0:0:0:
192,192,339596,1,0,0:0:0:0:
320,192,339652,1,0,0:0:0:0:
448,192,339652,1,0,0:0:0:0:
64,192,339709,1,0,0:0:0:0:
192,192,339766,1,0,0:0:0:0:
448,192,339822,1,0,0:0:0:0:
320,192,339879,1,0,0:0:0:0:
192,192,339936,1,0,0:0:0:0:
64,192,339992,1,0,0:0:0:0:
320,192,339992,1,0,0:0:0:0:
448,192,339992,1,0,0:0:0:0:
192,192,340049,1,0,0:0:0:0:
448,192,340105,1,0,0:0:0:0:
320,192,340162,1,0,0:0:0:0:
64,192,340219,1,0,0:0:0:0:
192,192,340275,1,0,0:0:0:0:
448,192,340332,1,0,0:0:0:0:
320,192,340332,1,0,0:0:0:0:
320,192,340445,128,0,342652:0:0:0:0:
64,192,340445,128,0,342785:0:0:0:0:
192,192,340445,128,0,342709:0:0:0:0:
448,192,340445,128,0,342766:0:0:0:0:
320,192,342766,1,0,0:0:0:0:
192,192,342822,1,0,0:0:0:0:
64,192,342879,1,0,0:0:0:0:
320,192,342936,1,0,0:0:0:0:
448,192,342936,1,0,0:0:0:0:
192,192,342992,1,0,0:0:0:0:
64,192,342992,1,0,0:0:0:0:
448,192,343049,1,0,0:0:0:0:
320,192,343049,1,0,0:0:0:0:
64,192,343105,1,0,0:0:0:0:
192,192,343162,1,0,0:0:0:0:
64,192,343275,1,0,0:0:0:0:
448,192,343275,1,0,0:0:0:0:
320,192,343332,1,0,0:0:0:0:
