osu file format v14

[General]
AudioFilename: audio.mp3
AudioLeadIn: 0
PreviewTime: 22604
Countdown: 0
SampleSet: Soft
StackLeniency: 0.7
Mode: 0
LetterboxInBreaks: 0
WidescreenStoryboard: 1

[Editor]
DistanceSpacing: 1.1
BeatDivisor: 4
GridSize: 16
TimelineZoom: 2.5

[Metadata]
Title:Queen
TitleUnicode:Queen
Artist:Toby Fox
ArtistUnicode:Toby Fox
Creator:Urghi
Version:ZETERA'S IN54N3
Source:DELTARUNE
Tags:"radiation" vgm ost original soundtrack video game electronic instrumental serial number chapter 2 cyber world noppleft zetera sala-
BeatmapID:3366499
BeatmapSetID:1620099

[Difficulty]
HPDrainRate:6
CircleSize:3.4
OverallDifficulty:8
ApproachRate:9
SliderMultiplier:1.5
SliderTickRate:1

[Events]
//Background and Video events
0,0,"bananahigh.png",0,0
//Break Periods
//Storyboard Layer 0 (Background)
//Storyboard Layer 1 (Fail)
//Storyboard Layer 2 (Pass)
//Storyboard Layer 3 (Foreground)
//Storyboard Layer 4 (Overlay)
//Storyboard Sound Samples

[TimingPoints]
68,329.670329670329,4,2,1,60,1,0
714,298.507462686567,4,2,1,60,1,0
1315,297.029702970297,4,2,1,60,1,0
2491,284.36018957346,4,2,1,60,1,0
3058,273.972602739726,4,2,1,60,1,0
3615,273.972602739726,4,2,1,60,1,0
5252,281.69014084507,4,2,1,60,1,0
5815,281.69014084507,4,2,1,60,1,0
6388,289.855072463768,4,2,1,60,1,0
6971,299.999999999999,4,2,1,60,1,0
7270,322.58064516129,4,2,1,60,1,0
7916,329.670329670329,4,2,1,60,1,0
8245,372.670807453416,4,2,1,60,1,0
8245,-166.666666666667,4,2,1,60,0,0
9736,346.820809248555,4,2,1,60,1,0
10082,326.086956521739,4,2,1,60,1,0
11050,310.880829015544,4,2,1,60,1,0
11679,291.26213592233,4,2,1,60,1,0
12258,291.26213592233,4,2,1,60,1,0
12849,277.777777777778,4,2,1,60,1,0
13404,271.493212669683,4,2,1,60,1,0
14218,262.008733624454,4,2,1,60,1,0
14480,262.008733624454,4,2,1,60,1,0
15266,272.727272727273,4,2,1,60,1,0
15533,267.857142857143,4,2,1,60,1,0
15811,272.727272727273,4,2,1,60,1,0
16633,297.029702970297,4,2,1,60,1,0
16916,312.5,4,2,1,60,1,0
17228,348.837209302325,4,2,1,60,1,0
17574,387.096774193548,4,2,1,60,1,0
17963,309.597523219814,4,2,1,60,1,0
20439,-98.6193293885601,4,2,1,60,0,0
20744,335.195530726256,4,2,1,60,1,0
21082,352.941176470588,4,2,1,50,1,0
21794,405.405405405405,4,2,1,40,1,0
22604,-200,4,2,1,50,0,0
23314,-200,4,2,1,5,0,0
23417,428.571428571428,3,2,1,50,1,0
24698,405.405405405405,3,2,1,50,1,0
25519,397.350993377483,3,2,1,50,1,0
25921,384.615384615384,3,2,1,50,1,0
27075,377.358490566037,3,2,1,50,1,0
28207,352.941176470588,3,2,1,50,1,0
29265,357.142857142857,3,2,1,50,1,0
30318,352.941176470588,3,2,1,50,1,0
31036,372.670807453416,3,2,1,50,1,0
31406,377.358490566037,3,2,1,50,1,0
31783,389.610389610389,3,2,1,50,1,0
32557,387.096774193548,3,2,1,50,1,0
32944,370.37037037037,3,2,1,50,1,0
33689,365.853658536585,3,2,1,50,1,0
34042,359.281437125748,3,2,1,50,1,0
34766,344.827586206896,3,2,1,50,1,0
35455,337.078651685393,3,2,1,50,1,0
35802,335.195530726257,3,2,1,50,1,0
36137,329.670329670329,3,2,1,50,1,0
36803,319.148936170213,3,2,1,50,1,0
38095,329.67032967033,3,2,1,50,1,0
38751,352.941176470588,3,2,1,50,1,0
39821,394.736842105263,3,2,1,50,1,0
39821,-96.1538461538461,3,2,1,50,0,0
40200,394.736842105263,3,2,1,50,1,0
41024,326.086956521739,3,2,1,70,1,1
42979,317.460317460317,3,2,1,70,1,1
43930,312.5,3,2,1,70,1,1
44877,309.278350515464,3,2,1,70,1,1
45804,312.5,3,2,1,70,1,1
46731,300,3,2,1,70,1,1
47631,294.117647058824,3,2,1,70,1,1
48072,303.030303030303,3,2,1,70,1,1
48524,291.26213592233,3,2,1,70,1,1
49401,292.682926829268,3,2,1,70,1,1
50271,279.069767441861,3,2,1,70,1,1
51940,275.229357798165,3,2,1,60,1,0
52783,291.262135922329,3,2,1,60,1,0
53074,303.030303030302,3,2,1,60,1,0
53703,344.827586206897,3,2,1,60,1,0
54049,359.281437125748,3,2,1,60,1,0
54790,419.580419580419,3,2,1,60,1,0
55838,-100,3,2,1,5,0,0

[Colours]
Combo1 : 0,128,192
Combo2 : 128,128,192
Combo3 : 0,223,223

[HitObjects]
389,94,68,6,0,L|485:116,1,75,2|0,3:2|0:0,0:0:0:0:
234,108,397,1,2,0:0:0:0:
369,65,562,1,0,0:0:0:0:
292,191,714,6,0,L|261:263,1,75,2|0,3:2|0:0,0:0:0:0:
258,74,1012,2,0,L|245:-11,1,75,2|0,0:0|0:0,0:0:0:0:
478,207,1315,5,4,3:2:0:0:
387,186,1612,1,2,0:3:0:0:
297,200,1909,1,2,0:3:0:0:
236,268,2206,1,2,0:3:0:0:
203,352,2491,5,2,3:2:0:0:
86,272,2633,1,0,0:0:0:0:
210,184,2775,6,0,L|236:103,1,75,2|0,0:0|0:0,0:0:0:0:
105,242,3058,2,0,L|11:270,1,75,2|0,3:2|0:0,0:0:0:0:
177,335,3331,5,2,0:0:0:0:
109,209,3468,1,0,0:0:0:0:
150,65,3615,5,4,3:2:0:0:
76,23,3888,1,2,0:3:0:0:
0,63,4162,1,2,0:3:0:0:
80,10,4436,1,2,0:3:0:0:
203,153,4710,6,0,P|243:170|277:176,1,75,2|0,3:2|0:0,0:0:0:0:
416,142,4984,1,2,0:0:0:0:
330,260,5121,1,0,0:0:0:0:
311,98,5252,6,0,L|296:8,1,75,2|0,3:2|0:0,0:0:0:0:
406,180,5533,2,0,L|492:215,1,75,2|0,0:0|0:0,0:0:0:0:
207,259,5815,5,2,3:2:0:0:
309,242,5955,1,0,0:0:0:0:
187,284,6096,5,2,0:0:0:0:
263,337,6237,1,0,0:0:0:0:
161,286,6388,6,0,P|149:236|140:198,1,75,2|0,3:2|0:0,0:0:0:0:
24,310,6677,2,0,P|39:365|46:396,1,75,2|0,0:0|0:0,0:0:0:0:
52,210,6971,6,0,P|35:152|21:110,1,75,2|0,3:2|0:0,0:0:0:0:
249,132,7270,5,2,0:0:0:0:
72,54,7431,1,0,0:0:0:0:
177,193,7592,5,2,3:2:0:0:
144,6,7753,1,0,0:0:0:0:
91,167,7916,5,2,0:0:0:0:
226,29,8080,1,0,0:0:0:0:
163,104,8245,6,0,P|212:117|267:141,1,89.9999972534181,4|0,3:2|0:0,0:0:0:0:
362,0,8990,2,0,P|337:84|327:139,1,134.999995880127,2|0,0:0|0:0,0:0:0:0:
447,173,9736,6,0,P|438:125|431:89,1,75,2|0,3:2|0:0,0:0:0:0:
394,281,10082,2,0,P|354:306|319:330,1,75,2|0,0:0|0:0,0:0:0:0:
476,187,10408,5,2,3:2:0:0:
387,251,10571,1,0,0:0:0:0:
477,307,10734,5,2,0:0:0:0:
363,250,10897,1,0,0:0:0:0:
207,316,11050,6,0,P|136:298|63:275,1,150,4|2,3:2|0:3,0:0:0:0:
85,360,11679,2,0,P|136:315|195:231,1,150,2|2,0:3|0:3,0:0:0:0:
79,32,12258,6,0,P|92:81|103:113,1,75,2|0,3:2|0:0,0:0:0:0:
30,172,12549,1,2,0:0:0:0:
123,118,12694,1,0,0:0:0:0:
38,75,12849,5,2,3:2:0:0:
133,108,12987,1,0,0:0:0:0:
191,15,13126,5,2,0:0:0:0:
144,96,13265,1,0,0:0:0:0:
320,188,13404,6,0,P|384:160|485:141,1,150,4|2,3:2|0:3,0:0:0:0:
318,0,13946,2,0,P|347:58|386:152,1,150,2|2,0:3|0:3,0:0:0:0:
512,219,14480,6,0,P|478:256|459:291,1,75,2|0,3:2|0:0,0:0:0:0:
293,241,14742,1,2,0:0:0:0:
444,290,14873,1,0,0:0:0:0:
310,212,15004,6,0,P|293:149|281:105,1,75,2|0,3:2|0:0,0:0:0:0:
380,364,15266,2,0,P|456:374|486:377,1,75,2|0,0:0|0:0,0:0:0:0:
280,260,15533,5,2,3:2:0:0:
217,338,15666,1,0,0:0:0:0:
211,166,15811,5,2,0:0:0:0:
185,367,15947,1,0,0:0:0:0:
122,229,16083,6,0,P|112:171|107:142,1,75,2|0,3:2|0:0,0:0:0:0:
59,317,16356,2,0,P|23:351|-1:371,1,75,2|0,0:0|0:0,0:0:0:0:
156,244,16633,5,2,3:2:0:0:
24,220,16781,1,0,0:0:0:0:
90,331,16916,5,2,0:0:0:0:
186,255,17072,1,0,0:0:0:0:
125,128,17228,5,2,3:2:0:0:
213,267,17402,1,0,0:0:0:0:
255,83,17574,1,2,0:0:0:0:
51,39,17767,5,0,0:0:0:0:
9,145,17963,2,0,P|87:122|183:96,1,150,4|0,3:2|0:0,0:0:0:0:
3,15,18891,5,2,0:0:0:0:
138,139,19201,2,0,P|115:61|89:-34,1,150,4|0,3:2|0:0,0:0:0:0:
9,145,20130,5,2,0:0:0:0:
133,10,20439,2,0,P|55:33|-41:59,1,150,4|2,3:2|0:0,0:0:0:0:
222,159,21082,2,0,P|274:190|382:238,1,150,6|2,3:2|0:0,0:0:0:0:
138,240,21794,2,0,P|81:258|-16:305,1,150,6|0,3:2|0:0,0:0:0:0:
0,296,22604,6,0,P|120:337|135:346,1,131.25,2|0,0:0|0:0,0:0:0:0:
199,384,23415,5,4,3:2:0:0:
229,196,23845,1,2,0:3:0:0:
229,196,24274,1,2,0:3:0:0:
116,264,24698,5,0,3:0:0:0:
326,246,25103,1,2,0:3:0:0:
320,260,25306,1,2,0:0:0:0:
317,276,25519,2,0,P|307:234|296:192,1,75,2|2,0:0|0:0,0:0:0:0:
262,337,25921,6,0,P|350:326|435:318,1,150,4|2,3:2|0:3,0:0:0:0:
181,281,26690,2,0,P|137:288|101:292,1,75,2|0,0:0|0:0,0:0:0:0:
286,384,27075,6,0,P|328:330|390:252,1,150,4|2,3:2|0:3,0:0:0:0:
134,144,27829,2,0,P|157:189|173:228,1,75,2|0,0:0|0:0,0:0:0:0:
202,293,28207,5,4,3:2:0:0:
139,55,28559,1,2,0:3:0:0:
139,55,28912,1,2,0:3:0:0:
41,145,29265,5,0,3:0:0:0:
296,64,29622,1,2,0:3:0:0:
284,53,29800,1,2,0:0:0:0:
273,42,29979,2,0,P|282:98|292:133,1,75,2|2,0:0|0:0,0:0:0:0:
379,213,30318,6,0,P|424:161|504:104,1,150,4|2,3:2|0:3,0:0:0:0:
335,0,31036,2,0,P|354:48|363:81,1,75,2|0,0:0|0:0,0:0:0:0:
434,280,31406,6,0,P|341:241|282:227,1,150,4|2,3:2|0:3,0:0:0:0:
476,98,31977,1,2,0:0:0:0:
488,112,32172,2,0,P|470:152|459:199,1,75,2|2,0:0|0:0,0:0:0:0:
345,338,32557,5,4,3:2:0:0:
308,137,32944,1,2,0:3:0:0:
308,137,33314,1,2,0:3:0:0:
461,181,33689,5,0,3:0:0:0:
252,216,34042,1,2,0:3:0:0:
247,229,34221,1,2,0:0:0:0:
241,245,34401,2,0,P|226:202|211:157,1,75,2|2,0:0|0:0,0:0:0:0:
206,346,34766,6,0,P|120:308|34:283,1,150,4|2,3:2|0:3,0:0:0:0:
315,129,35455,2,0,P|356:111|389:92,1,75,2|0,0:0|0:0,0:0:0:0:
366,227,35802,6,0,P|421:268|492:342,1,150,4|2,3:2|0:3,0:0:0:0:
224,72,36466,2,0,P|202:25|192:-8,1,75,2|0,0:0|0:0,0:0:0:0:
156,157,36803,5,4,3:2:0:0:
2,224,37122,1,2,0:3:0:0:
2,224,37441,1,2,0:3:0:0:
25,117,37760,5,0,3:0:0:0:
226,246,38095,1,2,0:3:0:0:
226,246,38259,1,2,0:0:0:0:
226,246,38424,2,0,P|179:236|153:224,1,75,2|2,0:0|0:0,0:0:0:0:
3,370,38751,6,0,P|65:349|158:333,1,150,4|2,3:2|0:3,0:0:0:0:
167,346,39456,1,2,0:3:0:0:
469,308,39821,2,0,P|403:299|325:267,1,150,4|2,3:2|0:3,0:0:0:0:
311,279,40594,1,2,0:3:0:0:
47,207,40940,5,2,0:3:0:0:
47,207,41024,2,0,P|95:206|129:187,1,75,4|2,3:2|0:0,0:0:0:0:
232,22,41350,5,2,0:3:0:0:
199,159,41513,1,2,0:0:0:0:
189,46,41676,5,2,0:3:0:0:
242,195,41839,1,2,0:0:0:0:
414,153,42002,6,0,P|462:141|502:134,1,75,0|0,3:0|0:0,0:0:0:0:
312,21,42328,2,0,P|323:69|330:109,1,75,2|2,0:3|0:0,0:0:0:0:
500,92,42654,5,2,0:3:0:0:
299,144,42817,1,2,0:0:0:0:
498,294,42979,6,0,P|426:304|374:314,1,112.5,4|0,3:2|0:0,0:0:0:0:
357,344,43296,6,0,P|410:360|451:375,1,75,2|2,0:3|0:0,0:0:0:0:
424,197,43613,2,0,P|411:143|403:100,1,75,2|2,0:3|0:0,0:0:0:0:
280,289,43930,6,0,P|276:227|272:161,1,112.5,4|0,3:2|0:0,0:0:0:0:
297,137,44242,6,0,P|234:121|200:113,1,75,2|2,0:3|0:0,0:0:0:0:
56,180,44555,2,0,P|92:188|128:198,1,75,2|2,0:3|0:0,0:0:0:0:
40,138,44877,5,4,3:2:0:0:
172,282,45031,1,2,0:0:0:0:
205,83,45186,6,0,P|190:26|182:0,1,75,2|2,0:3|0:0,0:0:0:0:
65,110,45495,2,0,P|24:140|-5:165,1,75,2|2,0:3|0:0,0:0:0:0:
265,229,45804,6,0,P|346:213|422:202,1,150,0|2,3:0|0:3,0:0:0:0:
510,189,46272,1,2,0:0:0:0:
345,118,46429,5,2,0:3:0:0:
478,283,46585,1,2,0:0:0:0:
445,103,46731,2,0,P|464:37|476:10,1,75,4|2,3:2|0:0,0:0:0:0:
382,229,47031,5,2,0:3:0:0:
259,192,47181,1,2,0:0:0:0:
297,355,47331,5,2,0:3:0:0:
235,163,47481,1,2,0:0:0:0:
179,311,47631,6,0,P|93:337|15:362,1,150,4|2,3:2|0:3,0:0:0:0:
0,127,48072,5,2,0:0:0:0:
54,243,48223,1,2,0:3:0:0:
83,163,48375,1,2,0:0:0:0:
100,317,48524,6,0,P|53:346|24:364,1,75,4|2,3:2|0:0,0:0:0:0:
216,249,48815,2,0,P|222:198|230:157,1,75,2|2,0:3|0:0,0:0:0:0:
228,361,49106,5,2,0:3:0:0:
189,273,49252,1,2,0:0:0:0:
345,329,49401,6,0,P|395:345|429:354,1,75,0|0,3:0|0:0,0:0:0:0:
512,224,49693,2,0,P|463:238|436:251,1,75,2|2,0:3|0:0,0:0:0:0:
318,295,49986,1,2,0:3:0:0:
355,90,50132,1,2,0:0:0:0:
418,160,50271,5,4,3:2:0:0:
326,180,50410,1,2,0:0:0:0:
380,0,50550,1,2,0:3:0:0:
443,69,50689,1,2,0:0:0:0:
263,97,50829,2,0,P|278:49|288:13,1,75,2|2,0:3|0:0,0:0:0:0:
49,244,51108,5,4,3:2:0:0:
141,264,51247,1,2,0:0:0:0:
87,84,51387,1,2,0:3:0:0:
24,153,51526,1,2,0:0:0:0:
201,187,51666,2,0,P|186:139|176:103,1,75,2|2,0:3|0:0,0:0:0:0:
367,301,51940,6,0,P|319:285|278:277,1,75,4|2,3:2|0:0,0:0:0:0:
463,286,52215,2,0,P|473:335|486:375,1,75,2|2,0:3|0:0,0:0:0:0:
401,204,52490,2,0,P|438:170|466:138,1,75,2|2,0:3|0:0,0:0:0:0:
262,361,52783,5,0,3:0:0:0:
229,212,52928,1,0,0:0:0:0:
236,337,53074,2,0,P|265:299|288:273,1,75,2|2,0:3|0:0,0:0:0:0:
141,176,53377,2,0,P|115:129|99:88,1,75,2|2,0:3|0:0,0:0:0:0:
0,251,53703,5,4,3:2:0:0:
115,289,53875,1,2,0:0:0:0:
11,283,54049,5,2,0:3:0:0:
134,249,54228,1,2,0:0:0:0:
256,297,54408,1,2,0:3:0:0:
336,378,54587,1,2,0:0:0:0:
489,221,54790,5,4,3:2:0:0:
469,228,55209,1,2,0:0:0:0:
452,240,55629,2,0,P|440:272|432:322,1,75,2|0,0:0|0:0,0:0:0:0:
