osu file format v14

[General]
AudioFilename: audio.mp3
AudioLeadIn: 0
PreviewTime: 22604
Countdown: 0
SampleSet: Soft
StackLeniency: 0.4
Mode: 0
LetterboxInBreaks: 0
WidescreenStoryboard: 1

[Editor]
DistanceSpacing: 1.3
BeatDivisor: 4
GridSize: 16
TimelineZoom: 2.5

[Metadata]
Title:Queen
TitleUnicode:Queen
Artist:Toby Fox
ArtistUnicode:Toby Fox
Creator:Urghi
Version:NOPP'S H4RD
Source:DELTARUNE
Tags:"radiation" vgm ost original soundtrack video game electronic instrumental serial number chapter 2 cyber world noppleft zetera sala-
BeatmapID:3312803
BeatmapSetID:1620099

[Difficulty]
HPDrainRate:5
CircleSize:4
OverallDifficulty:6.5
ApproachRate:7.5
SliderMultiplier:1.3
SliderTickRate:1

[Events]
//Background and Video events
0,0,"bananahigh.png",0,0
//Break Periods
//Storyboard Layer 0 (Background)
//Storyboard Layer 1 (Fail)
//Storyboard Layer 2 (Pass)
//Storyboard Layer 3 (Foreground)
//Storyboard Layer 4 (Overlay)
//Storyboard Sound Samples

[TimingPoints]
68,329.670329670329,4,2,1,60,1,0
714,298.507462686567,4,2,1,60,1,0
1315,297.029702970297,4,2,1,60,1,0
2491,284.36018957346,4,2,1,60,1,0
3058,273.972602739726,4,2,1,60,1,0
3615,273.972602739726,4,2,1,60,1,0
5252,281.69014084507,4,2,1,60,1,0
5815,281.69014084507,4,2,1,60,1,0
6388,289.855072463768,4,2,1,60,1,0
6971,299.999999999999,4,2,1,60,1,0
7270,322.58064516129,4,2,1,60,1,0
7916,329.670329670329,4,2,1,60,1,0
8245,372.670807453416,4,2,1,60,1,0
8245,-133.333333333333,4,2,1,60,0,0
9736,346.820809248555,4,2,1,60,1,0
10082,326.086956521739,4,2,1,60,1,0
11050,310.880829015544,4,2,1,60,1,0
11679,291.26213592233,4,2,1,60,1,0
12258,291.26213592233,4,2,1,60,1,0
12849,277.777777777778,4,2,1,60,1,0
13404,271.493212669683,4,2,1,60,1,0
14218,262.008733624454,4,2,1,60,1,0
14480,262.008733624454,4,2,1,60,1,0
15266,272.727272727273,4,2,1,60,1,0
15533,267.857142857143,4,2,1,60,1,0
15811,272.727272727273,4,2,1,60,1,0
16633,297.029702970297,4,2,1,60,1,0
16916,312.5,4,2,1,60,1,0
17228,348.837209302325,4,2,1,60,1,0
17574,387.096774193548,4,2,1,60,1,0
17963,309.597523219814,4,2,1,60,1,0
20744,335.195530726256,4,2,1,60,1,0
21082,352.941176470588,4,2,1,50,1,0
21794,405.405405405405,4,2,1,40,1,0
22604,-166.666666666667,4,2,1,50,0,0
23313,-166.666666666667,4,2,1,5,0,0
23417,428.571428571428,3,2,1,50,1,0
24698,405.405405405405,3,2,1,50,1,0
25519,397.350993377483,3,2,1,50,1,0
25921,384.615384615384,3,2,1,50,1,0
27075,377.358490566037,3,2,1,50,1,0
28207,352.941176470588,3,2,1,50,1,0
29265,357.142857142857,3,2,1,50,1,0
30318,352.941176470588,3,2,1,50,1,0
31036,372.670807453416,3,2,1,50,1,0
31406,377.358490566037,3,2,1,50,1,0
31783,389.610389610389,3,2,1,50,1,0
32557,387.096774193548,3,2,1,50,1,0
32944,370.37037037037,3,2,1,50,1,0
33689,365.853658536585,3,2,1,50,1,0
33689,-96.6183574879227,3,2,1,50,0,0
34042,359.281437125748,3,2,1,50,1,0
34766,344.827586206896,3,2,1,50,1,0
35455,337.078651685393,3,2,1,50,1,0
35802,335.195530726257,3,2,1,50,1,0
36137,329.670329670329,3,2,1,50,1,0
36803,319.148936170213,3,2,1,50,1,0
37760,-105.263157894737,3,2,1,50,0,0
38095,329.67032967033,3,2,1,50,1,0
38751,352.941176470588,3,2,1,50,1,0
39821,394.736842105263,3,2,1,50,1,0
40200,394.736842105263,3,2,1,50,1,0
41024,326.086956521739,3,2,1,70,1,1
41024,-83.3333333333333,3,2,1,70,0,1
42979,317.460317460317,3,2,1,70,1,1
42979,-83.3333333333333,3,2,1,70,0,1
43930,312.5,3,2,1,70,1,1
43930,-83.3333333333333,3,2,1,70,0,1
44877,309.278350515464,3,2,1,70,1,1
44877,-83.3333333333333,3,2,1,70,0,1
45804,312.5,3,2,1,70,1,1
45804,-83.3333333333333,3,2,1,70,0,1
46731,300,3,2,1,70,1,1
46731,-83.3333333333333,3,2,1,70,0,1
47631,294.117647058824,3,2,1,70,1,1
47631,-83.3333333333333,3,2,1,70,0,1
48072,303.030303030303,3,2,1,70,1,1
48072,-83.3333333333333,3,2,1,70,0,1
48524,291.26213592233,3,2,1,70,1,1
48524,-83.3333333333333,3,2,1,70,0,1
49401,292.682926829268,3,2,1,70,1,1
49401,-83.3333333333333,3,2,1,70,0,1
50271,279.069767441861,3,2,1,70,1,1
50271,-83.3333333333333,3,2,1,70,0,1
51940,275.229357798165,3,2,1,60,1,0
51940,-83.3333333333333,3,2,1,60,0,0
52783,291.262135922329,3,2,1,60,1,0
52783,-83.3333333333333,3,2,1,60,0,0
53074,303.030303030302,3,2,1,60,1,0
53703,344.827586206897,3,2,1,60,1,0
54049,359.281437125748,3,2,1,60,1,0
54790,419.580419580419,3,2,1,60,1,0

[Colours]
Combo1 : 0,128,192
Combo2 : 128,128,192
Combo3 : 0,223,223

[HitObjects]
81,173,68,5,2,3:2:0:0:
81,173,232,2,0,P|46:175|11:164,2,65,0|2|0,0:0|0:0|0:0,0:0:0:0:
147,232,714,2,0,L|152:304,1,65,2|0,3:2|0:0,0:0:0:0:
229,195,1012,2,0,L|234:267,1,65,2|0,0:0|0:0,0:0:0:0:
301,318,1315,6,0,P|365:293|437:288,3,130,4|2|2|2,3:2|0:3|0:3|0:3,0:0:0:0:
503,23,2491,5,2,3:2:0:0:
436,88,2633,2,0,L|443:170,2,65,0|2|0,0:0|0:0|0:0,0:0:0:0:
354,36,3058,2,0,P|319:45|288:46,1,65,2|0,3:2|0:0,0:0:0:0:
265,189,3331,2,0,P|300:180|331:179,1,65,2|0,0:0|0:0,0:0:0:0:
229,105,3615,6,0,P|158:98|101:79,3,130,4|2|2|2,3:2|0:3|0:3|0:3,0:0:0:0:
0,233,4710,5,2,3:2:0:0:
68,301,4847,2,0,L|72:379,2,65,0|2|0,0:0|0:0|0:0,0:0:0:0:
139,244,5252,2,0,L|135:166,1,65,2|0,3:2|0:0,0:0:0:0:
211,297,5533,2,0,L|207:375,1,65,2|0,0:0|0:0,0:0:0:0:
302,268,5815,5,2,3:2:0:0:
302,268,5955,1,0,0:0:0:0:
365,214,6096,2,0,L|361:136,1,65,2|0,0:0|0:0,0:0:0:0:
294,46,6388,2,0,P|261:43|213:31,1,65,2|0,3:2|0:0,0:0:0:0:
149,74,6677,2,0,P|136:104|110:145,1,65,2|0,0:0|0:0,0:0:0:0:
166,248,6971,6,0,L|160:321,1,65,2|0,3:2|0:0,0:0:0:0:
247,349,7270,2,0,L|252:284,1,65,2|0,0:0|0:0,0:0:0:0:
316,216,7592,1,2,3:2:0:0:
316,216,7753,1,0,0:0:0:0:
401,269,7916,2,0,P|445:258|481:257,1,65,2|0,0:0|0:0,0:0:0:0:
486,105,8245,6,0,B|438:131|370:116|408:99|338:84|287:104,1,195.00000743866,4|2,3:2|0:0,0:0:0:0:
21,20,9736,5,2,3:2:0:0:
21,20,9909,1,0,0:0:0:0:
87,87,10082,2,0,L|81:158,1,65,2|0,0:0|0:0,0:0:0:0:
140,222,10408,2,0,P|177:215|214:214,1,65,2|0,3:2|0:0,0:0:0:0:
272,137,10734,2,0,P|309:144|346:145,1,65,2|0,0:0|0:0,0:0:0:0:
419,232,11050,6,0,L|427:362,1,130,4|2,3:2|0:3,0:0:0:0:
489,141,11679,1,2,0:3:0:0:
490,128,11970,1,2,0:3:0:0:
313,10,12258,5,2,3:2:0:0:
313,10,12403,1,0,0:0:0:0:
241,72,12549,2,0,L|175:67,1,65,2|0,0:0|0:0,0:0:0:0:
107,134,12849,2,0,P|113:169|112:211,1,65,2|0,3:2|0:0,0:0:0:0:
20,168,13126,2,0,P|26:203|25:245,1,65,2|0,0:0|0:0,0:0:0:0:
95,334,13404,6,0,P|157:319|231:320,1,130,4|2,3:2|0:3,0:0:0:0:
335,166,13946,1,2,0:3:0:0:
333,151,14218,1,2,0:3:0:0:
149,12,14480,5,2,3:2:0:0:
149,12,14611,1,0,0:0:0:0:
80,77,14742,2,0,L|76:144,1,65,2|0,0:0|0:0,0:0:0:0:
156,218,15004,2,0,P|200:206|235:202,1,65,2|0,3:2|0:0,0:0:0:0:
167,302,15266,2,0,P|211:290|246:286,1,65,2|0,0:0|0:0,0:0:0:0:
321,355,15533,5,2,3:2:0:0:
321,355,15666,1,0,0:0:0:0:
387,296,15811,2,0,L|382:224,1,65,2|0,0:0|0:0,0:0:0:0:
320,165,16083,2,0,P|286:175|251:177,1,65,2|0,3:2|0:0,0:0:0:0:
377,92,16356,2,0,P|412:94|445:104,1,65,2|0,0:0|0:0,0:0:0:0:
306,18,16633,5,2,3:2:0:0:
306,18,16781,1,0,0:0:0:0:
232,71,16916,2,0,L|159:66,1,65,2|0,0:0|0:0,0:0:0:0:
98,127,17228,2,0,P|103:157|103:195,1,65,2|0,3:2|0:0,0:0:0:0:
168,251,17574,1,2,0:0:0:0:
250,210,17767,1,0,0:0:0:0:
329,266,17963,5,4,3:2:0:0:
356,106,18891,5,2,0:0:0:0:
329,266,19201,1,4,3:2:0:0:
366,116,20130,5,2,0:0:0:0:
339,276,20439,1,4,3:2:0:0:
342,289,20744,1,2,0:0:0:0:
196,163,21082,5,6,3:2:0:0:
199,150,21434,1,2,0:0:0:0:
370,26,21794,5,6,3:2:0:0:
381,40,22604,6,0,B|393:108|362:104|376:177,1,136.499995834351,2|0,0:0|0:0,0:0:0:0:
366,192,23417,6,0,P|301:157|238:147,2,130,4|2|2,3:2|0:3|0:3,0:0:0:0:
217,330,24698,2,0,P|282:295|345:285,1,130,0|2,3:0|0:3,0:0:0:0:
432,340,25306,1,2,0:0:0:0:
509,272,25519,1,2,0:0:0:0:
509,272,25717,1,2,0:0:0:0:
431,185,25921,6,0,P|436:117|454:51,1,130,4|2,3:2|0:3,0:0:0:0:
281,0,26690,1,2,0:0:0:0:
110,57,27075,6,0,P|126:120|131:185,1,130,4|2,3:2|0:3,0:0:0:0:
301,262,27829,1,2,0:0:0:0:
469,168,28207,6,0,P|474:103|490:40,2,130,4|2|2,3:2|0:3|0:3,0:0:0:0:
339,318,29265,2,0,P|274:323|211:339,1,130,0|2,3:0|0:3,0:0:0:0:
137,280,29800,1,2,0:0:0:0:
190,206,29979,1,2,0:0:0:0:
190,206,30157,1,2,0:0:0:0:
123,133,30318,6,0,L|114:-1,1,130,4|2,3:2|0:3,0:0:0:0:
12,192,31036,1,2,0:0:0:0:
154,364,31406,6,0,P|219:344|297:342,1,130,4|2,3:2|0:3,0:0:0:0:
339,258,31977,1,2,0:0:0:0:
264,185,32172,2,0,L|196:190,1,65,2|2,0:0|0:0,0:0:0:0:
311,88,32557,6,0,P|378:106|443:110,1,130,4|2,3:2|0:3,0:0:0:0:
499,290,33314,1,2,0:3:0:0:
274,366,33689,6,0,P|212:342|139:337,1,130,0|2,3:0|0:3,0:0:0:0:
77,266,34221,1,2,0:0:0:0:
130,196,34401,1,2,0:0:0:0:
130,196,34580,1,2,0:0:0:0:
61,129,34766,6,0,L|70:-7,1,130,4|2,3:2|0:3,0:0:0:0:
233,145,35455,1,2,0:0:0:0:
74,255,35802,6,0,L|83:391,1,130,4|2,3:2|0:3,0:0:0:0:
286,213,36466,1,2,0:0:0:0:
434,342,36803,6,0,P|389:328|301:324,2,130,4|2|2,3:2|0:3|0:3,0:0:0:0:
512,189,37760,2,0,L|496:48,1,130,0|2,3:0|0:3,0:0:0:0:
417,2,38259,1,2,0:0:0:0:
339,64,38424,1,2,0:0:0:0:
339,64,38589,1,2,0:0:0:0:
250,17,38751,6,0,P|172:35|117:37,2,130,4|2|2,3:2|0:3|0:3,0:0:0:0:
441,182,39821,5,4,3:2:0:0:
436,208,40200,1,2,0:3:0:0:
431,236,40594,2,0,P|431:280|401:240,1,113.75,2|2,0:3|0:3,0:0:0:0:
359,233,41024,6,0,P|317:223|275:221,1,77.999997619629,4|2,3:2|0:0,0:0:0:0:
347,126,41350,2,0,P|304:130|263:143,1,77.999997619629,2|2,0:3|0:0,0:0:0:0:
299,29,41676,2,0,P|260:48|226:73,1,77.999997619629,2|2,0:3|0:0,0:0:0:0:
144,160,42002,6,0,P|104:139|61:131,2,77.999997619629,0|0|2,3:0|0:0|0:3,0:0:0:0:
118,256,42491,1,2,0:0:0:0:
118,256,42654,1,2,0:3:0:0:
118,256,42817,1,2,0:0:0:0:
220,259,42979,6,0,L|309:265,1,77.999997619629,4|2,3:2|0:0,0:0:0:0:
241,172,43296,2,0,L|330:178,1,77.999997619629,2|2,0:3|0:0,0:0:0:0:
194,89,43613,2,0,P|155:80|117:78,1,77.999997619629,2|2,0:3|0:0,0:0:0:0:
53,157,43930,6,0,L|46:244,1,77.999997619629,4|2,3:2|0:0,0:0:0:0:
153,170,44242,2,0,L|147:248,1,77.999997619629,2|2,0:3|0:0,0:0:0:0:
229,325,44555,2,0,P|276:316|325:315,1,77.999997619629,2|2,0:3|0:0,0:0:0:0:
427,241,44877,6,0,P|379:233|333:217,1,77.999997619629,4|2,3:2|0:0,0:0:0:0:
437,153,45186,2,0,P|389:145|343:129,1,77.999997619629,2|2,0:3|0:0,0:0:0:0:
447,65,45495,2,0,P|399:57|353:41,1,77.999997619629,2|2,0:3|0:0,0:0:0:0:
240,108,45804,6,0,L|248:189,2,77.999997619629,0|0|2,3:0|0:0|0:3,0:0:0:0:
154,54,46272,1,2,0:0:0:0:
154,54,46429,1,2,0:3:0:0:
154,54,46585,1,2,0:0:0:0:
68,108,46731,6,0,L|73:191,1,77.999997619629,4|2,3:2|0:0,0:0:0:0:
148,127,47031,2,0,L|153:210,1,77.999997619629,2|2,0:3|0:0,0:0:0:0:
198,295,47331,2,0,P|237:308|283:312,1,77.999997619629,2|2,0:3|0:0,0:0:0:0:
368,274,47631,6,0,B|373:192|339:199|346:115,1,155.999995239258,4|2,3:2|0:3,0:0:0:0:
412,44,48072,1,2,0:0:0:0:
412,44,48223,1,2,0:3:0:0:
412,44,48375,1,2,0:0:0:0:
308,22,48524,6,0,P|268:20|230:12,1,77.999997619629,4|2,3:2|0:0,0:0:0:0:
300,103,48815,2,0,P|260:101|222:93,1,77.999997619629,2|2,0:3|0:0,0:0:0:0:
296,185,49106,2,0,P|256:183|218:175,1,77.999997619629,2|2,0:3|0:0,0:0:0:0:
157,256,49401,6,0,L|153:342,2,77.999997619629,0|0|2,3:0|0:0|0:3,0:0:0:0:
85,184,49840,1,2,0:0:0:0:
85,184,49986,1,2,0:3:0:0:
85,184,50132,1,2,0:0:0:0:
141,99,50271,6,0,L|230:94,1,77.999997619629,4|2,3:2|0:0,0:0:0:0:
125,21,50550,2,0,L|214:16,1,77.999997619629,2|2,0:3|0:0,0:0:0:0:
375,104,50829,2,0,P|335:116|295:118,1,77.999997619629,2|2,0:3|0:0,0:0:0:0:
222,175,51108,6,0,L|227:265,1,77.999997619629,4|2,3:2|0:0,0:0:0:0:
142,193,51387,2,0,L|147:283,1,77.999997619629,2|2,0:3|0:0,0:0:0:0:
246,352,51666,2,0,P|286:340|326:338,1,77.999997619629,2|2,0:3|0:0,0:0:0:0:
415,250,51940,6,0,L|338:245,1,77.999997619629,4|2,3:2|0:0,0:0:0:0:
431,172,52215,2,0,L|354:167,1,77.999997619629,2|2,0:3|0:0,0:0:0:0:
447,94,52490,2,0,L|370:89,1,77.999997619629,2|2,0:3|0:0,0:0:0:0:
219,138,52783,6,0,P|227:172|232:218,2,77.999997619629,0|0|2,3:0|0:0|0:3,0:0:0:0:
133,80,53225,1,2,0:0:0:0:
133,80,53377,1,2,0:3:0:0:
133,80,53528,1,2,0:0:0:0:
101,165,53703,6,0,L|97:239,1,65,4|2,3:2|0:0,0:0:0:0:
180,149,54049,2,0,L|176:223,1,65,2|2,0:3|0:0,0:0:0:0:
258,177,54408,2,0,L|254:251,1,65,2|2,0:3|0:0,0:0:0:0:
338,140,54790,6,0,P|395:158|469:161,2,130,4|2|2,3:2|0:0|0:0,0:0:0:0:
