osu file format v14

[General]
AudioFilename: audio.mp3
AudioLeadIn: 0
PreviewTime: 40131
Countdown: 0
SampleSet: Soft
StackLeniency: 0.7
Mode: 0
LetterboxInBreaks: 0
WidescreenStoryboard: 0

[Editor]
DistanceSpacing: 1
BeatDivisor: 4
GridSize: 4
TimelineZoom: 2.5

[Metadata]
Title:Pandora Palace
TitleUnicode:Pandora Palace
Artist:Toby Fox
ArtistUnicode:Toby Fox
Creator:-Keitaro
Version:Potassium
Source:DELTARUNE
Tags:apollo apo11o apollodw sychu chapter 2 orchestral video game instrumental undertale kris ralsei susie queen cyber world field lancer Q5U4EX7YY2E9N pandora place electronic
BeatmapID:3234551
BeatmapSetID:1583685

[Difficulty]
HPDrainRate:6
CircleSize:4
OverallDifficulty:8.4
ApproachRate:9
SliderMultiplier:1.8
SliderTickRate:1

[Events]
//Background and Video events
0,0,"logo.png",0,0
//Break Periods
//Storyboard Layer 0 (Background)
//Storyboard Layer 1 (Fail)
//Storyboard Layer 2 (Pass)
//Storyboard Layer 3 (Foreground)
//Storyboard Layer 4 (Overlay)
//Storyboard Sound Samples

[TimingPoints]
-2994,300,4,2,1,30,1,0
606,-133.333333333333,4,2,1,30,0,0
1806,-100,4,2,1,50,0,0
20106,-125,4,2,1,48,0,0
20406,-166.666666666667,4,2,1,45,0,0
20706,-200,4,2,1,43,0,0
20931,-133.333333333333,4,2,1,45,0,0
40206,-100,4,2,1,65,0,1
59406,-133.333333333333,4,2,1,45,0,0
69006,-133.333333333333,4,2,1,50,0,0
88206,-133.333333333333,4,2,1,55,0,0

[Colours]
Combo1 : 179,168,168
Combo2 : 217,223,223

[HitObjects]
103,69,606,6,0,L|49:61,2,33.7500012874604,0|0|0,3:2|3:2|3:2,0:0:0:0:
54,139,906,6,0,L|0:131,2,33.7500012874604,0|0|0,3:2|3:2|3:2,0:0:0:0:
176,229,1206,5,8,0:2:0:0:
205,225,1281,1,8,0:2:0:0:
235,221,1356,1,8,0:2:0:0:
138,146,1506,1,8,0:2:0:0:
110,293,1656,1,8,0:2:0:0:
305,276,1806,6,0,P|321:220|305:174,1,90,2|0,3:2|0:0,0:0:0:0:
235,221,2106,1,8,0:2:0:0:
349,360,2256,6,0,P|393:311|510:323,1,180,2|2,3:2|3:2,0:0:0:0:
500,315,2706,1,10,0:2:0:0:
268,354,2856,1,2,0:2:0:0:
414,132,3006,6,0,P|462:150|481:191,1,90,2|0,3:2|0:0,0:0:0:0:
405,215,3306,1,8,0:2:0:0:
378,0,3456,6,0,P|359:78|263:85,1,180,2|2,3:2|3:2,0:0:0:0:
271,89,3906,1,10,0:2:0:0:
459,53,4056,1,2,0:2:0:0:
125,12,4206,6,0,P|167:16|194:54,1,90,2|0,3:2|0:0,0:0:0:0:
114,95,4506,1,8,0:2:0:0:
270,89,4656,6,0,P|202:82|160:206,1,180,2|2,3:2|3:2,0:0:0:0:
146,166,5106,1,10,0:2:0:0:
43,39,5256,1,2,0:2:0:0:
118,264,5406,6,0,P|168:252|242:248,1,90,2|0,3:2|0:0,0:0:0:0:
64,192,5706,1,8,0:2:0:0:
246,365,5856,2,0,P|166:346|46:339,1,180,2|2,3:2|3:2,0:0:0:0:
147,167,6306,1,10,0:2:0:0:
181,327,6456,1,2,0:2:0:0:
316,302,6606,6,0,P|305:235|292:196,1,90,2|0,3:2|0:0,0:0:0:0:
376,368,6906,1,8,0:2:0:0:
299,214,7056,2,0,P|357:277|460:235,1,180,2|2,3:2|3:2,0:0:0:0:
232,267,7506,1,10,0:2:0:0:
498,183,7656,1,2,0:2:0:0:
368,104,7806,6,0,P|375:146|385:212,1,90,2|0,3:2|0:0,0:0:0:0:
437,42,8106,1,8,0:2:0:0:
279,11,8256,2,0,P|255:57|219:186,1,180,2|2,3:2|3:2,0:0:0:0:
190,27,8706,1,10,0:2:0:0:
299,214,8856,1,2,0:2:0:0:
279,11,9006,6,0,P|214:24|169:30,1,90,2|0,3:2|0:0,0:0:0:0:
355,32,9306,1,10,0:2:0:0:
74,28,9456,6,0,P|125:31|141:140,1,180,2|2,3:2|3:2,0:0:0:0:
67,167,9906,1,10,0:2:0:0:
17,103,10056,1,2,0:2:0:0:
122,311,10206,6,0,P|131:246|133:207,1,90,2|0,3:2|0:0,0:0:0:0:
277,381,10506,2,0,P|212:372|173:370,1,90,10|0,0:2|3:2,0:0:0:0:
353,232,10806,2,0,P|344:297|342:336,1,90,2|0,0:2|3:2,0:0:0:0:
198,162,11106,2,0,P|263:171|302:173,1,90,10|0,0:2|0:0,0:0:0:0:
467,314,11406,6,0,P|447:243|338:243,1,180,2|8,3:2|0:2,0:0:0:0:
290,288,11856,1,2,3:2:0:0:
453,197,12006,5,0,0:0:0:0:
467,110,12156,1,2,3:2:0:0:
320,8,12306,5,10,0:2:0:0:
306,95,12456,1,2,0:2:0:0:
381,127,12606,6,0,B|284:131|307:200|213:185,1,180,2|8,3:2|0:2,0:0:0:0:
146,125,13056,1,2,3:2:0:0:
221,25,13206,5,0,0:0:0:0:
130,38,13356,1,2,3:2:0:0:
110,212,13506,5,10,0:2:0:0:
19,226,13656,1,2,0:2:0:0:
76,298,13806,6,0,B|170:295|149:384|265:364,1,180,2|8,3:2|0:2,0:0:0:0:
281,291,14256,1,2,3:2:0:0:
263,199,14406,5,0,0:0:0:0:
188,248,14556,1,2,3:2:0:0:
377,364,14706,5,10,0:2:0:0:
372,274,14856,1,2,0:2:0:0:
454,234,15006,6,0,P|502:176|437:78,1,180,2|8,3:2|0:2,0:0:0:0:
362,89,15456,1,2,3:2:0:0:
289,161,15606,5,0,0:0:0:0:
379,183,15756,1,2,3:2:0:0:
469,382,15906,5,10,0:2:0:0:
377,364,16056,1,2,0:2:0:0:
372,273,16206,6,0,P|340:345|232:329,1,180,2|8,3:2|0:2,0:0:0:0:
209,251,16656,1,2,3:2:0:0:
132,294,16806,5,0,0:0:0:0:
149,384,16956,1,2,3:2:0:0:
293,281,17106,5,10,0:2:0:0:
276,191,17256,1,2,0:2:0:0:
185,154,17406,6,0,P|144:166|56:67,1,180,2|8,3:2|0:2,0:0:0:0:
109,15,17856,1,2,3:2:0:0:
191,54,18006,5,0,0:0:0:0:
278,40,18156,1,2,3:2:0:0:
363,177,18306,5,10,0:2:0:0:
276,191,18456,1,2,0:2:0:0:
309,112,18606,6,0,L|402:96,1,90,2|0,3:2|0:0,0:0:0:0:
453,171,18906,1,10,0:2:0:0:
509,46,19056,2,0,P|455:64|470:184,1,180,2|2,3:2|3:2,0:0:0:0:
398,244,19506,2,0,L|505:268,1,90,10|2,0:2|0:2,0:0:0:0:
276,378,19806,6,0,P|298:321|257:253,1,135,2|0,3:2|0:0,0:0:0:0:
259,271,20106,6,0,P|285:317|268:367,1,108,2|0,0:2|0:0,0:0:0:0:
268,360,20406,6,0,P|278:321|258:287,1,80.9999975280763,2|0,0:2|0:0,0:0:0:0:
200,336,20706,6,0,L|129:344,1,67.5,2|0,0:2|0:0,0:0:0:0:
58,312,21006,5,2,3:2:0:0:
120,260,21156,1,0,3:2:0:0:
144,182,21306,1,10,0:2:0:0:
118,105,21456,1,0,0:0:0:0:
41,77,21606,5,2,3:2:0:0:
55,156,21756,1,2,0:2:0:0:
174,41,21906,1,10,0:2:0:0:
197,119,22056,1,2,3:2:0:0:
252,59,22206,6,0,P|305:96|388:76,1,135.000005149842,2|8,3:2|0:2,0:0:0:0:
440,0,22656,1,0,0:0:0:0:
440,0,22806,2,0,L|452:72,1,67.5000025749208,0|0,3:2|0:0,0:0:0:0:
503,194,23106,2,0,P|467:148|401:159,1,101.250003862381,8|0,0:2|0:0,0:0:0:0:
427,144,23406,5,2,3:2:0:0:
388,215,23556,1,0,3:2:0:0:
312,243,23706,1,10,0:2:0:0:
231,243,23856,1,0,0:0:0:0:
178,181,24006,5,2,3:2:0:0:
258,171,24156,1,2,0:2:0:0:
196,320,24306,1,10,0:2:0:0:
276,310,24456,1,2,3:2:0:0:
246,382,24606,6,0,P|209:354|115:362,1,135.000005149842,2|8,3:2|0:2,0:0:0:0:
49,384,25056,1,0,0:0:0:0:
49,384,25206,2,0,L|41:303,1,67.5000025749208,0|0,3:2|0:0,0:0:0:0:
55,224,25506,2,0,P|68:273|129:255,1,101.250003862381,8|0,0:2|0:0,0:0:0:0:
164,217,25806,5,2,3:2:0:0:
202,145,25956,1,0,3:2:0:0:
274,108,26106,1,10,0:2:0:0:
354,111,26256,1,0,0:0:0:0:
399,44,26406,5,2,3:2:0:0:
318,40,26556,1,2,0:2:0:0:
389,184,26706,1,10,0:2:0:0:
308,180,26856,1,2,3:2:0:0:
455,248,27006,5,2,3:2:0:0:
451,329,27156,1,0,3:2:0:0:
234,312,27306,1,10,0:2:0:0:
238,232,27456,1,2,0:0:0:0:
342,292,27606,6,0,L|337:379,1,67.5000025749208,2|0,3:2|0:0,0:0:0:0:
115,348,27906,2,0,L|118:280,1,67.5000025749208,10|0,0:2|3:2,0:0:0:0:
142,198,28206,6,0,P|101:254|28:253,1,135.000005149842,2|8,3:2|0:2,0:0:0:0:
14,116,28806,2,0,L|92:125,1,67.5000025749208,2|0,3:2|0:2,0:0:0:0:
93,46,29106,2,0,L|25:38,1,67.5000025749208,10|0,0:2|3:2,0:0:0:0:
142,198,29406,6,0,P|170:133|245:139,1,135.000005149842,2|8,3:2|0:2,0:0:0:0:
298,167,29856,1,0,0:0:0:0:
298,167,30006,2,0,P|356:154|370:121,1,67.5000025749208,0|0,3:2|0:0,0:0:0:0:
375,67,30306,2,0,P|334:23|299:27,1,67.5000025749208,8|0,0:2|3:2,0:0:0:0:
301,95,30606,5,2,3:2:0:0:
375,67,30756,1,0,3:2:0:0:
454,82,30906,1,10,0:2:0:0:
498,149,31056,1,0,0:0:0:0:
495,229,31206,5,2,3:2:0:0:
415,213,31356,1,2,0:2:0:0:
321,379,31506,5,10,0:2:0:0:
401,363,31656,1,2,3:2:0:0:
442,292,31806,6,0,P|358:285|284:281,1,135.000005149842,2|8,3:2|0:2,0:0:0:0:
235,316,32256,1,0,0:0:0:0:
235,316,32406,2,0,P|231:351|232:390,1,67.5000025749208,0|0,3:2|0:0,0:0:0:0:
307,282,32706,2,0,P|313:214|267:184,1,101.250003862381,8|0,0:2|0:0,0:0:0:0:
293,193,33006,5,2,3:2:0:0:
217,223,33156,1,0,3:2:0:0:
138,203,33306,1,10,0:2:0:0:
95,134,33456,1,0,0:0:0:0:
116,56,33606,5,2,3:2:0:0:
196,46,33756,1,2,0:2:0:0:
80,264,33906,5,10,0:2:0:0:
0,254,34056,1,2,3:2:0:0:
138,203,34206,6,0,P|124:287|117:358,1,135.000005149842,2|8,3:2|0:2,0:0:0:0:
191,369,34656,1,0,0:0:0:0:
191,369,34806,2,0,P|195:317|200:289,1,67.5000025749208,0|0,3:2|0:0,0:0:0:0:
379,274,35106,2,0,P|338:319|257:295,1,135.000005149842,8|2,0:2|3:2,0:0:0:0:
360,195,35556,5,0,3:2:0:0:
379,274,35706,1,10,0:2:0:0:
456,252,35856,1,2,0:2:0:0:
436,173,36006,2,0,P|388:177|355:85,1,135.000005149842,2|8,3:2|0:2,0:0:0:0:
410,60,36456,1,0,3:2:0:0:
210,0,36606,5,2,3:2:0:0:
210,0,36756,1,0,3:2:0:0:
241,74,36906,1,10,0:2:0:0:
168,109,37056,1,2,0:2:0:0:
132,36,37206,2,0,P|89:17|22:53,1,101.250003862381,2|0,3:2|0:0,0:0:0:0:
0,104,37506,2,0,L|14:182,1,67.5000025749208,10|0,0:2|3:2,0:0:0:0:
73,224,37806,6,0,B|150:205|129:272|219:240,1,135.000005149842,2|8,3:2|0:2,0:0:0:0:
253,132,38256,1,0,0:0:0:0:
253,132,38406,2,0,P|211:155|198:194,1,67.5000025749208,2|0,3:2|0:2,0:0:0:0:
278,269,38706,2,0,P|279:221|251:190,1,67.5000025749208,10|0,0:2|3:2,0:0:0:0:
210,333,39006,6,0,P|263:295|362:371,1,202.500007724762,2|0,3:2|0:0,0:0:0:0:
439,372,39606,6,0,P|501:309|467:197,1,202.500007724762,2|0,0:2|0:0,0:0:0:0:
512,132,40206,6,0,P|465:174|379:162,1,135,2|0,3:2|0:0,0:0:0:0:
396,172,40506,1,8,0:2:0:0:
398,17,40656,6,0,P|429:52|436:98,1,90,0|0,3:2|0:0,0:0:0:0:
313,163,40956,1,0,3:2:0:0:
392,22,41106,2,0,P|389:68|361:106,1,90,8|0,0:2|0:0,0:0:0:0:
178,29,41406,6,0,P|244:6|310:48,1,135,2|0,3:2|0:0,0:0:0:0:
299,33,41706,1,8,0:2:0:0:
172,176,41856,6,0,P|139:133|141:91,1,90,0|0,3:2|0:0,0:0:0:0:
178,29,42156,1,0,3:2:0:0:
172,187,42306,2,0,P|118:179|89:148,1,90,8|0,0:2|0:0,0:0:0:0:
229,115,42606,6,0,P|206:215|203:303,1,180,2|8,3:2|0:2,0:0:0:0:
237,375,43056,1,0,3:2:0:0:
237,375,43206,2,0,P|283:343|282:300,1,90,2|0,0:2|3:2,0:0:0:0:
172,187,43506,2,0,P|126:219|127:262,1,90,10|0,0:2|0:0,0:0:0:0:
202,292,43806,6,0,P|292:276|374:268,1,135,2|0,3:2|0:0,0:0:0:0:
335,271,44106,1,8,0:2:0:0:
351,362,44256,1,0,3:2:0:0:
499,227,44406,6,0,P|462:216|390:213,1,90,0|0,0:0|3:2,0:0:0:0:
312,61,44706,2,0,P|375:68|398:157,1,135,8|0,0:2|0:0,0:0:0:0:
337,172,45006,6,0,B|244:213|258:119|155:156,1,180,2|8,3:2|0:2,0:0:0:0:
52,312,45456,1,0,3:2:0:0:
113,370,45606,2,0,B|146:330|146:330|116:226,1,135,2|0,0:2|0:0,0:0:0:0:
118,236,45906,2,0,P|69:208|8:222,1,90,10|0,0:2|0:0,0:0:0:0:
228,380,46206,2,0,P|249:304|354:315,1,180,2|8,3:2|0:2,0:0:0:0:
473,205,46656,1,0,3:2:0:0:
422,384,46806,2,0,P|411:295|395:224,1,135,2|0,0:2|0:0,0:0:0:0:
388,232,47106,2,0,P|344:251|291:232,1,90,8|0,0:2|0:0,0:0:0:0:
146,95,47406,6,0,L|133:-5,1,90,2|0,3:2|0:0,0:0:0:0:
346,173,47706,2,0,L|359:73,1,90,10|0,0:2|3:2,0:0:0:0:
83,248,48006,2,0,L|70:148,1,90,2|0,0:2|3:2,0:0:0:0:
277,371,48306,5,10,0:2:0:0:
258,142,48456,2,0,P|248:196|242:252,1,90,2|0,0:2|3:2,0:0:0:0:
383,373,48756,5,0,0:0:0:0:
383,373,48906,2,0,P|372:304|367:270,1,90,8|0,0:2|3:2,0:0:0:0:
472,361,49206,2,0,P|461:292|456:258,1,90,0|0,0:0|3:2,0:0:0:0:
168,240,49506,1,8,0:2:0:0:
275,374,49656,1,0,0:0:0:0:
84,222,49806,6,0,P|7:266|12:324,1,135,2|0,3:2|0:0,0:0:0:0:
11,323,50106,1,8,0:2:0:0:
179,329,50256,2,0,L|165:219,1,90,0|0,3:2|0:0,0:0:0:0:
84,222,50556,1,0,3:2:0:0:
187,341,50706,2,0,L|201:231,1,90,8|0,0:2|0:0,0:0:0:0:
30,102,51006,6,0,B|104:81|79:143|158:113,1,135,2|0,3:2|0:0,0:0:0:0:
159,104,51306,1,8,0:2:0:0:
278,0,51456,2,0,P|242:40|243:100,1,90,0|0,3:2|0:0,0:0:0:0:
226,153,51756,1,0,3:2:0:0:
385,116,51906,2,0,P|328:107|287:139,1,90,8|0,0:2|0:0,0:0:0:0:
477,258,52206,6,0,P|381:254|356:160,1,180,2|8,3:2|0:2,0:0:0:0:
385,116,52656,1,0,3:2:0:0:
512,172,52806,2,0,L|401:183,1,90,2|0,0:2|3:2,0:0:0:0:
331,310,53106,2,0,L|241:301,1,90,10|0,0:2|0:0,0:0:0:0:
41,209,53406,5,2,3:2:0:0:
41,209,53556,1,0,0:0:0:0:
32,295,53706,1,8,0:2:0:0:
108,259,53856,1,0,3:2:0:0:
15,27,54006,5,0,0:0:0:0:
24,113,54156,1,0,3:2:0:0:
108,100,54306,1,8,0:2:0:0:
99,14,54456,1,0,0:0:0:0:
117,176,54606,6,0,P|161:114|258:139,1,180,2|8,3:2|0:2,0:0:0:0:
329,314,55056,1,0,3:2:0:0:
267,370,55206,2,0,B|239:327|239:327|268:243,1,135,2|0,0:2|0:0,0:0:0:0:
281,233,55506,2,0,P|339:218|383:243,1,90,10|0,0:2|0:0,0:0:0:0:
461,341,55806,6,0,P|403:331|378:204,1,180,2|8,3:2|0:2,0:0:0:0:
477,87,56256,1,0,3:2:0:0:
512,163,56406,2,0,P|414:163|368:149,1,135,2|0,0:2|0:0,0:0:0:0:
374,137,56706,2,0,P|319:150|258:145,1,90,8|0,0:2|0:0,0:0:0:0:
79,22,57006,6,0,L|188:11,1,90,2|0,3:2|0:0,0:0:0:0:
11,242,57306,2,0,L|100:251,1,90,10|0,0:2|3:2,0:0:0:0:
180,91,57606,2,0,L|289:80,1,90,2|0,0:2|3:2,0:0:0:0:
317,233,57906,5,10,0:2:0:0:
155,317,58056,2,0,P|225:305|267:296,1,90,2|0,0:2|3:2,0:0:0:0:
458,236,58356,5,0,0:0:0:0:
497,313,58506,1,8,0:2:0:0:
410,308,58656,1,0,3:2:0:0:
487,22,58806,5,0,0:0:0:0:
475,97,58956,1,0,3:2:0:0:
410,135,59106,1,8,0:2:0:0:
337,117,59256,1,0,0:0:0:0:
236,0,59406,6,0,L|229:71,1,67.5000025749208,2|0,3:2|3:2,0:0:0:0:
229,67,59706,2,0,P|158:22|96:45,2,135.000005149842,8|0|8,0:2|3:2|0:2,0:0:0:0:
166,170,60456,1,0,3:2:0:0:
166,170,60606,2,0,L|155:93,1,67.5000025749208,0|0,3:2|3:2,0:0:0:0:
33,229,60906,6,0,P|75:227|98:195,1,67.5000025749208,10|0,0:2|0:0,0:0:0:0:
207,295,61206,2,0,P|184:259|145:255,1,67.5000025749208,2|0,3:2|0:0,0:0:0:0:
178,112,61506,2,0,P|158:149|174:185,1,67.5000025749208,10|0,0:2|3:2,0:0:0:0:
134,344,61806,6,0,P|209:334|243:403,1,135.000005149842,2|8,3:2|0:2,0:0:0:0:
342,258,62256,2,0,P|298:278|274:314,2,67.5000025749208,2|0|0,0:0|3:2|0:0,0:0:0:0:
483,379,62706,2,0,P|410:366|394:297,1,135.000005149842,10|0,0:2|3:2,0:0:0:0:
417,242,63156,1,0,3:2:0:0:
494,256,63306,2,0,P|486:147|484:96,2,135.000005149842,8|2|8,0:2|3:2|0:2,0:0:0:0:
355,13,64206,6,0,L|348:80,1,67.5000025749208,2|0,3:2|3:2,0:0:0:0:
347,80,64506,2,0,P|282:110|222:66,2,135.000005149842,8|0|8,0:2|3:2|0:2,0:0:0:0:
394,158,65256,1,0,3:2:0:0:
394,158,65406,2,0,L|386:239,1,67.5000025749208,0|0,3:2|3:2,0:0:0:0:
350,307,65706,6,0,L|430:302,1,67.5000025749208,10|0,0:2|0:0,0:0:0:0:
298,234,66006,2,0,L|262:305,1,67.5000025749208,2|0,3:2|0:0,0:0:0:0:
387,225,66306,2,0,L|342:158,1,67.5000025749208,10|0,0:2|3:2,0:0:0:0:
287,370,66606,6,0,P|255:318|172:332,1,135.000005149842,2|8,3:2|0:2,0:0:0:0:
54,379,67056,2,0,P|98:358|88:277,1,135.000005149842,2|0,0:0|0:0,0:0:0:0:
157,173,67506,2,0,L|163:254,1,67.5000025749208,10|0,0:2|3:2,0:0:0:0:
220,112,67806,1,0,3:2:0:0:
76,88,67956,1,0,3:2:0:0:
227,110,68106,6,0,P|233:73|205:35,1,67.5000025749208,10|0,0:2|0:0,0:0:0:0:
247,202,68406,2,0,P|276:225|322:220,1,67.5000025749208,2|0,3:2|0:0,0:0:0:0:
157,173,68706,2,0,P|121:186|103:229,1,67.5000025749208,10|0,0:2|3:2,0:0:0:0:
211,384,69006,6,0,L|200:302,1,67.5000025749208,2|0,3:2|3:2,0:0:0:0:
202,317,69306,2,0,P|160:373|81:366,2,135.000005149842,8|0|8,0:2|3:2|0:2,0:0:0:0:
137,234,70056,1,0,3:2:0:0:
137,234,70206,2,0,L|125:316,1,67.5000025749208,0|0,3:2|3:2,0:0:0:0:
4,240,70506,6,0,P|51:224|70:187,1,67.5000025749208,10|0,0:2|0:0,0:0:0:0:
123,93,70806,2,0,P|113:141|135:176,1,67.5000025749208,2|0,3:2|0:0,0:0:0:0:
190,269,71106,2,0,P|152:236|111:238,1,67.5000025749208,10|0,0:2|3:2,0:0:0:0:
98,11,71406,6,0,P|129:65|218:49,1,135.000005149842,2|8,3:2|0:2,0:0:0:0:
317,0,71856,2,0,P|264:14|253:46,2,67.5000025749208,2|0|0,0:0|3:2|0:0,0:0:0:0:
282,168,72306,2,0,L|266:86,1,67.5000025749208,10|0,0:2|3:2,0:0:0:0:
209,224,72606,1,0,3:2:0:0:
345,245,72756,1,0,3:2:0:0:
199,222,72906,2,0,P|191:180|203:144,1,67.5000025749208,8|0,0:2|0:0,0:0:0:0:
353,257,73206,2,0,P|279:274|264:344,1,135.000005149842,2|8,3:2|0:2,0:0:0:0:
330,375,73656,1,0,3:2:0:0:
330,375,73806,6,0,L|410:386,1,67.5000025749208,2|0,3:2|3:2,0:0:0:0:
457,341,74106,2,0,P|470:276|469:204,2,135.000005149842,8|0|8,0:2|3:2|0:2,0:0:0:0:
394,157,74856,1,0,3:2:0:0:
470,209,75006,1,0,3:2:0:0:
487,104,75156,1,0,3:2:0:0:
425,30,75306,6,0,P|380:49|366:80,1,67.5000025749208,10|0,0:2|0:0,0:0:0:0:
302,175,75606,2,0,P|308:126|288:98,1,67.5000025749208,2|0,3:2|0:0,0:0:0:0:
239,0,75906,2,0,P|277:29|311:26,1,67.5000025749208,10|0,0:2|3:2,0:0:0:0:
348,249,76206,5,2,3:2:0:0:
227,149,76356,1,0,3:2:0:0:
353,256,76506,2,0,L|336:345,1,67.5000025749208,8|0,0:2|0:0,0:0:0:0:
166,377,76806,2,0,P|204:329|271:342,1,135.000005149842,0|8,3:2|0:2,0:0:0:0:
270,341,77256,1,0,3:2:0:0:
59,328,77406,5,2,3:2:0:0:
103,258,77556,1,0,3:2:0:0:
40,206,77706,2,0,L|191:219,2,135.000005149842,8|0|8,0:2|3:2|0:2,0:0:0:0:
13,50,78456,5,0,3:2:0:0:
13,50,78606,2,0,P|22:85|30:119,1,67.5000025749208,2|0,3:2|3:2,0:0:0:0:
112,96,78906,2,0,P|104:63|95:30,1,67.5000025749208,8|0,0:2|0:0,0:0:0:0:
203,144,79206,2,0,P|241:92|333:102,1,135.000005149842,0|8,3:2|0:2,0:0:0:0:
307,86,79656,1,0,3:2:0:0:
373,149,79806,1,0,3:2:0:0:
352,18,79956,1,0,3:2:0:0:
376,160,80106,6,0,P|416:166|453:148,1,67.5000025749208,10|0,0:2|0:0,0:0:0:0:
325,249,80406,2,0,P|310:211|276:188,1,67.5000025749208,2|0,3:2|0:0,0:0:0:0:
428,249,80706,2,0,P|402:280|399:321,1,67.5000025749208,10|0,0:2|3:2,0:0:0:0:
209,371,81006,6,0,P|254:328|339:348,1,135.000005149842,2|8,3:2|0:2,0:0:0:0:
199,353,81456,2,0,L|189:265,1,67.5000025749208,2|0,0:0|3:2,0:0:0:0:
223,196,81756,1,0,0:0:0:0:
67,200,81906,2,0,L|139:214,1,67.5000025749208,10|0,0:2|3:2,0:0:0:0:
260,89,82206,5,0,3:2:0:0:
220,207,82356,1,0,3:2:0:0:
268,80,82506,2,0,L|359:70,1,67.5000025749208,8|0,0:2|0:0,0:0:0:0:
102,16,82806,2,0,P|150:57|157:133,1,135.000005149842,2|8,3:2|0:2,0:0:0:0:
159,125,83256,1,0,3:2:0:0:
301,170,83406,6,0,L|387:164,1,67.5000025749208,2|0,3:2|3:2,0:0:0:0:
368,257,83706,2,0,L|300:261,1,67.5000025749208,8|0,0:2|0:0,0:0:0:0:
124,231,84006,6,0,L|210:225,1,67.5000025749208,0|0,3:2|0:0,0:0:0:0:
191,318,84306,2,0,L|123:322,1,67.5000025749208,8|0,0:2|3:2,0:0:0:0:
252,369,84606,1,0,3:2:0:0:
47,321,84756,1,0,3:2:0:0:
260,360,84906,6,0,P|272:314|252:269,1,67.5000025749208,10|0,0:2|0:0,0:0:0:0:
401,239,85206,2,0,P|355:251|326:291,1,67.5000025749208,2|0,3:2|0:0,0:0:0:0:
226,178,85506,2,0,P|259:211|308:216,1,67.5000025749208,10|0,0:2|3:2,0:0:0:0:
437,321,85806,6,0,P|426:272|484:206,1,135.000005149842,2|8,3:2|0:2,0:0:0:0:
501,75,86256,2,0,P|516:115|505:155,1,67.5000025749208,2|0,0:0|3:2,0:0:0:0:
474,208,86556,1,0,0:0:0:0:
299,107,86706,2,0,B|381:83|357:140|439:112,1,135.000005149842,10|0,0:2|3:2,0:0:0:0:
429,115,87156,1,0,3:2:0:0:
279,28,87306,6,0,P|236:47|221:80,1,67.5000025749208,10|0,0:2|0:0,0:0:0:0:
302,170,87606,2,0,P|307:123|285:93,1,67.5000025749208,2|0,3:2|0:0,0:0:0:0:
167,118,87906,2,0,P|204:145|241:142,1,67.5000025749208,10|0,0:2|3:2,0:0:0:0:
386,238,88206,5,2,3:2:0:0:
225,268,88356,1,0,3:2:0:0:
395,238,88506,2,0,L|383:320,1,67.5000025749208,8|0,0:2|0:0,0:0:0:0:
306,314,88806,2,0,L|315:247,1,67.5000025749208,0|0,3:2|0:0,0:0:0:0:
215,201,89106,2,0,L|227:283,1,67.5000025749208,8|0,0:2|3:2,0:0:0:0:
180,337,89406,1,0,3:2:0:0:
290,166,89556,1,0,3:2:0:0:
179,343,89706,6,0,P|124:357|95:342,1,67.5000025749208,10|0,0:2|0:0,0:0:0:0:
101,214,90006,2,0,P|140:254|142:287,1,67.5000025749208,2|0,3:2|0:0,0:0:0:0:
29,347,90306,2,0,P|44:292|71:274,1,67.5000025749208,10|0,0:2|3:2,0:0:0:0:
132,130,90606,6,0,P|57:181|-1:152,1,135.000005149842,2|8,3:2|0:2,0:0:0:0:
28,7,91056,2,0,L|37:78,1,67.5000025749208,2|0,0:0|3:2,0:0:0:0:
36,73,91356,1,0,0:0:0:0:
259,56,91506,2,0,L|121:41,1,135.000005149842,10|0,0:2|3:2,0:0:0:0:
124,41,91956,1,0,3:2:0:0:
210,216,92106,2,0,L|225:148,1,67.5000025749208,8|0,0:2|0:0,0:0:0:0:
259,56,92406,2,0,P|303:113|381:102,1,135.000005149842,2|8,3:2|0:2,0:0:0:0:
361,113,92856,1,0,3:2:0:0:
437,23,93006,5,2,3:2:0:0:
458,199,93156,1,0,3:2:0:0:
436,35,93306,2,0,L|442:113,1,67.5000025749208,8|0,0:2|0:0,0:0:0:0:
361,113,93606,2,0,L|355:45,1,67.5000025749208,0|0,3:2|0:0,0:0:0:0:
414,182,93906,2,0,L|420:260,1,67.5000025749208,8|0,0:2|3:2,0:0:0:0:
261,343,94206,1,0,3:2:0:0:
330,192,94356,1,0,3:2:0:0:
262,353,94506,6,0,P|312:351|338:329,1,67.5000025749208,10|0,0:2|0:0,0:0:0:0:
195,299,94806,2,0,P|171:343|177:376,1,67.5000025749208,2|0,3:2|0:0,0:0:0:0:
275,267,95106,2,0,P|248:224|216:213,1,67.5000025749208,10|0,0:2|3:2,0:0:0:0:
136,221,95406,5,2,3:2:0:0:
256,131,95556,1,0,3:2:0:0:
132,229,95706,2,0,L|53:220,1,67.5000025749208,8|0,0:2|0:0,0:0:0:0:
125,20,96006,2,0,P|157:55|143:153,1,135.000005149842,0|8,3:2|0:2,0:0:0:0:
153,138,96456,1,0,3:2:0:0:
6,96,96606,5,2,3:2:0:0:
64,221,96756,1,0,3:2:0:0:
1,89,96906,2,0,L|85:89,1,67.5000025749208,8|0,0:2|0:0,0:0:0:0:
234,20,97206,5,0,3:2:0:0:
277,85,97356,1,0,0:0:0:0:
353,100,97506,1,8,0:2:0:0:
426,67,97656,1,0,3:2:0:0:
