osu file format v14

[General]
AudioFilename: audio.mp3
AudioLeadIn: 0
PreviewTime: 40131
Countdown: 0
SampleSet: Soft
StackLeniency: 0.7
Mode: 0
LetterboxInBreaks: 0
WidescreenStoryboard: 1

[Editor]
DistanceSpacing: 1
BeatDivisor: 4
GridSize: 4
TimelineZoom: 2.5

[Metadata]
Title:Pandora Palace
TitleUnicode:Pandora Palace
Artist:Toby Fox
ArtistUnicode:Toby Fox
Creator:-Keitaro
Version:Hard
Source:DELTARUNE
Tags:apollo apo11o apollodw sychu chapter 2 orchestral video game instrumental undertale kris ralsei susie queen cyber world field lancer Q5U4EX7YY2E9N pandora place electronic
BeatmapID:3311901
BeatmapSetID:1583685

[Difficulty]
HPDrainRate:5
CircleSize:3.8
OverallDifficulty:6
ApproachRate:8
SliderMultiplier:1.5
SliderTickRate:1

[Events]
//Background and Video events
0,0,"logo.png",0,0
//Break Periods
2,59606,68256
//Storyboard Layer 0 (Background)
//Storyboard Layer 1 (Fail)
//Storyboard Layer 2 (Pass)
//Storyboard Layer 3 (Foreground)
//Storyboard Layer 4 (Overlay)
//Storyboard Sound Samples

[TimingPoints]
-2994,300,4,2,1,30,1,0
606,-133.333333333333,4,2,1,30,0,0
1806,-100,4,2,1,50,0,0
20106,-125,4,2,1,48,0,0
20406,-166.666666666667,4,2,1,45,0,0
20706,-200,4,2,1,43,0,0
20931,-117.647058823529,4,2,1,45,0,0
40206,-100,4,2,1,65,0,1
59406,-133.333333333333,4,2,1,45,0,0
69006,-133.333333333333,4,2,1,50,0,0
88206,-133.333333333333,4,2,1,55,0,0

[Colours]
Combo1 : 179,168,168
Combo2 : 217,223,223

[HitObjects]
39,68,606,6,0,L|35:38,2,28.1250010728836,0|0|0,3:2|3:2|3:2,0:0:0:0:
111,39,906,6,0,L|107:9,2,28.1250010728836,0|0|0,3:2|3:2|3:2,0:0:0:0:
185,85,1206,1,8,0:2:0:0:
185,85,1281,1,8,0:2:0:0:
185,85,1356,1,8,0:2:0:0:
141,156,1506,1,8,0:2:0:0:
211,191,1656,1,8,0:2:0:0:
262,125,1806,6,0,P|294:104|397:137,1,150,2|8,3:2|0:2,0:0:0:0:
393,132,2256,2,0,L|384:46,1,75,2|0,3:2|0:0,0:0:0:0:
478,73,2556,1,2,3:2:0:0:
478,73,2706,2,0,L|486:162,1,75,10|2,0:2|0:2,0:0:0:0:
474,281,3006,2,0,P|376:227|341:256,1,150,2|8,3:2|0:2,0:0:0:0:
323,309,3456,2,0,L|324:397,1,75,2|0,3:2|0:0,0:0:0:0:
233,342,3756,1,2,3:2:0:0:
233,342,3906,2,0,L|137:337,1,75,10|2,0:2|0:2,0:0:0:0:
68,178,4206,6,0,P|106:242|203:221,1,150,2|8,3:2|0:2,0:0:0:0:
210,176,4656,2,0,P|204:132|201:99,1,75,2|0,3:2|0:0,0:0:0:0:
267,55,4956,1,2,3:2:0:0:
267,55,5106,2,0,L|351:44,1,75,10|2,0:2|0:2,0:0:0:0:
359,160,5406,6,0,P|283:174|191:176,1,150,2|8,3:2|0:2,0:0:0:0:
142,136,5856,2,0,P|131:167|145:215,1,75,2|0,3:2|0:0,0:0:0:0:
72,242,6156,1,2,3:2:0:0:
72,242,6306,2,0,P|83:273|69:321,1,75,10|2,0:2|0:2,0:0:0:0:
222,384,6606,6,0,P|259:320|330:347,1,150,2|8,3:2|0:2,0:0:0:0:
397,365,7056,2,0,L|472:353,2,75,2|0|2,3:2|0:0|3:2,0:0:0:0:
455,272,7506,2,0,L|367:287,1,75,10|2,0:2|0:2,0:0:0:0:
253,188,7806,6,0,P|237:138|328:129,1,150,2|8,3:2|0:2,0:0:0:0:
385,58,8256,2,0,L|410:233,1,150,2|2,3:2|3:2,0:0:0:0:
357,264,8706,2,0,P|304:280|258:260,1,75,10|2,0:2|0:2,0:0:0:0:
210,384,9006,6,0,L|219:302,1,75,2|0,3:2|0:0,0:0:0:0:
136,351,9306,1,10,0:2:0:0:
136,351,9456,2,0,P|105:290|10:306,1,150,2|2,3:2|3:2,0:0:0:0:
7,212,9906,1,10,0:2:0:0:
0,131,10056,1,2,0:2:0:0:
39,60,10206,5,2,3:2:0:0:
150,152,10506,1,10,0:2:0:0:
297,125,10806,1,2,0:2:0:0:
377,0,11106,1,10,0:2:0:0:
377,0,11406,6,0,P|356:71|410:118,1,150,2|8,3:2|0:2,0:0:0:0:
469,158,11856,2,0,P|485:201|468:251,1,75,2|0,3:2|0:0,0:0:0:0:
424,293,12156,1,2,3:2:0:0:
424,293,12306,2,0,L|317:284,1,75,10|2,0:2|0:2,0:0:0:0:
248,384,12606,6,0,P|235:321|145:323,1,150,2|8,3:2|0:2,0:0:0:0:
82,292,13056,2,0,P|37:265|33:231,1,75,2|0,3:2|0:0,0:0:0:0:
155,165,13356,1,2,3:2:0:0:
155,165,13506,2,0,P|135:201|143:234,1,75,10|2,0:2|0:2,0:0:0:0:
125,65,13806,6,0,P|164:127|259:99,1,150,2|8,3:2|0:2,0:0:0:0:
305,112,14256,2,0,L|297:27,1,75,2|0,3:2|0:0,0:0:0:0:
374,20,14556,1,2,3:2:0:0:
374,20,14706,2,0,L|381:94,1,75,10|2,0:2|0:2,0:0:0:0:
501,189,15006,6,0,P|440:184|407:273,1,150,2|8,3:2|0:2,0:0:0:0:
325,252,15456,2,0,P|272:270|243:260,1,75,2|0,3:2|0:0,0:0:0:0:
190,224,15756,1,2,3:2:0:0:
190,224,15906,2,0,L|184:140,1,75,10|2,0:2|0:2,0:0:0:0:
164,1,16206,6,0,P|162:51|66:67,1,150,2|8,3:2|0:2,0:0:0:0:
7,105,16656,2,0,L|24:191,1,75,2|0,3:2|0:0,0:0:0:0:
97,214,16956,1,2,3:2:0:0:
97,214,17106,2,0,L|82:287,1,75,10|2,0:2|0:2,0:0:0:0:
24,365,17406,6,0,P|80:322|171:369,1,150,2|8,3:2|0:2,0:0:0:0:
224,288,17856,2,0,L|236:367,1,75,2|0,3:2|0:0,0:0:0:0:
317,369,18156,1,2,3:2:0:0:
317,369,18306,2,0,L|405:353,1,75,10|2,0:2|0:2,0:0:0:0:
459,225,18606,6,0,P|433:257|433:306,1,75,2|0,3:2|0:0,0:0:0:0:
474,139,18906,1,10,0:2:0:0:
474,139,19056,2,0,P|431:204|338:185,1,150,2|2,3:2|3:2,0:0:0:0:
310,147,19506,2,0,L|305:57,1,75,10|2,0:2|0:2,0:0:0:0:
351,0,19806,6,0,P|302:47|214:27,1,150,2|2,3:2|0:2,0:0:0:0:
28,119,20406,6,0,P|82:86|113:94,1,89.9999972534181,2|2,0:2|0:2,0:0:0:0:
105,90,21006,6,0,L|95:241,1,127.50000243187,2|10,3:2|0:2,0:0:0:0:
23,255,21456,1,0,0:0:0:0:
23,255,21606,2,0,P|43:286|50:318,1,63.7500012159348,2|2,3:2|0:2,0:0:0:0:
133,302,21906,2,0,P|130:338|107:376,1,63.7500012159348,10|2,0:2|3:2,0:0:0:0:
197,374,22206,2,0,B|262:366|232:316|316:319,1,127.50000243187,2|8,3:2|0:2,0:0:0:0:
487,307,22806,2,0,L|480:374,1,63.7500012159348,0|0,3:2|0:0,0:0:0:0:
407,331,23106,1,8,0:2:0:0:
505,166,23406,6,0,P|455:179|410:104,1,127.50000243187,2|10,3:2|0:2,0:0:0:0:
352,73,23856,1,0,0:0:0:0:
352,73,24006,2,0,P|381:38|423:37,1,63.7500012159348,2|2,3:2|0:2,0:0:0:0:
484,12,24306,2,0,L|471:86,1,63.7500012159348,10|2,0:2|3:2,0:0:0:0:
407,128,24606,2,0,P|330:101|269:100,1,127.50000243187,2|8,3:2|0:2,0:0:0:0:
128,0,25206,2,0,L|140:75,1,63.7500012159348,0|0,3:2|0:0,0:0:0:0:
221,16,25506,1,8,0:2:0:0:
0,149,25806,6,0,P|45:204|111:198,1,127.50000243187,2|10,3:2|0:2,0:0:0:0:
178,244,26256,1,0,0:0:0:0:
178,244,26406,2,0,P|183:202|188:169,2,63.7500012159348,2|2|10,3:2|0:2|0:2,0:0:0:0:
99,306,26856,1,2,3:2:0:0:
99,306,27006,2,0,P|27:296|10:293,2,63.7500012159348,2|0|10,3:2|3:2|0:2,0:0:0:0:
185,333,27456,1,2,0:0:0:0:
185,333,27606,2,0,P|249:342|325:349,1,127.50000243187,2|10,3:2|0:2,0:0:0:0:
477,212,28206,6,0,P|401:212|358:274,1,127.50000243187,2|8,3:2|0:2,0:0:0:0:
367,245,28806,2,0,L|359:179,1,63.7500012159348,2|0,3:2|0:2,0:0:0:0:
273,214,29106,2,0,L|265:148,1,63.7500012159348,10|0,0:2|3:2,0:0:0:0:
265,62,29406,2,0,P|188:84|176:152,1,127.50000243187,2|8,3:2|0:2,0:0:0:0:
380,6,30006,2,0,L|457:3,2,63.7500012159348,0|0|8,3:2|0:0|0:2,0:0:0:0:
265,150,30606,6,0,P|283:233|294:289,1,127.50000243187,2|10,3:2|0:2,0:0:0:0:
356,345,31056,1,0,0:0:0:0:
356,345,31206,2,0,P|319:356|275:360,1,63.7500012159348,2|2,3:2|0:2,0:0:0:0:
218,319,31506,2,0,P|213:287|203:257,1,63.7500012159348,10|2,0:2|3:2,0:0:0:0:
136,351,31806,2,0,P|53:347|37:287,1,127.50000243187,2|8,3:2|0:2,0:0:0:0:
77,152,32406,2,0,L|93:219,2,63.7500012159348,0|0|8,3:2|0:0|0:2,0:0:0:0:
89,0,33006,6,0,P|120:45|200:49,1,127.50000243187,2|10,3:2|0:2,0:0:0:0:
273,31,33456,1,0,0:0:0:0:
273,31,33606,2,0,L|260:117,2,63.7500012159348,2|2|10,3:2|0:2|0:2,0:0:0:0:
355,74,34056,1,2,3:2:0:0:
355,74,34206,2,0,P|443:103|467:151,1,127.50000243187,2|8,3:2|0:2,0:0:0:0:
287,208,34806,2,0,L|215:200,2,63.7500012159348,0|0|8,3:2|0:0|0:2,0:0:0:0:
166,372,35406,5,2,3:2:0:0:
166,372,35556,2,0,L|85:367,1,63.7500012159348,0|10,3:2|0:2,0:0:0:0:
143,285,35856,1,2,0:2:0:0:
143,285,36006,2,0,P|72:279|41:221,1,127.50000243187,2|8,3:2|0:2,0:0:0:0:
68,39,36606,5,2,3:2:0:0:
68,39,36756,2,0,L|80:104,1,63.7500012159348,0|10,3:2|0:2,0:0:0:0:
151,22,37056,1,2,0:2:0:0:
151,22,37206,2,0,P|179:62|272:58,1,127.50000243187,2|10,3:2|0:2,0:0:0:0:
308,210,37806,6,0,P|241:200|158:195,2,127.50000243187,2|8|2,3:2|0:2|3:2,0:0:0:0:
308,210,38556,1,0,0:2:0:0:
268,292,38706,2,0,L|273:365,1,63.7500012159348,10|0,0:2|3:2,0:0:0:0:
351,381,39006,2,0,P|432:371|457:263,1,191.250003647804,2|0,3:2|0:0,0:0:0:0:
462,276,39606,2,0,B|436:227|436:227|466:71,1,191.250003647804,2|0,0:2|0:0,0:0:0:0:
470,5,40206,6,0,B|373:-5|420:70|301:46,1,150,2|8,3:2|0:2,0:0:0:0:
265,108,40656,2,0,P|249:61|235:29,2,75,0|0|0,3:2|0:0|3:2,0:0:0:0:
344,130,41106,2,0,P|335:175|327:221,1,75,8|0,0:2|0:0,0:0:0:0:
512,295,41406,6,0,P|477:237|380:243,1,150,2|8,3:2|0:2,0:0:0:0:
334,281,41856,2,0,B|228:297|228:297|190:279,1,150,0|0,3:2|3:2,0:0:0:0:
227,140,42306,2,0,L|240:216,1,75,8|0,0:2|0:0,0:0:0:0:
133,345,42606,6,0,P|107:310|139:207,1,150,2|8,3:2|0:2,0:0:0:0:
130,213,43056,1,0,3:2:0:0:
73,137,43206,2,0,L|165:125,1,75,2|0,0:2|3:2,0:0:0:0:
147,48,43506,2,0,L|72:57,1,75,10|0,0:2|0:0,0:0:0:0:
283,23,43806,6,0,P|238:49|261:139,1,150,2|8,3:2|0:2,0:0:0:0:
293,216,44256,1,0,3:2:0:0:
293,216,44406,2,0,P|329:191|339:155,2,75,0|0|8,0:0|3:2|0:2,0:0:0:0:
148,368,45006,6,0,P|179:317|284:318,1,150,2|8,3:2|0:2,0:0:0:0:
347,321,45456,1,0,3:2:0:0:
347,321,45606,2,0,P|361:365|390:385,1,75,2|0,0:2|3:2,0:0:0:0:
453,341,45906,2,0,P|439:297|410:277,1,75,10|0,0:2|0:0,0:0:0:0:
492,241,46206,2,0,L|326:233,1,150,2|8,3:2|0:2,0:0:0:0:
276,171,46656,1,0,3:2:0:0:
276,171,46806,2,0,P|311:111|400:120,1,150,2|8,0:2|0:2,0:0:0:0:
202,49,47406,6,0,P|193:84|183:123,1,75,2|0,3:2|0:0,0:0:0:0:
209,245,47706,2,0,P|183:219|154:191,1,75,10|0,0:2|3:2,0:0:0:0:
35,153,48006,2,0,P|69:143|108:132,1,75,2|0,0:2|3:2,0:0:0:0:
22,239,48306,1,10,0:2:0:0:
22,239,48456,2,0,P|70:245|133:338,1,150,2|0,0:2|0:0,0:0:0:0:
218,325,48906,2,0,L|292:315,1,75,8|0,0:2|3:2,0:0:0:0:
365,362,49206,2,0,P|379:322|368:280,1,75,0|0,0:0|3:2,0:0:0:0:
319,163,49506,2,0,P|305:203|316:245,1,75,8|0,0:2|0:0,0:0:0:0:
499,125,49806,6,0,P|449:194|363:189,1,150,2|8,3:2|0:2,0:0:0:0:
257,100,50256,2,0,P|292:81|347:81,1,75,0|0,3:2|0:0,0:0:0:0:
417,37,50556,1,0,3:2:0:0:
417,37,50706,2,0,L|406:121,1,75,8|0,0:2|0:0,0:0:0:0:
221,172,51006,6,0,P|175:117|207:35,1,150,2|8,3:2|0:2,0:0:0:0:
139,0,51456,2,0,B|30:5|30:5|-10:40,1,150,0|0,3:2|3:2,0:0:0:0:
58,81,51906,2,0,L|144:78,1,75,8|0,0:2|0:0,0:0:0:0:
0,197,52206,6,0,P|54:179|119:257,1,150,2|8,3:2|0:2,0:0:0:0:
202,251,52656,1,0,3:2:0:0:
202,251,52806,2,0,P|178:299|133:311,1,75,2|0,0:2|3:2,0:0:0:0:
13,328,53106,2,0,P|40:308|86:308,1,75,10|0,0:2|0:0,0:0:0:0:
160,308,53406,2,0,P|194:347|285:332,1,150,2|8,3:2|0:2,0:0:0:0:
357,280,53856,1,0,3:2:0:0:
357,280,54006,2,0,L|369:368,2,75,0|0|8,0:0|3:2|0:2,0:0:0:0:
479,74,54606,6,0,P|408:83|387:177,1,150,2|8,3:2|0:2,0:0:0:0:
378,148,55056,1,0,3:2:0:0:
305,206,55206,2,0,P|285:161|295:112,1,75,2|0,0:2|3:2,0:0:0:0:
253,51,55506,2,0,L|355:61,1,75,10|0,0:2|0:0,0:0:0:0:
207,120,55806,6,0,B|124:118|163:196|46:182,1,150,2|8,3:2|0:2,0:0:0:0:
78,183,56256,1,0,3:2:0:0:
23,122,56406,2,0,L|43:286,1,150,2|8,0:2|0:2,0:0:0:0:
149,361,57006,6,0,P|172:324|160:285,1,75,2|0,3:2|0:0,0:0:0:0:
220,222,57306,2,0,P|240:260|280:269,1,75,10|0,0:2|3:2,0:0:0:0:
304,352,57606,2,0,P|260:350|232:380,1,75,2|0,0:2|3:2,0:0:0:0:
268,270,57906,1,10,0:2:0:0:
354,286,58056,2,0,P|404:294|455:216,1,150,2|0,0:2|0:0,0:0:0:0:
403,154,58506,2,0,P|284:148|232:146,2,150,8|0|8,0:2|0:0|0:2,0:0:0:0:
274,274,59406,1,2,3:2:0:0:
512,192,69006,6,0,P|455:201|407:60,2,225.000008583069,2|0|0,3:2|3:2|3:2,0:0:0:0:
313,361,70506,1,10,0:2:0:0:
327,277,70806,1,2,3:2:0:0:
237,264,71106,1,10,0:2:0:0:
217,352,71406,2,0,P|121:326|34:317,2,168.750006437302,2|2|10,3:2|0:0|0:2,0:0:0:0:
144,291,72606,2,0,L|119:167,1,112.500004291535,0|8,3:2|0:2,0:0:0:0:
35,4,73206,2,0,L|57:114,1,112.500004291535,2|8,3:2|0:2,0:0:0:0:
345,112,73806,6,0,P|285:66|145:96,2,225.000008583069,2|0|0,3:2|3:2|3:2,0:0:0:0:
473,316,75306,1,10,0:2:0:0:
491,222,75606,1,2,3:2:0:0:
384,203,75906,1,10,0:2:0:0:
361,294,76206,2,0,P|217:308|14:336,1,337.500012874604,2|8,3:2|0:2,0:0:0:0:
172,285,77406,2,0,P|218:198|131:106,1,225.000008583069,2|0,3:2|3:2,0:0:0:0:
354,6,78606,6,0,L|365:76,3,56.2500021457673,2|0|8|0,3:2|3:2|0:2|0:0,0:0:0:0:
262,1,79206,2,0,L|273:71,3,56.2500021457673,0|0|8|0,3:2|0:0|0:2|3:2,0:0:0:0:
183,44,79806,1,0,3:2:0:0:
180,49,80106,6,0,L|102:64,1,56.2500021457673,10|0,0:2|0:0,0:0:0:0:
92,129,80406,2,0,L|128:171,1,56.2500021457673,2|0,3:2|0:0,0:0:0:0:
206,166,80706,2,0,L|232:90,1,56.2500021457673,10|0,0:2|3:2,0:0:0:0:
374,174,81006,2,0,L|186:164,2,168.750006437302,2|2|10,3:2|0:0|0:2,0:0:0:0:
505,285,82206,2,0,P|456:329|348:313,1,168.750006437302,0|0,3:2|0:0,0:0:0:0:
358,320,82806,2,0,P|281:329|253:366,1,112.500004291535,2|8,3:2|0:2,0:0:0:0:
36,376,83406,6,0,L|26:309,3,56.2500021457673,2|0|8|0,3:2|3:2|0:2|0:0,0:0:0:0:
117,356,84006,2,0,L|107:289,3,56.2500021457673,0|0|8|0,3:2|0:0|0:2|3:2,0:0:0:0:
197,318,84606,1,0,3:2:0:0:
202,307,84906,6,0,L|271:320,1,56.2500021457673,10|0,0:2|0:0,0:0:0:0:
350,214,85206,2,0,L|281:227,1,56.2500021457673,2|0,3:2|0:0,0:0:0:0:
164,135,85506,2,0,L|233:148,1,56.2500021457673,10|0,0:2|3:2,0:0:0:0:
356,41,85806,6,0,L|223:66,1,112.500004291535,2|8,3:2|0:2,0:0:0:0:
245,61,86256,2,0,L|114:41,1,112.500004291535,2|0,0:0|0:0,0:0:0:0:
47,20,86706,2,0,B|11:106|99:90|55:195,1,168.750006437302,10|0,0:2|3:2,0:0:0:0:
31,255,87306,2,0,P|76:222|142:231,2,112.500004291535,10|2|10,0:2|3:2|0:2,0:0:0:0:
263,384,88206,6,0,L|250:320,1,56.2500021457673,2|0,3:2|3:2,0:0:0:0:
340,365,88506,2,0,L|327:301,1,56.2500021457673,8|0,0:2|0:0,0:0:0:0:
269,376,88806,2,0,L|256:312,1,56.2500021457673,0|0,3:2|0:0,0:0:0:0:
346,357,89106,2,0,L|333:293,1,56.2500021457673,8|0,0:2|3:2,0:0:0:0:
290,235,89406,1,0,3:2:0:0:
296,223,89706,6,0,L|373:228,1,56.2500021457673,10|0,0:2|0:0,0:0:0:0:
372,100,90006,2,0,L|329:164,1,56.2500021457673,2|0,3:2|0:0,0:0:0:0:
440,227,90306,2,0,L|405:157,1,56.2500021457673,10|0,0:2|3:2,0:0:0:0:
257,145,90606,6,0,P|196:183|137:167,1,112.500004291535,2|8,3:2|0:2,0:0:0:0:
185,103,91056,2,0,L|171:49,2,56.2500021457673,2|0|0,0:0|3:2|0:0,0:0:0:0:
92,220,91506,2,0,P|79:177|121:110,1,112.500004291535,10|0,0:2|3:2,0:0:0:0:
166,264,92106,1,8,0:2:0:0:
19,375,92406,2,0,L|11:307,1,56.2500021457673,2|0,3:2|0:0,0:0:0:0:
17,315,92706,1,8,0:2:0:0:
204,346,93006,6,0,L|327:355,1,112.500004291535,2|8,3:2|0:2,0:0:0:0:
321,349,93456,1,0,0:0:0:0:
307,273,93606,2,0,L|240:268,2,56.2500021457673,0|0|8,3:2|0:0|0:2,0:0:0:0:
330,193,94056,2,0,L|263:188,2,56.2500021457673,0|0|0,3:2|3:2|3:2,0:0:0:0:
389,254,94506,6,0,L|406:324,1,56.2500021457673,10|0,0:2|0:0,0:0:0:0:
470,233,94806,2,0,L|487:303,1,56.2500021457673,2|0,3:2|0:0,0:0:0:0:
398,115,95106,2,0,L|415:185,1,56.2500021457673,10|0,0:2|3:2,0:0:0:0:
403,31,95406,6,0,P|350:41|305:103,1,112.500004291535,2|8,3:2|0:2,0:0:0:0:
259,153,95856,1,0,0:0:0:0:
259,153,96006,2,0,P|229:114|227:88,2,56.2500021457673,0|0|8,3:2|0:0|0:2,0:0:0:0:
345,168,96456,1,0,3:2:0:0:
345,168,96606,2,0,L|351:228,1,56.2500021457673,2|0,3:2|3:2,0:0:0:0:
266,234,96906,2,0,L|272:294,1,56.2500021457673,8|0,0:2|0:0,0:0:0:0:
355,172,97206,2,0,L|361:232,1,56.2500021457673,0|0,3:2|0:0,0:0:0:0:
276,238,97506,2,0,L|282:298,1,56.2500021457673,8|0,0:2|3:2,0:0:0:0:
