osu file format v14

[General]
AudioFilename: audio.mp3
AudioLeadIn: 0
PreviewTime: 139272
Countdown: 0
SampleSet: Normal
StackLeniency: 0.7
Mode: 1
LetterboxInBreaks: 0
WidescreenStoryboard: 0

[Editor]
Bookmarks: 56949,150827,167970
DistanceSpacing: 0.1
BeatDivisor: 4
GridSize: 4
TimelineZoom: 2.3

[Metadata]
Title:Oppa Toby Style
TitleUnicode:Oppa Toby Style
Artist:Toby Fox
ArtistUnicode:Toby Fox
Creator:Coryn
Version:[S] Collide.
Source:Homestuck
Tags:what pumpkin act 6 andrew hussie mspaintadventures radiation
BeatmapID:1692571
BeatmapSetID:806360

[Difficulty]
HPDrainRate:5
CircleSize:5
OverallDifficulty:6.4
ApproachRate:5
SliderMultiplier:1.4
SliderTickRate:1

[Events]
//Background and Video events
0,0,"COLLIDE.jpg",0,0
//Break Periods
2,127865,138072
//Storyboard Layer 0 (Background)
//Storyboard Layer 1 (Fail)
//Storyboard Layer 2 (Pass)
//Storyboard Layer 3 (Foreground)
//Storyboard Layer 4 (Overlay)
//Storyboard Sound Samples

[TimingPoints]
2079,447.761194029851,4,1,0,40,1,0
21780,350.877192982456,4,1,0,65,1,0
26691,-97.0873786407767,4,1,0,65,0,0
26866,-90.9090909090909,4,1,0,65,0,0
27042,-86.9565217391304,4,1,0,65,0,0
27217,-90.9090909090909,4,1,0,65,0,0
27276,-92.5925925925926,4,1,0,65,0,0
27334,-94.3396226415094,4,1,0,65,0,0
27393,-96.1538461538461,4,1,0,65,0,0
27568,-100,4,1,0,65,0,0
32305,-97.0873786407767,4,1,0,65,0,0
32480,-90.9090909090909,4,1,0,65,0,0
32656,-86.9565217391304,4,1,0,65,0,0
32831,-90.9090909090909,4,1,0,65,0,0
32890,-92.5925925925926,4,1,0,65,0,0
32948,-94.3396226415094,4,1,0,65,0,0
33007,-96.1538461538461,4,1,0,65,0,0
33182,-100,4,1,0,65,0,0
44235,-100,4,1,0,65,0,0
45639,-100,4,1,0,65,0,1
50550,-97.0873786407767,4,1,0,65,0,1
50814,-90.9090909090909,4,1,0,65,0,1
51077,-86.9565217391304,4,1,0,65,0,1
51252,-90.9090909090909,4,1,0,65,0,1
51340,-92.5925925925926,4,1,0,65,0,1
51428,-94.3396226415094,4,1,0,65,0,1
51515,-96.1538461538461,4,1,0,65,0,1
51603,-98.0392156862745,4,1,0,65,0,1
51691,-100,4,1,0,65,0,1
56164,-97.0873786407767,4,1,0,65,0,1
56428,-90.9090909090909,4,1,0,65,0,1
56691,-86.9565217391304,4,1,0,65,0,1
56866,-90.9090909090909,4,1,0,65,0,1
56954,-92.5925925925926,4,1,0,65,0,1
57042,-94.3396226415094,4,1,0,65,0,1
57129,-96.1538461538461,4,1,0,65,0,1
57217,-98.0392156862745,4,1,0,65,0,1
57305,-100,4,1,0,65,0,1
61778,-97.0873786407767,4,1,0,65,0,1
62042,-90.9090909090909,4,1,0,65,0,1
62305,-86.9565217391304,4,1,0,65,0,1
62480,-90.9090909090909,4,1,0,65,0,1
62568,-92.5925925925926,4,1,0,65,0,1
62656,-94.3396226415094,4,1,0,65,0,1
62743,-96.1538461538461,4,1,0,65,0,1
62831,-98.0392156862745,4,1,0,65,0,1
62919,-100,4,1,0,65,0,1
67394,-100,4,1,0,65,0,0
69498,-100,4,1,0,65,0,0
80814,-101.694915254237,4,1,0,65,0,0
80901,-103.448275862069,4,1,0,65,0,0
80989,-105.263157894737,4,1,0,65,0,0
81077,-107.142857142857,4,1,0,65,0,0
81164,-109.090909090909,4,1,0,65,0,0
81252,-111.111111111111,4,1,0,65,0,0
81340,-113.207547169811,4,1,0,65,0,0
81428,-115.384615384615,4,1,0,65,0,0
81515,-117.647058823529,4,1,0,65,0,0
81603,-120,4,1,0,65,0,0
81691,-122.448979591837,4,1,0,65,0,0
81778,-125,4,1,0,65,0,0
82130,357.142857142857,4,1,0,65,1,0
82130,-122.80701754386,4,1,0,65,0,0
83915,-119.047619047619,4,1,0,65,0,0
84094,-122.80701754386,4,1,0,65,0,0
84630,-119.047619047619,4,1,0,65,0,0
84808,-122.80701754386,4,1,0,65,0,0
86772,-119.047619047619,4,1,0,65,0,0
86951,-122.80701754386,4,1,0,65,0,0
87487,-119.047619047619,4,1,0,65,0,0
87665,-117.647058823529,4,1,0,65,0,0
87755,-114.942528735632,4,1,0,65,0,0
87844,-112.359550561798,4,1,0,65,0,1
88022,-109.89010989011,4,1,0,65,0,1
88112,-107.52688172043,4,1,0,65,0,1
88201,-105.263157894737,4,1,0,65,0,1
88290,-103.092783505155,4,1,0,65,0,1
88380,-101.010101010101,4,1,0,65,0,1
88469,-100,4,1,0,65,0,1
89630,-93.4579439252336,4,1,0,65,0,1
89808,-100,4,1,0,65,0,1
90344,-93.4579439252336,4,1,0,65,0,1
90522,-100,4,1,0,65,0,1
92487,-93.4579439252336,4,1,0,65,0,1
93380,-100,4,1,0,65,0,1
96772,-93.4579439252336,4,1,0,65,0,1
96951,-100,4,1,0,65,0,1
97487,-93.4579439252336,4,1,0,65,0,1
97665,-100,4,1,0,65,0,1
98201,-93.4579439252336,4,1,0,65,0,1
99094,-100,4,1,0,65,0,1
102487,-93.4579439252336,4,1,0,65,0,1
102665,-100,4,1,0,65,0,1
103201,-93.4579439252336,4,1,0,65,0,1
103380,-100,4,1,0,65,0,1
103915,-93.4579439252336,4,1,0,65,0,1
104094,-100,4,1,0,65,0,1
104629,-93.4579439252336,4,1,0,65,0,1
104808,-100,4,1,0,65,0,1
104987,-100,4,1,0,65,0,0
127844,-100,4,1,0,5,0,0
139094,-100,4,1,0,65,0,0
160790,-100,4,1,0,55,0,0
167754,-100,4,1,0,65,0,0
167844,-100,4,1,0,65,0,1
169629,-93.4579439252336,4,1,0,65,0,1
169808,-100,4,1,0,65,0,1
170344,-93.4579439252336,4,1,0,65,0,1
170522,-100,4,1,0,65,0,1
172487,-93.4579439252336,4,1,0,65,0,1
172665,-100,4,1,0,65,0,1
173201,-93.4579439252336,4,1,0,65,0,1
173379,-100,4,1,0,65,0,1
175344,-93.4579439252336,4,1,0,65,0,1
175522,-100,4,1,0,65,0,1
176058,-93.4579439252336,4,1,0,65,0,1
176237,-100,4,1,0,65,0,1
178201,-93.4579439252336,4,1,0,65,0,1
179094,-100,4,1,0,65,0,1
181058,-93.4579439252336,4,1,0,65,0,1
181237,-100,4,1,0,65,0,1
181772,-93.4579439252336,4,1,0,65,0,1
181951,-100,4,1,0,65,0,1
183915,-93.4579439252336,4,1,0,65,0,1
184094,-100,4,1,0,65,0,1
184629,-93.4579439252336,4,1,0,65,0,1
184808,-100,4,1,0,65,0,1
186772,-93.4579439252336,4,1,0,65,0,1
186951,-100,4,1,0,65,0,1
187487,-93.4579439252336,4,1,0,65,0,1
187665,-100,4,1,0,65,0,1
187844,-100,4,1,0,65,0,0
190522,-102.040816326531,4,1,0,65,0,0
190701,357.142857142857,3,1,0,65,1,0
190701,-104.166666666667,4,1,0,65,0,0
191058,-111.111111111111,4,1,0,65,0,0
193558,357.142857142857,3,1,0,65,1,0
193558,-111.111111111111,4,1,0,65,0,0
196415,357.142857142857,3,1,0,65,1,0
196415,-111.111111111111,4,1,0,65,0,0
199272,357.142857142857,3,1,0,65,1,0
199272,-111.111111111111,4,1,0,65,0,0
200343,357.142857142857,5,1,0,65,1,8
200343,-110.169491525424,4,1,0,65,0,0
200462,-109.243697478992,4,1,0,65,0,0
200581,-108.333333333333,4,1,0,65,0,0
200700,-107.438016528926,4,1,0,65,0,0
200819,-106.55737704918,4,1,0,65,0,0
200938,-105.691056910569,4,1,0,65,0,0
201057,-104.838709677419,4,1,0,65,0,0
201176,-104,4,1,0,65,0,0
201295,-103.174603174603,4,1,0,65,0,0
201414,-102.362204724409,4,1,0,65,0,0
201533,-101.5625,4,1,0,65,0,0
201652,-100.77519379845,4,1,0,65,0,0
201771,-100,4,1,0,65,0,0
202128,357.142857142857,3,1,0,55,1,0
202128,-100,4,1,0,55,0,0
210699,-100,4,1,0,65,0,0
242038,-100,4,1,0,55,0,0
244985,-100,4,1,0,30,0,0
249270,-76.9230769230769,4,1,0,30,0,0
253556,-62.5,4,1,0,30,0,0
257842,-100,4,1,0,30,0,0
259270,-125,4,1,0,30,0,0
259985,357.142857142857,4,1,0,30,1,0
259985,-125,4,1,0,30,0,0
264985,-121.212121212121,4,1,0,30,0,0
265252,-117.647058823529,4,1,0,30,0,0
265520,-114.285714285714,4,1,0,30,0,0
265610,-111.111111111111,4,1,0,50,0,0
270520,-109.58904109589,4,1,0,50,0,0
270699,-108.108108108108,4,1,0,50,0,0
270967,-105.263157894737,4,1,0,50,0,0
271235,-102.564102564103,4,1,0,50,0,0
271413,-100,4,1,0,60,0,1
282842,-100,4,1,0,60,0,0
294270,-100,4,1,0,50,0,0
305699,-100,4,1,0,65,0,1
325699,-100,4,1,0,50,0,0
328556,-100,4,1,0,65,0,1
334270,-100,4,1,0,65,0,0

[HitObjects]
256,247,3870,5,8,0:0:0:0:
256,247,4317,1,0,0:0:0:0:
256,247,4765,1,8,0:0:0:0:
256,247,5213,1,0,0:0:0:0:
256,247,5661,1,8,0:0:0:0:
162,109,5884,1,8,0:0:0:0:
162,109,5996,1,8,0:0:0:0:
162,109,6108,1,0,0:0:0:0:
162,109,6332,1,0,0:0:0:0:
162,109,6556,1,8,0:0:0:0:
162,109,7004,1,0,0:0:0:0:
218,185,7452,1,8,0:0:0:0:
218,185,7676,1,8,0:0:0:0:
218,185,7787,1,8,0:0:0:0:
218,185,7899,1,0,0:0:0:0:
218,185,8123,1,0,0:0:0:0:
218,185,8347,1,8,0:0:0:0:
218,185,8571,1,8,0:0:0:0:
218,185,8795,1,0,0:0:0:0:
218,185,9019,1,8,0:0:0:0:
218,185,9243,1,0,0:0:0:0:
218,185,9690,1,8,0:0:0:0:
218,185,10138,1,0,0:0:0:0:
256,247,11034,1,8,0:0:0:0:
297,197,11258,1,8,0:0:0:0:
256,247,11481,1,0,0:0:0:0:
297,197,11705,1,0,0:0:0:0:
256,247,11929,1,8,0:0:0:0:
297,197,12153,1,0,0:0:0:0:
256,247,12377,1,0,0:0:0:0:
297,197,12601,1,0,0:0:0:0:
256,247,12825,1,8,0:0:0:0:
162,109,13048,1,8,0:0:0:0:
162,109,13160,1,8,0:0:0:0:
162,109,13272,1,0,0:0:0:0:
162,109,13496,1,8,0:0:0:0:
162,109,13720,1,0,0:0:0:0:
401,163,13944,1,8,0:0:0:0:
162,109,14168,1,0,0:0:0:0:
401,163,14392,1,0,0:0:0:0:
218,185,14616,1,8,0:0:0:0:
218,185,14840,1,8,0:0:0:0:
218,185,14951,1,8,0:0:0:0:
218,185,15063,1,0,0:0:0:0:
218,185,15287,1,0,0:0:0:0:
218,185,15511,1,8,0:0:0:0:
218,185,15735,1,8,0:0:0:0:
218,185,15959,1,0,0:0:0:0:
218,185,16183,1,8,0:0:0:0:
218,185,16407,1,0,0:0:0:0:
218,185,16854,1,8,0:0:0:0:
218,185,17302,1,0,0:0:0:0:
274,121,21781,1,0,0:0:0:0:
428,243,21955,1,8,0:0:0:0:
274,121,22130,1,0,0:0:0:0:
64,116,22218,1,0,0:0:0:0:
428,243,22306,1,8,0:0:0:0:
274,121,22481,1,0,0:0:0:0:
64,116,22569,1,0,0:0:0:0:
428,243,22657,1,8,0:0:0:0:
64,116,22744,1,8,0:0:0:0:
274,121,22832,1,0,0:0:0:0:
64,116,22920,1,0,0:0:0:0:
428,243,23008,1,8,0:0:0:0:
274,121,23183,1,0,0:0:0:0:
428,243,23358,1,8,0:0:0:0:
274,121,23534,1,0,0:0:0:0:
64,116,23622,1,8,0:0:0:0:
428,243,23709,1,8,0:0:0:0:
263,44,23797,1,0,0:0:0:0:
403,252,23885,1,8,0:0:0:0:
428,243,24060,1,0,0:0:0:0:
141,242,24148,1,8,0:0:0:0:
301,121,24236,1,0,0:0:0:0:
141,242,24323,1,0,0:0:0:0:
428,243,24411,1,8,0:0:0:0:
403,252,24470,1,0,0:0:0:0:
132,123,24528,1,0,0:0:0:0:
274,121,24587,1,0,0:0:0:0:
428,243,24762,1,8,0:0:0:0:
274,121,24937,1,0,0:0:0:0:
64,116,25025,1,0,0:0:0:0:
428,243,25113,1,8,0:0:0:0:
274,121,25288,1,0,0:0:0:0:
64,116,25376,1,0,0:0:0:0:
428,243,25464,1,8,0:0:0:0:
64,116,25551,1,0,0:0:0:0:
274,121,25639,1,0,0:0:0:0:
64,116,25727,1,0,0:0:0:0:
428,243,25815,1,8,0:0:0:0:
274,121,25990,1,0,0:0:0:0:
428,243,26165,1,8,0:0:0:0:
274,121,26341,1,0,0:0:0:0:
64,116,26429,1,0,0:0:0:0:
428,243,26516,1,8,0:0:0:0:
263,44,26604,1,0,0:0:0:0:
403,252,26692,1,12,0:0:0:0:
191,123,26867,1,4,0:0:0:0:
191,123,27043,1,4,0:0:0:0:
191,123,27218,1,8,0:0:0:0:
326,105,27277,1,0,0:0:0:0:
326,105,27335,1,0,0:0:0:0:
274,121,27394,1,0,0:0:0:0:
428,243,27569,1,8,0:0:0:0:
274,121,27744,1,0,0:0:0:0:
64,116,27832,1,0,0:0:0:0:
428,243,27920,1,8,0:0:0:0:
182,193,28008,1,8,0:0:0:0:
274,121,28095,1,0,0:0:0:0:
428,243,28271,1,8,0:0:0:0:
64,116,28358,1,8,0:0:0:0:
274,121,28446,1,0,0:0:0:0:
64,116,28534,1,0,0:0:0:0:
428,243,28622,1,8,0:0:0:0:
274,121,28797,1,0,0:0:0:0:
428,243,28972,1,8,0:0:0:0:
274,121,29148,1,0,0:0:0:0:
64,116,29236,1,8,0:0:0:0:
428,243,29323,1,8,0:0:0:0:
263,44,29411,1,0,0:0:0:0:
403,252,29499,1,8,0:0:0:0:
233,146,29587,1,0,0:0:0:0:
428,243,29674,1,0,0:0:0:0:
141,242,29762,1,8,0:0:0:0:
301,121,29850,1,0,0:0:0:0:
141,242,29937,1,0,0:0:0:0:
428,243,30025,1,8,0:0:0:0:
403,252,30084,1,0,0:0:0:0:
132,123,30142,1,0,0:0:0:0:
274,121,30201,1,0,0:0:0:0:
428,243,30376,1,8,0:0:0:0:
274,121,30551,1,0,0:0:0:0:
64,116,30639,1,0,0:0:0:0:
428,243,30727,1,8,0:0:0:0:
274,121,30902,1,0,0:0:0:0:
428,243,31078,1,8,0:0:0:0:
64,116,31165,1,8,0:0:0:0:
274,121,31253,1,0,0:0:0:0:
64,116,31341,1,0,0:0:0:0:
428,243,31429,1,8,0:0:0:0:
274,121,31604,1,0,0:0:0:0:
428,243,31779,1,8,0:0:0:0:
274,121,31955,1,0,0:0:0:0:
64,116,32043,1,8,0:0:0:0:
428,243,32130,1,8,0:0:0:0:
263,44,32218,1,0,0:0:0:0:
403,252,32306,1,12,0:0:0:0:
251,172,32481,1,4,0:0:0:0:
251,172,32657,1,4,0:0:0:0:
428,243,32832,1,8,0:0:0:0:
403,252,32891,1,0,0:0:0:0:
132,123,32949,1,0,0:0:0:0:
274,121,33008,1,0,0:0:0:0:
428,243,33183,1,8,0:0:0:0:
274,121,33358,1,0,0:0:0:0:
64,116,33446,1,0,0:0:0:0:
428,243,33534,1,8,0:0:0:0:
182,193,33622,1,8,0:0:0:0:
274,121,33709,1,0,0:0:0:0:
428,243,33885,1,8,0:0:0:0:
64,116,33972,1,8,0:0:0:0:
274,121,34060,1,0,0:0:0:0:
428,243,34236,1,8,0:0:0:0:
274,121,34411,1,0,0:0:0:0:
428,243,34586,1,8,0:0:0:0:
274,121,34762,1,0,0:0:0:0:
64,116,34850,1,8,0:0:0:0:
428,243,34937,1,8,0:0:0:0:
403,252,35113,1,8,0:0:0:0:
269,53,35201,1,0,0:0:0:0:
428,243,35288,1,0,0:0:0:0:
141,242,35376,1,8,0:0:0:0:
301,121,35464,1,0,0:0:0:0:
141,242,35551,1,0,0:0:0:0:
428,243,35639,1,8,0:0:0:0:
403,252,35698,1,0,0:0:0:0:
132,123,35756,1,0,0:0:0:0:
274,121,35815,1,0,0:0:0:0:
428,243,35990,1,8,0:0:0:0:
274,121,36165,1,0,0:0:0:0:
64,116,36253,1,0,0:0:0:0:
428,243,36341,1,8,0:0:0:0:
274,121,36516,1,0,0:0:0:0:
246,84,36604,1,0,0:0:0:0:
428,243,36692,1,8,0:0:0:0:
64,116,36779,1,0,0:0:0:0:
274,121,36867,1,0,0:0:0:0:
64,116,36955,1,0,0:0:0:0:
428,243,37043,1,8,0:0:0:0:
274,121,37218,1,0,0:0:0:0:
428,243,37393,1,8,0:0:0:0:
274,121,37569,1,0,0:0:0:0:
64,116,37657,1,8,0:0:0:0:
428,243,37744,1,8,0:0:0:0:
403,252,37920,1,8,0:0:0:0:
233,146,38008,1,0,0:0:0:0:
428,243,38095,1,0,0:0:0:0:
141,242,38183,1,8,0:0:0:0:
301,121,38271,1,0,0:0:0:0:
141,242,38358,1,0,0:0:0:0:
428,243,38446,1,8,0:0:0:0:
403,252,38505,1,0,0:0:0:0:
132,123,38563,1,0,0:0:0:0:
274,121,38622,1,0,0:0:0:0:
428,243,38797,1,8,0:0:0:0:
274,121,38972,1,0,0:0:0:0:
64,116,39060,1,0,0:0:0:0:
428,243,39148,1,8,0:0:0:0:
274,121,39323,1,0,0:0:0:0:
64,116,39411,1,0,0:0:0:0:
428,243,39499,1,8,0:0:0:0:
64,116,39586,1,8,0:0:0:0:
274,121,39674,1,0,0:0:0:0:
64,116,39762,1,0,0:0:0:0:
428,243,39850,1,8,0:0:0:0:
274,121,40025,1,0,0:0:0:0:
428,243,40200,1,8,0:0:0:0:
274,121,40376,1,0,0:0:0:0:
64,116,40464,1,8,0:0:0:0:
428,243,40551,1,8,0:0:0:0:
263,44,40639,1,0,0:0:0:0:
403,252,40727,1,8,0:0:0:0:
428,243,40902,1,0,0:0:0:0:
141,242,40990,1,8,0:0:0:0:
301,121,41078,1,0,0:0:0:0:
141,242,41165,1,0,0:0:0:0:
428,243,41253,1,8,0:0:0:0:
403,252,41312,1,0,0:0:0:0:
132,123,41370,1,0,0:0:0:0:
274,121,41429,1,0,0:0:0:0:
428,243,41604,1,8,0:0:0:0:
274,121,41779,1,0,0:0:0:0:
64,116,41867,1,0,0:0:0:0:
428,243,41955,1,8,0:0:0:0:
274,121,42130,1,0,0:0:0:0:
64,116,42218,1,0,0:0:0:0:
428,243,42306,1,8,0:0:0:0:
64,116,42393,1,0,0:0:0:0:
274,121,42481,1,0,0:0:0:0:
64,116,42569,1,0,0:0:0:0:
428,243,42657,1,8,0:0:0:0:
274,121,42832,1,0,0:0:0:0:
428,243,43007,1,8,0:0:0:0:
274,121,43183,1,0,0:0:0:0:
64,116,43271,1,0,0:0:0:0:
428,243,43358,1,8,0:0:0:0:
263,44,43446,1,0,0:0:0:0:
403,252,43534,1,8,0:0:0:0:
428,243,43709,1,0,0:0:0:0:
141,242,43797,1,8,0:0:0:0:
301,121,43885,1,0,0:0:0:0:
141,242,43972,1,0,0:0:0:0:
171,125,44060,1,8,0:0:0:0:
218,132,44119,1,0,0:0:0:0:
336,160,44177,1,0,0:0:0:0:
218,132,44236,1,0,0:0:0:0:
218,132,44323,1,0,0:0:0:0:
218,132,44411,1,0,0:0:0:0:
133,105,44499,1,8,0:0:0:0:
142,157,44587,1,0,0:0:0:0:
142,157,44674,1,0,0:0:0:0:
142,157,44762,1,8,0:0:0:0:
301,84,44820,5,0,0:0:0:0:
301,84,44879,1,0,0:0:0:0:
142,157,44937,1,0,0:0:0:0:
58,139,45025,1,8,0:0:0:0:
58,139,45113,1,0,0:0:0:0:
58,139,45201,1,0,0:0:0:0:
196,110,45288,1,8,0:0:0:0:
196,110,45376,1,0,0:0:0:0:
196,110,45464,1,8,0:0:0:0:
235,55,45522,1,0,0:0:0:0:
284,141,45581,1,0,0:0:0:0:
128,160,45639,1,0,0:0:0:0:
128,160,45727,1,0,0:0:0:0:
128,160,45815,1,8,0:0:0:0:
128,160,45902,1,8,0:0:0:0:
309,154,45990,1,0,0:0:0:0:
345,148,46078,1,8,0:0:0:0:
345,148,46165,1,8,0:0:0:0:
345,148,46253,1,8,0:0:0:0:
345,148,46341,1,0,0:0:0:0:
345,148,46429,1,0,0:0:0:0:
345,148,46516,1,8,0:0:0:0:
345,148,46604,1,0,0:0:0:0:
74,125,46779,1,8,0:0:0:0:
171,159,46867,1,0,0:0:0:0:
171,159,47043,1,0,0:0:0:0:
155,180,47130,1,0,0:0:0:0:
187,160,47218,1,8,0:0:0:0:
187,160,47306,1,8,0:0:0:0:
187,160,47394,1,0,0:0:0:0:
187,160,47481,1,8,0:0:0:0:
187,160,47569,1,8,0:0:0:0:
187,160,47657,1,8,0:0:0:0:
187,160,47744,1,0,0:0:0:0:
187,160,47832,1,8,0:0:0:0:
187,160,47920,1,8,0:0:0:0:
187,160,48008,1,0,0:0:0:0:
187,160,48183,1,0,0:0:0:0:
187,160,48271,1,8,0:0:0:0:
187,160,48446,1,8,0:0:0:0:
187,160,48534,1,0,0:0:0:0:
187,160,48622,1,0,0:0:0:0:
187,160,48709,1,0,0:0:0:0:
187,160,48797,1,8,0:0:0:0:
187,160,48885,1,8,0:0:0:0:
187,160,48972,1,0,0:0:0:0:
187,160,49060,1,0,0:0:0:0:
187,160,49148,1,8,0:0:0:0:
187,160,49236,1,0,0:0:0:0:
187,160,49323,1,0,0:0:0:0:
187,160,49411,1,8,0:0:0:0:
131,84,49587,5,8,0:0:0:0:
187,160,49674,1,0,0:0:0:0:
187,160,49850,1,8,0:0:0:0:
187,160,49937,1,0,0:0:0:0:
187,160,50025,1,0,0:0:0:0:
187,80,50113,1,0,0:0:0:0:
56,151,50201,1,8,0:0:0:0:
56,151,50288,1,8,0:0:0:0:
56,151,50376,1,0,0:0:0:0:
232,148,50464,1,0,0:0:0:0:
153,168,50551,1,12,0:0:0:0:
153,168,50815,1,4,0:0:0:0:
153,168,51078,1,4,0:0:0:0:
128,160,51253,1,0,0:0:0:0:
128,160,51341,1,0,0:0:0:0:
128,160,51429,1,8,0:0:0:0:
128,160,51516,1,8,0:0:0:0:
309,154,51604,1,0,0:0:0:0:
345,148,51692,1,8,0:0:0:0:
345,148,51779,1,8,0:0:0:0:
345,148,51867,1,8,0:0:0:0:
345,148,51955,1,0,0:0:0:0:
345,148,52043,1,0,0:0:0:0:
345,148,52130,1,8,0:0:0:0:
345,148,52218,1,0,0:0:0:0:
153,116,52394,1,8,0:0:0:0:
142,118,52481,1,0,0:0:0:0:
171,159,52657,1,0,0:0:0:0:
155,180,52744,1,0,0:0:0:0:
187,160,52832,1,8,0:0:0:0:
187,160,52920,1,8,0:0:0:0:
187,160,53008,1,0,0:0:0:0:
187,160,53095,1,8,0:0:0:0:
187,160,53183,1,8,0:0:0:0:
187,160,53271,1,8,0:0:0:0:
187,160,53358,1,0,0:0:0:0:
187,160,53446,1,8,0:0:0:0:
187,160,53534,1,8,0:0:0:0:
187,160,53622,1,0,0:0:0:0:
187,160,53797,1,8,0:0:0:0:
187,160,53885,1,8,0:0:0:0:
187,160,54060,1,8,0:0:0:0:
187,160,54148,1,8,0:0:0:0:
187,160,54236,1,0,0:0:0:0:
187,160,54323,1,0,0:0:0:0:
187,160,54411,1,8,0:0:0:0:
187,160,54499,1,8,0:0:0:0:
187,160,54586,1,0,0:0:0:0:
187,160,54674,1,8,0:0:0:0:
187,160,54762,1,8,0:0:0:0:
187,160,54850,1,8,0:0:0:0:
187,160,54937,1,0,0:0:0:0:
187,160,55025,1,8,0:0:0:0:
131,84,55201,1,8,0:0:0:0:
67,121,55288,1,0,0:0:0:0:
187,160,55464,1,8,0:0:0:0:
187,160,55551,1,8,0:0:0:0:
187,160,55639,1,0,0:0:0:0:
187,80,55727,1,0,0:0:0:0:
56,151,55815,1,8,0:0:0:0:
56,151,55902,1,8,0:0:0:0:
56,151,55990,1,0,0:0:0:0:
232,148,56078,1,0,0:0:0:0:
153,168,56165,1,12,0:0:0:0:
153,168,56429,1,4,0:0:0:0:
153,168,56692,1,4,0:0:0:0:
128,160,56867,1,0,0:0:0:0:
128,160,56955,1,0,0:0:0:0:
128,160,57043,1,8,0:0:0:0:
128,160,57130,1,8,0:0:0:0:
309,154,57218,1,0,0:0:0:0:
345,148,57306,1,8,0:0:0:0:
345,148,57393,1,8,0:0:0:0:
345,148,57481,1,8,0:0:0:0:
345,148,57569,1,0,0:0:0:0:
345,148,57657,1,0,0:0:0:0:
345,148,57744,1,8,0:0:0:0:
345,148,57832,1,0,0:0:0:0:
153,116,58008,1,8,0:0:0:0:
146,238,58051,1,8,0:0:0:0:
142,118,58095,1,0,0:0:0:0:
171,159,58271,1,0,0:0:0:0:
155,180,58358,1,0,0:0:0:0:
187,160,58446,1,8,0:0:0:0:
187,160,58534,1,8,0:0:0:0:
187,160,58622,1,0,0:0:0:0:
187,160,58709,1,8,0:0:0:0:
187,160,58797,1,8,0:0:0:0:
187,160,58885,1,8,0:0:0:0:
187,160,58972,1,0,0:0:0:0:
187,160,59060,1,8,0:0:0:0:
187,160,59148,1,8,0:0:0:0:
187,160,59236,1,0,0:0:0:0:
187,160,59411,1,0,0:0:0:0:
187,160,59499,1,8,0:0:0:0:
11,172,59557,1,0,0:0:0:0:
52,186,59616,1,0,0:0:0:0:
187,160,59674,1,0,0:0:0:0:
187,160,59762,1,8,0:0:0:0:
187,160,59850,1,0,0:0:0:0:
187,160,59937,1,0,0:0:0:0:
187,160,60025,1,8,0:0:0:0:
187,160,60113,1,8,0:0:0:0:
187,160,60200,1,0,0:0:0:0:
187,160,60288,1,8,0:0:0:0:
187,160,60376,1,8,0:0:0:0:
187,160,60464,1,8,0:0:0:0:
187,160,60551,1,0,0:0:0:0:
187,160,60639,1,8,0:0:0:0:
193,85,60815,1,8,0:0:0:0:
67,121,60902,1,0,0:0:0:0:
187,160,61078,1,8,0:0:0:0:
187,160,61165,1,8,0:0:0:0:
187,160,61253,1,0,0:0:0:0:
187,80,61341,1,0,0:0:0:0:
56,151,61429,1,8,0:0:0:0:
56,151,61516,1,8,0:0:0:0:
56,151,61604,1,0,0:0:0:0:
232,148,61692,1,0,0:0:0:0:
153,168,61779,1,12,0:0:0:0:
250,137,62043,1,4,0:0:0:0:
250,137,62306,1,4,0:0:0:0:
128,160,62481,1,0,0:0:0:0:
128,160,62569,1,0,0:0:0:0:
128,160,62657,1,8,0:0:0:0:
128,160,62744,1,8,0:0:0:0:
309,154,62832,1,0,0:0:0:0:
345,148,62920,1,8,0:0:0:0:
345,148,63007,1,8,0:0:0:0:
345,148,63095,1,8,0:0:0:0:
345,148,63183,1,0,0:0:0:0:
345,148,63271,1,0,0:0:0:0:
345,148,63358,1,8,0:0:0:0:
345,148,63446,1,0,0:0:0:0:
220,87,63622,1,8,0:0:0:0:
268,189,63665,1,8,0:0:0:0:
220,87,63709,1,0,0:0:0:0:
171,159,63885,1,0,0:0:0:0:
155,180,63972,1,0,0:0:0:0:
187,160,64060,1,8,0:0:0:0:
187,160,64148,1,8,0:0:0:0:
187,160,64236,1,0,0:0:0:0:
187,160,64323,1,8,0:0:0:0:
187,160,64411,1,8,0:0:0:0:
187,160,64499,1,8,0:0:0:0:
187,160,64586,1,0,0:0:0:0:
187,160,64674,1,8,0:0:0:0:
187,160,64762,1,8,0:0:0:0:
187,160,64850,1,0,0:0:0:0:
187,160,65025,1,0,0:0:0:0:
187,160,65113,1,8,0:0:0:0:
131,117,65171,1,0,0:0:0:0:
131,117,65230,1,0,0:0:0:0:
187,160,65288,1,0,0:0:0:0:
187,160,65376,1,8,0:0:0:0:
187,160,65464,1,0,0:0:0:0:
187,160,65551,1,0,0:0:0:0:
187,160,65639,1,8,0:0:0:0:
187,160,65727,1,8,0:0:0:0:
187,160,65814,1,0,0:0:0:0:
187,160,65902,1,8,0:0:0:0:
187,160,65990,1,8,0:0:0:0:
187,160,66078,1,8,0:0:0:0:
187,160,66165,1,0,0:0:0:0:
187,160,66253,1,8,0:0:0:0:
193,85,66429,1,8,0:0:0:0:
67,121,66516,1,0,0:0:0:0:
187,160,66692,1,8,0:0:0:0:
187,160,66779,1,8,0:0:0:0:
187,160,66867,1,0,0:0:0:0:
187,80,66955,1,0,0:0:0:0:
56,151,67043,1,8,0:0:0:0:
56,151,67130,1,8,0:0:0:0:
56,151,67218,1,0,0:0:0:0:
232,148,67306,1,0,0:0:0:0:
153,168,67393,1,8,0:0:0:0:
184,178,67510,1,8,0:0:0:0:
279,229,67627,1,8,0:0:0:0:
279,229,67744,1,0,0:0:0:0:
279,229,67861,1,0,0:0:0:0:
279,229,67978,1,0,0:0:0:0:
279,229,68095,1,8,0:0:0:0:
447,214,68212,1,0,0:0:0:0:
204,67,68271,1,0,0:0:0:0:
447,214,68329,1,0,0:0:0:0:
204,67,68388,1,0,0:0:0:0:
447,214,68446,1,8,0:0:0:0:
447,214,68563,1,8,0:0:0:0:
271,82,68680,1,8,0:0:0:0:
256,192,68797,12,0,69411,0:0:0:0:
135,96,69499,5,0,0:0:0:0:
135,96,69587,1,0,0:0:0:0:
135,96,69674,1,8,0:0:0:0:
135,96,69850,1,0,0:0:0:0:
135,96,69937,1,8,0:0:0:0:
135,96,70025,1,8,0:0:0:0:
135,96,70201,1,0,0:0:0:0:
135,96,70376,1,8,0:0:0:0:
135,96,70464,1,0,0:0:0:0:
135,96,70551,1,0,0:0:0:0:
135,96,70639,1,0,0:0:0:0:
135,96,70727,1,8,0:0:0:0:
135,96,70902,1,0,0:0:0:0:
135,96,70990,1,0,0:0:0:0:
135,96,71078,1,8,0:0:0:0:
135,96,71253,1,0,0:0:0:0:
135,96,71341,1,8,0:0:0:0:
135,96,71429,1,8,0:0:0:0:
135,96,71604,1,8,0:0:0:0:
135,96,71692,1,0,0:0:0:0:
135,96,71779,1,0,0:0:0:0:
135,96,71867,1,8,0:0:0:0:
135,96,71955,1,0,0:0:0:0:
135,96,72043,1,0,0:0:0:0:
135,96,72130,1,8,0:0:0:0:
370,136,72189,1,0,0:0:0:0:
370,136,72247,1,0,0:0:0:0:
370,136,72306,1,0,0:0:0:0:
370,136,72481,1,8,0:0:0:0:
370,136,72657,1,0,0:0:0:0:
176,238,72744,1,0,0:0:0:0:
176,238,72832,1,8,0:0:0:0:
176,238,73008,1,0,0:0:0:0:
176,238,73095,1,8,0:0:0:0:
176,238,73183,1,8,0:0:0:0:
176,238,73358,1,0,0:0:0:0:
176,238,73534,1,8,0:0:0:0:
176,238,73622,1,0,0:0:0:0:
176,238,73709,1,0,0:0:0:0:
176,238,73885,1,8,0:0:0:0:
176,238,73972,1,0,0:0:0:0:
176,238,74060,1,0,0:0:0:0:
176,238,74148,1,0,0:0:0:0:
176,238,74236,1,8,0:0:0:0:
256,192,74411,12,0,75025,0:0:0:0:
310,154,75113,5,0,0:0:0:0:
310,154,75201,1,0,0:0:0:0:
310,154,75288,1,8,0:0:0:0:
310,154,75464,1,0,0:0:0:0:
310,154,75551,1,0,0:0:0:0:
310,154,75639,1,8,0:0:0:0:
310,238,75727,1,0,0:0:0:0:
310,154,75815,1,0,0:0:0:0:
310,154,75902,1,0,0:0:0:0:
310,154,75990,1,8,0:0:0:0:
310,154,76165,1,0,0:0:0:0:
310,154,76341,1,8,0:0:0:0:
310,154,76516,1,0,0:0:0:0:
310,154,76604,1,0,0:0:0:0:
310,154,76692,1,8,0:0:0:0:
310,154,76867,1,0,0:0:0:0:
310,154,76955,1,0,0:0:0:0:
310,154,77043,1,8,0:0:0:0:
293,248,77130,1,0,0:0:0:0:
310,154,77218,1,8,0:0:0:0:
310,154,77306,1,0,0:0:0:0:
310,154,77394,1,0,0:0:0:0:
310,154,77481,1,8,0:0:0:0:
310,154,77569,1,0,0:0:0:0:
310,154,77657,1,0,0:0:0:0:
310,154,77744,1,8,0:0:0:0:
421,90,77803,1,0,0:0:0:0:
421,90,77861,1,0,0:0:0:0:
421,90,77920,1,0,0:0:0:0:
412,122,78095,1,8,0:0:0:0:
412,122,78271,1,0,0:0:0:0:
412,122,78358,1,0,0:0:0:0:
412,122,78446,1,8,0:0:0:0:
412,122,78622,1,0,0:0:0:0:
412,122,78709,1,0,0:0:0:0:
412,122,78797,1,8,0:0:0:0:
412,122,78885,1,0,0:0:0:0:
412,122,78972,1,0,0:0:0:0:
412,122,79148,1,8,0:0:0:0:
412,122,79323,1,0,0:0:0:0:
412,122,79411,1,0,0:0:0:0:
412,122,79499,1,8,0:0:0:0:
412,122,79674,1,0,0:0:0:0:
412,122,79762,1,0,0:0:0:0:
412,122,79850,1,8,0:0:0:0:
307,204,79937,1,0,0:0:0:0:
412,122,80025,1,8,0:0:0:0:
412,122,80113,1,0,0:0:0:0:
412,122,80201,1,0,0:0:0:0:
327,248,80288,1,8,0:0:0:0:
327,248,80376,1,0,0:0:0:0:
327,248,80464,1,0,0:0:0:0:
327,248,80551,1,8,0:0:0:0:
435,49,80610,1,0,0:0:0:0:
435,49,80668,1,0,0:0:0:0:
435,49,80727,1,0,0:0:0:0:
252,171,80815,1,0,0:0:0:0:
252,171,80902,1,8,0:0:0:0:
252,171,80990,1,0,0:0:0:0:
252,171,81078,1,0,0:0:0:0:
252,171,81165,1,0,0:0:0:0:
252,171,81253,1,8,0:0:0:0:
252,171,81341,1,0,0:0:0:0:
252,171,81429,1,8,0:0:0:0:
252,171,81516,1,0,0:0:0:0:
252,171,81604,1,0,0:0:0:0:
252,171,81692,1,8,0:0:0:0:
252,171,81779,1,0,0:0:0:0:
365,95,81955,1,8,0:0:0:0:
383,98,82013,1,0,0:0:0:0:
383,98,82072,1,0,0:0:0:0:
264,353,82130,1,0,0:0:0:0:
357,146,82308,1,8,0:0:0:0:
153,136,82397,1,8,0:0:0:0:
357,146,82487,1,0,0:0:0:0:
255,128,82665,1,8,0:0:0:0:
357,146,82844,1,0,0:0:0:0:
255,128,83022,1,8,0:0:0:0:
153,136,83112,1,8,0:0:0:0:
357,146,83201,1,0,0:0:0:0:
153,136,83290,1,0,0:0:0:0:
255,128,83380,1,8,0:0:0:0:
153,136,83469,1,8,0:0:0:0:
357,146,83558,1,0,0:0:0:0:
255,128,83737,1,8,0:0:0:0:
357,146,83915,1,12,0:0:0:0:
255,128,84094,1,8,0:0:0:0:
255,128,84272,1,0,0:0:0:0:
255,128,84451,1,8,0:0:0:0:
194,157,84630,1,12,0:0:0:0:
255,104,84808,1,8,0:0:0:0:
194,157,84987,1,0,0:0:0:0:
255,104,85165,1,8,0:0:0:0:
173,277,85255,1,8,0:0:0:0:
194,157,85344,1,0,0:0:0:0:
255,104,85522,1,8,0:0:0:0:
194,157,85701,1,0,0:0:0:0:
255,104,85880,1,8,0:0:0:0:
173,277,85969,1,8,0:0:0:0:
194,157,86058,1,0,0:0:0:0:
173,277,86147,1,0,0:0:0:0:
255,104,86237,1,8,0:0:0:0:
173,277,86326,1,8,0:0:0:0:
194,157,86415,1,0,0:0:0:0:
255,104,86594,1,8,0:0:0:0:
302,242,86772,1,12,0:0:0:0:
255,104,86951,1,8,0:0:0:0:
194,157,87130,1,0,0:0:0:0:
255,104,87308,1,8,0:0:0:0:
302,242,87487,1,12,0:0:0:0:
255,104,87665,1,8,0:0:0:0:
337,186,87755,1,8,0:0:0:0:
194,157,87844,1,0,0:0:0:0:
272,226,88022,1,8,0:0:0:0:
272,226,88112,1,8,0:0:0:0:
272,226,88201,1,0,0:0:0:0:
272,226,88290,1,8,0:0:0:0:
272,226,88380,1,0,0:0:0:0:
272,226,88469,1,0,0:0:0:0:
272,226,88558,1,8,0:0:0:0:
272,226,88737,1,8,0:0:0:0:
272,226,88826,1,0,0:0:0:0:
272,226,88915,1,0,0:0:0:0:
272,226,89005,1,8,0:0:0:0:
272,226,89094,1,0,0:0:0:0:
272,226,89183,1,0,0:0:0:0:
272,226,89272,1,8,0:0:0:0:
144,127,89451,1,8,0:0:0:0:
302,242,89630,1,12,0:0:0:0:
144,127,89808,1,8,0:0:0:0:
144,127,89987,1,0,0:0:0:0:
144,127,90165,1,8,0:0:0:0:
302,242,90344,1,12,0:0:0:0:
377,232,90522,1,8,0:0:0:0:
377,232,90701,1,0,0:0:0:0:
272,226,90880,1,8,0:0:0:0:
272,226,90969,1,0,0:0:0:0:
272,226,91058,1,0,0:0:0:0:
272,226,91147,1,8,0:0:0:0:
272,226,91237,1,8,0:0:0:0:
272,226,91326,1,0,0:0:0:0:
272,226,91415,1,8,0:0:0:0:
272,226,91594,1,8,0:0:0:0:
272,226,91683,1,8,0:0:0:0:
272,226,91772,1,0,0:0:0:0:
272,226,91862,1,8,0:0:0:0:
272,226,91951,1,0,0:0:0:0:
272,226,92040,1,0,0:0:0:0:
272,226,92130,1,8,0:0:0:0:
202,123,92308,1,8,0:0:0:0:
302,242,92487,1,12,0:0:0:0:
302,242,92844,1,12,0:0:0:0:
342,156,93201,1,12,0:0:0:0:
342,156,93380,1,8,0:0:0:0:
68,207,93558,1,0,0:0:0:0:
272,226,93737,1,8,0:0:0:0:
272,226,93826,1,0,0:0:0:0:
272,226,93915,1,0,0:0:0:0:
272,226,94005,1,8,0:0:0:0:
272,226,94094,1,0,0:0:0:0:
272,226,94183,1,0,0:0:0:0:
272,226,94272,1,8,0:0:0:0:
272,226,94451,1,8,0:0:0:0:
272,226,94540,1,8,0:0:0:0:
272,226,94630,1,0,0:0:0:0:
272,226,94719,1,8,0:0:0:0:
272,226,94808,1,0,0:0:0:0:
272,226,94897,1,0,0:0:0:0:
272,226,94987,1,8,0:0:0:0:
138,128,95076,1,0,0:0:0:0:
138,128,95165,1,8,0:0:0:0:
138,128,95255,1,0,0:0:0:0:
138,128,95344,1,8,0:0:0:0:
138,128,95433,1,0,0:0:0:0:
138,128,95522,1,8,0:0:0:0:
138,128,95612,1,0,0:0:0:0:
138,128,95701,1,8,0:0:0:0:
138,128,95790,1,0,0:0:0:0:
138,128,95880,1,8,0:0:0:0:
138,128,95969,1,0,0:0:0:0:
138,128,96058,1,8,0:0:0:0:
138,128,96147,1,8,0:0:0:0:
138,128,96237,1,0,0:0:0:0:
138,128,96326,1,0,0:0:0:0:
138,128,96415,1,8,0:0:0:0:
138,128,96594,1,8,0:0:0:0:
138,128,96772,1,12,0:0:0:0:
266,177,96951,1,8,0:0:0:0:
266,177,97130,1,0,0:0:0:0:
266,177,97308,1,8,0:0:0:0:
138,128,97487,1,12,0:0:0:0:
266,177,97665,1,8,0:0:0:0:
266,177,97844,1,0,0:0:0:0:
266,177,98022,1,8,0:0:0:0:
138,128,98201,1,12,0:0:0:0:
138,128,98558,1,12,0:0:0:0:
138,128,98915,1,12,0:0:0:0:
266,177,99094,1,8,0:0:0:0:
336,178,99272,1,8,0:0:0:0:
336,178,99362,1,0,0:0:0:0:
336,178,99451,1,0,0:0:0:0:
336,178,99540,1,0,0:0:0:0:
336,178,99630,1,8,0:0:0:0:
336,178,99719,1,0,0:0:0:0:
336,178,99808,1,0,0:0:0:0:
245,148,99897,1,8,0:0:0:0:
245,148,99987,1,8,0:0:0:0:
210,116,100076,1,0,0:0:0:0:
210,116,100165,1,0,0:0:0:0:
210,116,100255,1,0,0:0:0:0:
210,116,100344,1,8,0:0:0:0:
210,116,100433,1,0,0:0:0:0:
210,116,100522,1,8,0:0:0:0:
210,116,100612,1,0,0:0:0:0:
210,116,100701,1,8,0:0:0:0:
132,142,100790,1,8,0:0:0:0:
33,206,100880,1,0,0:0:0:0:
105,169,100969,1,0,0:0:0:0:
105,169,101058,1,8,0:0:0:0:
105,169,101147,1,0,0:0:0:0:
105,169,101237,1,0,0:0:0:0:
105,169,101326,1,0,0:0:0:0:
105,169,101415,1,8,0:0:0:0:
105,169,101505,1,8,0:0:0:0:
161,134,101594,1,0,0:0:0:0:
161,134,101683,1,8,0:0:0:0:
161,134,101772,1,0,0:0:0:0:
161,134,101862,1,0,0:0:0:0:
161,134,101951,1,8,0:0:0:0:
161,134,102040,1,0,0:0:0:0:
161,134,102130,1,8,0:0:0:0:
269,312,102308,1,8,0:0:0:0:
462,300,102487,1,12,0:0:0:0:
269,312,102665,1,8,0:0:0:0:
269,312,102844,1,0,0:0:0:0:
269,312,103022,1,8,0:0:0:0:
462,300,103201,1,12,0:0:0:0:
269,312,103380,1,8,0:0:0:0:
269,312,103558,1,0,0:0:0:0:
269,312,103737,1,8,0:0:0:0:
462,300,103915,1,12,0:0:0:0:
269,312,104094,1,8,0:0:0:0:
269,312,104272,1,0,0:0:0:0:
269,312,104451,1,8,0:0:0:0:
462,300,104629,1,12,0:0:0:0:
269,312,104808,1,8,0:0:0:0:
269,312,104987,1,0,0:0:0:0:
269,312,105165,1,8,0:0:0:0:
269,312,105344,1,0,0:0:0:0:
269,312,105522,1,8,0:0:0:0:
269,312,105612,1,8,0:0:0:0:
269,312,105701,1,0,0:0:0:0:
358,150,105879,1,8,0:0:0:0:
358,150,106058,1,0,0:0:0:0:
358,150,106147,1,0,0:0:0:0:
358,150,106237,1,8,0:0:0:0:
279,130,106415,1,8,0:0:0:0:
279,130,106504,1,8,0:0:0:0:
279,130,106594,1,0,0:0:0:0:
162,140,106683,1,0,0:0:0:0:
279,130,106772,1,8,0:0:0:0:
279,130,106951,1,8,0:0:0:0:
175,150,107129,1,8,0:0:0:0:
175,150,107219,1,8,0:0:0:0:
175,150,107308,1,0,0:0:0:0:
75,104,107397,1,8,0:0:0:0:
175,150,107576,1,8,0:0:0:0:
175,150,107665,1,0,0:0:0:0:
175,150,107844,1,0,0:0:0:0:
175,150,108112,1,8,0:0:0:0:
364,89,108379,1,0,0:0:0:0:
364,89,108558,1,8,0:0:0:0:
285,121,108647,1,8,0:0:0:0:
285,121,108737,1,0,0:0:0:0:
162,140,108826,1,0,0:0:0:0:
285,121,108915,1,8,0:0:0:0:
285,121,109004,1,0,0:0:0:0:
285,121,109094,1,8,0:0:0:0:
250,102,109183,1,8,0:0:0:0:
305,169,109272,1,0,0:0:0:0:
119,212,109451,1,8,0:0:0:0:
119,212,109629,1,8,0:0:0:0:
119,212,109808,1,8,0:0:0:0:
399,195,109987,1,8,0:0:0:0:
399,195,110076,1,8,0:0:0:0:
399,195,110165,1,0,0:0:0:0:
399,195,110254,1,8,0:0:0:0:
399,195,110433,1,8,0:0:0:0:
399,195,110522,1,0,0:0:0:0:
399,195,110701,1,8,0:0:0:0:
230,154,110879,1,8,0:0:0:0:
230,154,111058,1,0,0:0:0:0:
230,154,111237,1,8,0:0:0:0:
230,154,111326,1,8,0:0:0:0:
230,154,111415,1,0,0:0:0:0:
230,154,111594,1,8,0:0:0:0:
230,154,111772,1,0,0:0:0:0:
230,154,111862,1,0,0:0:0:0:
230,154,111951,1,8,0:0:0:0:
230,154,112129,1,8,0:0:0:0:
162,140,112219,1,8,0:0:0:0:
230,154,112308,1,0,0:0:0:0:
162,140,112397,1,0,0:0:0:0:
230,154,112487,1,8,0:0:0:0:
162,140,112576,1,0,0:0:0:0:
230,154,112665,1,8,0:0:0:0:
230,154,112844,1,8,0:0:0:0:
230,154,112933,1,8,0:0:0:0:
230,154,113022,1,0,0:0:0:0:
230,154,113112,1,8,0:0:0:0:
230,154,113290,1,8,0:0:0:0:
230,154,113379,1,8,0:0:0:0:
230,154,113469,1,0,0:0:0:0:
230,154,113558,1,0,0:0:0:0:
230,154,113826,1,8,0:0:0:0:
230,154,114094,1,0,0:0:0:0:
230,154,114272,1,8,0:0:0:0:
230,154,114362,1,8,0:0:0:0:
230,154,114451,1,0,0:0:0:0:
142,99,114540,1,0,0:0:0:0:
230,154,114629,1,8,0:0:0:0:
230,154,114719,1,8,0:0:0:0:
230,154,114808,1,0,0:0:0:0:
230,154,114987,1,0,0:0:0:0:
230,154,115165,1,0,0:0:0:0:
230,154,115344,1,0,0:0:0:0:
230,154,115522,1,0,0:0:0:0:
230,154,115701,1,0,0:0:0:0:
230,154,115790,1,8,0:0:0:0:
290,131,115879,1,8,0:0:0:0:
290,131,115969,1,0,0:0:0:0:
290,88,116147,1,0,0:0:0:0:
290,88,116237,1,8,0:0:0:0:
305,169,116415,1,0,0:0:0:0:
305,169,116594,1,8,0:0:0:0:
305,169,116772,1,0,0:0:0:0:
305,169,116951,1,8,0:0:0:0:
305,169,117040,1,8,0:0:0:0:
305,169,117129,1,0,0:0:0:0:
305,169,117308,1,8,0:0:0:0:
305,169,117487,1,0,0:0:0:0:
305,169,117576,1,0,0:0:0:0:
305,169,117665,1,8,0:0:0:0:
305,169,117844,1,8,0:0:0:0:
136,131,117933,1,8,0:0:0:0:
305,169,118022,1,0,0:0:0:0:
136,131,118112,1,0,0:0:0:0:
305,169,118201,1,8,0:0:0:0:
305,169,118379,1,8,0:0:0:0:
305,169,118558,1,8,0:0:0:0:
305,169,118647,1,8,0:0:0:0:
305,169,118737,1,0,0:0:0:0:
305,169,118826,1,8,0:0:0:0:
305,169,119004,1,8,0:0:0:0:
305,169,119094,1,0,0:0:0:0:
305,169,119272,1,0,0:0:0:0:
305,169,119540,1,8,0:0:0:0:
305,169,119808,1,0,0:0:0:0:
305,169,119987,1,8,0:0:0:0:
305,169,120076,1,8,0:0:0:0:
305,169,120165,1,0,0:0:0:0:
145,209,120254,1,8,0:0:0:0:
305,169,120344,1,0,0:0:0:0:
305,169,120433,1,0,0:0:0:0:
305,169,120522,1,8,0:0:0:0:
250,102,120612,1,8,0:0:0:0:
145,209,120701,1,0,0:0:0:0:
145,209,120879,1,8,0:0:0:0:
145,209,121058,1,8,0:0:0:0:
145,209,121237,1,8,0:0:0:0:
145,209,121415,1,8,0:0:0:0:
145,209,121504,1,8,0:0:0:0:
145,209,121594,1,0,0:0:0:0:
145,209,121683,1,8,0:0:0:0:
145,209,121862,1,8,0:0:0:0:
145,209,121951,1,0,0:0:0:0:
259,180,122129,5,0,0:0:0:0:
259,180,122308,1,8,0:0:0:0:
197,119,122487,1,0,0:0:0:0:
197,119,122665,1,8,0:0:0:0:
197,119,122754,1,8,0:0:0:0:
197,119,122844,1,0,0:0:0:0:
197,119,123022,1,8,0:0:0:0:
197,119,123201,1,0,0:0:0:0:
197,119,123379,1,8,0:0:0:0:
267,143,123558,1,0,0:0:0:0:
267,143,123647,1,8,0:0:0:0:
267,143,123737,1,0,0:0:0:0:
267,143,123826,1,0,0:0:0:0:
267,143,123915,1,8,0:0:0:0:
160,113,124094,1,8,0:0:0:0:
160,113,124272,1,8,0:0:0:0:
160,113,124362,1,8,0:0:0:0:
160,113,124451,1,0,0:0:0:0:
160,113,124540,1,8,0:0:0:0:
160,113,124629,1,0,0:0:0:0:
160,113,124719,1,0,0:0:0:0:
160,113,124808,1,8,0:0:0:0:
160,113,124897,1,8,0:0:0:0:
160,113,124987,1,0,0:0:0:0:
160,113,125254,1,8,0:0:0:0:
160,113,125522,1,0,0:0:0:0:
160,113,125701,1,8,0:0:0:0:
160,113,125790,1,0,0:0:0:0:
160,113,125879,1,8,0:0:0:0:
160,113,126058,1,0,0:0:0:0:
160,113,126147,1,0,0:0:0:0:
160,113,126237,1,8,0:0:0:0:
253,146,126415,1,8,0:0:0:0:
253,146,126594,1,8,0:0:0:0:
253,146,126772,1,8,0:0:0:0:
253,146,126951,1,8,0:0:0:0:
253,146,127129,1,8,0:0:0:0:
253,146,127219,1,8,0:0:0:0:
253,146,127308,1,0,0:0:0:0:
253,146,127397,1,0,0:0:0:0:
253,146,127665,1,8,0:0:0:0:
276,250,139272,5,0,0:0:0:0:
431,160,139451,1,8,0:0:0:0:
361,184,139629,1,8,0:0:0:0:
361,184,139719,1,0,0:0:0:0:
361,184,139808,1,0,0:0:0:0:
361,184,139897,1,0,0:0:0:0:
361,184,139987,1,8,0:0:0:0:
361,184,140165,1,8,0:0:0:0:
361,184,140344,1,0,0:0:0:0:
361,184,140433,1,0,0:0:0:0:
361,184,140522,1,8,0:0:0:0:
361,184,140612,1,8,0:0:0:0:
361,184,140701,1,0,0:0:0:0:
361,184,140879,1,8,0:0:0:0:
361,184,141058,1,0,0:0:0:0:
361,184,141237,1,8,0:0:0:0:
361,184,141415,1,0,0:0:0:0:
361,184,141504,1,0,0:0:0:0:
361,184,141594,1,8,0:0:0:0:
361,184,141772,1,0,0:0:0:0:
361,184,141862,1,0,0:0:0:0:
361,184,141951,1,8,0:0:0:0:
361,184,142129,1,0,0:0:0:0:
361,184,142308,1,8,0:0:0:0:
361,184,142487,1,0,0:0:0:0:
361,184,142576,1,8,0:0:0:0:
361,184,142665,1,0,0:0:0:0:
361,184,142754,1,0,0:0:0:0:
361,184,142844,1,8,0:0:0:0:
361,184,143022,1,8,0:0:0:0:
361,184,143201,1,0,0:0:0:0:
361,184,143290,1,0,0:0:0:0:
361,184,143379,1,8,0:0:0:0:
361,184,143558,1,0,0:0:0:0:
361,184,143737,1,8,0:0:0:0:
361,184,143915,1,0,0:0:0:0:
361,184,144004,1,8,0:0:0:0:
361,184,144094,1,0,0:0:0:0:
361,184,144183,1,8,0:0:0:0:
361,184,144272,1,8,0:0:0:0:
136,134,144451,1,8,0:0:0:0:
136,134,144629,1,0,0:0:0:0:
136,134,144719,1,0,0:0:0:0:
136,134,144808,1,8,0:0:0:0:
136,134,144987,1,0,0:0:0:0:
136,134,145165,1,8,0:0:0:0:
136,134,145344,1,8,0:0:0:0:
154,230,145433,1,8,0:0:0:0:
154,230,145522,1,0,0:0:0:0:
154,230,145612,1,0,0:0:0:0:
154,230,145701,1,8,0:0:0:0:
154,230,145879,1,8,0:0:0:0:
154,230,146058,1,0,0:0:0:0:
154,230,146147,1,8,0:0:0:0:
154,230,146237,1,0,0:0:0:0:
154,230,146326,1,8,0:0:0:0:
154,230,146415,1,0,0:0:0:0:
154,230,146594,1,8,0:0:0:0:
154,230,146772,1,0,0:0:0:0:
154,230,146951,1,8,0:0:0:0:
154,230,147129,1,0,0:0:0:0:
154,230,147219,1,0,0:0:0:0:
154,230,147308,1,8,0:0:0:0:
154,230,147487,1,0,0:0:0:0:
154,230,147576,1,0,0:0:0:0:
154,230,147665,1,8,0:0:0:0:
125,117,147844,1,0,0:0:0:0:
125,117,148022,1,8,0:0:0:0:
125,117,148201,1,0,0:0:0:0:
265,143,148290,1,0,0:0:0:0:
125,117,148379,1,8,0:0:0:0:
125,117,148558,1,0,0:0:0:0:
125,117,148737,1,8,0:0:0:0:
265,87,148826,1,8,0:0:0:0:
125,117,148915,1,0,0:0:0:0:
125,117,149094,1,8,0:0:0:0:
267,108,149183,1,0,0:0:0:0:
267,108,149272,1,0,0:0:0:0:
265,143,149451,1,8,0:0:0:0:
265,143,149629,1,0,0:0:0:0:
136,84,149808,1,8,0:0:0:0:
230,169,149987,1,0,0:0:0:0:
230,169,150165,1,8,0:0:0:0:
230,169,150344,1,0,0:0:0:0:
230,169,150433,1,0,0:0:0:0:
230,169,150522,1,8,0:0:0:0:
230,169,150701,1,0,0:0:0:0:
230,169,150879,1,8,0:0:0:0:
230,169,151058,1,8,0:0:0:0:
230,169,151147,1,8,0:0:0:0:
230,169,151237,1,8,0:0:0:0:
230,169,151326,1,0,0:0:0:0:
230,169,151415,1,8,0:0:0:0:
282,224,151594,1,8,0:0:0:0:
282,224,151772,1,0,0:0:0:0:
142,152,151862,1,8,0:0:0:0:
142,152,151951,1,8,0:0:0:0:
142,152,152040,1,0,0:0:0:0:
142,152,152129,1,8,0:0:0:0:
142,152,152308,1,8,0:0:0:0:
142,152,152487,1,0,0:0:0:0:
225,195,152665,1,8,0:0:0:0:
225,195,152844,1,0,0:0:0:0:
305,151,152933,1,0,0:0:0:0:
305,151,153022,1,8,0:0:0:0:
305,151,153201,1,0,0:0:0:0:
305,151,153290,1,0,0:0:0:0:
305,151,153379,1,8,0:0:0:0:
305,151,153558,1,0,0:0:0:0:
305,151,153737,1,8,0:0:0:0:
238,134,153915,1,0,0:0:0:0:
320,222,154004,1,8,0:0:0:0:
320,222,154094,1,0,0:0:0:0:
320,222,154183,1,0,0:0:0:0:
320,222,154272,1,8,0:0:0:0:
320,222,154451,1,8,0:0:0:0:
320,222,154629,1,0,0:0:0:0:
320,222,154719,1,0,0:0:0:0:
320,222,154808,1,8,0:0:0:0:
320,222,154987,1,0,0:0:0:0:
320,222,155165,1,8,0:0:0:0:
320,222,155344,1,0,0:0:0:0:
320,222,155433,1,8,0:0:0:0:
320,222,155522,1,8,0:0:0:0:
320,222,155612,1,0,0:0:0:0:
320,222,155701,1,8,0:0:0:0:
320,222,155879,1,8,0:0:0:0:
320,222,156058,1,0,0:0:0:0:
320,222,156147,1,0,0:0:0:0:
320,222,156237,1,8,0:0:0:0:
320,222,156415,1,0,0:0:0:0:
320,222,156594,1,8,0:0:0:0:
320,222,156772,1,8,0:0:0:0:
320,222,156862,1,8,0:0:0:0:
320,222,156951,1,0,0:0:0:0:
320,222,157040,1,0,0:0:0:0:
320,222,157129,1,8,0:0:0:0:
196,166,157308,1,8,0:0:0:0:
196,166,157487,1,0,0:0:0:0:
196,166,157576,1,8,0:0:0:0:
196,166,157665,1,0,0:0:0:0:
196,166,157754,1,0,0:0:0:0:
196,166,157844,1,8,0:0:0:0:
118,164,158022,1,8,0:0:0:0:
118,164,158201,1,0,0:0:0:0:
118,164,158379,1,8,0:0:0:0:
118,164,158558,1,0,0:0:0:0:
118,164,158647,1,0,0:0:0:0:
118,164,158737,1,8,0:0:0:0:
118,164,158915,1,0,0:0:0:0:
118,164,159004,1,0,0:0:0:0:
118,164,159094,1,8,0:0:0:0:
118,164,159272,1,0,0:0:0:0:
118,164,159451,1,8,0:0:0:0:
118,164,159629,1,0,0:0:0:0:
118,164,159808,1,8,0:0:0:0:
118,164,159987,1,0,0:0:0:0:
118,164,160076,1,0,0:0:0:0:
118,164,160165,1,8,0:0:0:0:
118,164,160344,1,0,0:0:0:0:
118,164,160433,1,0,0:0:0:0:
118,164,160522,1,8,0:0:0:0:
118,164,160612,1,8,0:0:0:0:
118,164,160701,1,0,0:0:0:0:
118,164,160879,1,8,0:0:0:0:
118,164,161058,1,0,0:0:0:0:
118,164,161237,1,8,0:0:0:0:
118,164,161326,1,8,0:0:0:0:
118,164,161415,1,0,0:0:0:0:
118,164,161594,1,8,0:0:0:0:
118,164,161772,1,0,0:0:0:0:
394,106,161862,1,0,0:0:0:0:
118,164,161951,1,8,0:0:0:0:
118,164,162040,1,0,0:0:0:0:
118,164,162129,1,8,0:0:0:0:
118,164,162308,1,8,0:0:0:0:
118,164,162397,1,8,0:0:0:0:
118,164,162487,1,0,0:0:0:0:
118,164,162665,1,8,0:0:0:0:
118,164,162754,1,0,0:0:0:0:
118,164,162844,1,0,0:0:0:0:
118,164,162933,1,8,0:0:0:0:
118,164,163022,1,8,0:0:0:0:
118,164,163112,1,0,0:0:0:0:
118,164,163201,1,8,0:0:0:0:
167,215,163290,1,0,0:0:0:0:
167,215,163379,1,0,0:0:0:0:
167,215,163469,1,8,0:0:0:0:
167,215,163558,1,0,0:0:0:0:
167,215,163737,1,8,0:0:0:0:
167,215,163915,1,0,0:0:0:0:
167,215,164094,1,8,0:0:0:0:
167,215,164272,1,0,0:0:0:0:
167,215,164362,1,0,0:0:0:0:
167,215,164451,1,8,0:0:0:0:
167,215,164629,1,0,0:0:0:0:
167,215,164719,1,0,0:0:0:0:
167,215,164808,1,8,0:0:0:0:
167,215,164987,1,8,0:0:0:0:
255,146,166415,1,0,0:0:0:0:
231,155,167844,1,0,0:0:0:0:
272,226,168022,1,8,0:0:0:0:
272,226,168112,1,8,0:0:0:0:
272,226,168201,1,0,0:0:0:0:
272,226,168290,1,8,0:0:0:0:
272,226,168379,1,0,0:0:0:0:
272,226,168469,1,0,0:0:0:0:
272,226,168558,1,8,0:0:0:0:
272,226,168737,1,8,0:0:0:0:
272,226,168826,1,0,0:0:0:0:
272,226,168915,1,0,0:0:0:0:
272,226,169004,1,8,0:0:0:0:
272,226,169094,1,0,0:0:0:0:
272,226,169183,1,0,0:0:0:0:
272,226,169272,1,8,0:0:0:0:
144,127,169451,1,8,0:0:0:0:
302,242,169629,1,12,0:0:0:0:
144,127,169808,1,8,0:0:0:0:
144,127,169987,1,0,0:0:0:0:
144,127,170165,1,8,0:0:0:0:
302,242,170344,1,12,0:0:0:0:
377,232,170522,1,8,0:0:0:0:
377,232,170701,1,0,0:0:0:0:
272,226,170879,1,8,0:0:0:0:
272,226,170969,1,0,0:0:0:0:
272,226,171058,1,0,0:0:0:0:
272,226,171147,1,8,0:0:0:0:
272,226,171237,1,8,0:0:0:0:
272,226,171326,1,0,0:0:0:0:
272,226,171415,1,8,0:0:0:0:
272,226,171594,1,8,0:0:0:0:
272,226,171683,1,8,0:0:0:0:
272,226,171772,1,0,0:0:0:0:
272,226,171862,1,8,0:0:0:0:
272,226,171951,1,0,0:0:0:0:
272,226,172040,1,0,0:0:0:0:
272,226,172129,1,8,0:0:0:0:
202,123,172308,1,8,0:0:0:0:
302,242,172487,1,12,0:0:0:0:
255,123,172665,1,8,0:0:0:0:
161,137,172844,1,0,0:0:0:0:
161,137,173022,1,8,0:0:0:0:
161,137,173201,1,12,0:0:0:0:
161,137,173379,1,8,0:0:0:0:
377,232,173558,1,0,0:0:0:0:
272,226,173737,1,8,0:0:0:0:
272,226,173826,1,8,0:0:0:0:
272,226,173915,1,0,0:0:0:0:
272,226,174004,1,8,0:0:0:0:
272,226,174094,1,8,0:0:0:0:
272,226,174183,1,0,0:0:0:0:
272,226,174272,1,8,0:0:0:0:
272,226,174451,1,8,0:0:0:0:
272,226,174540,1,8,0:0:0:0:
272,226,174629,1,0,0:0:0:0:
272,226,174719,1,8,0:0:0:0:
272,226,174808,1,0,0:0:0:0:
272,226,174897,1,0,0:0:0:0:
272,226,174987,1,8,0:0:0:0:
202,123,175165,1,8,0:0:0:0:
302,242,175344,1,12,0:0:0:0:
255,123,175522,1,8,0:0:0:0:
161,137,175701,1,0,0:0:0:0:
161,137,175879,1,8,0:0:0:0:
161,137,176058,1,12,0:0:0:0:
161,137,176237,1,8,0:0:0:0:
377,232,176415,1,0,0:0:0:0:
272,226,176594,1,8,0:0:0:0:
272,226,176683,1,8,0:0:0:0:
272,226,176772,1,0,0:0:0:0:
272,226,176862,1,0,0:0:0:0:
272,226,176951,1,8,0:0:0:0:
272,226,177040,1,0,0:0:0:0:
272,226,177129,1,8,0:0:0:0:
272,226,177308,1,8,0:0:0:0:
272,226,177397,1,0,0:0:0:0:
272,226,177487,1,0,0:0:0:0:
272,226,177576,1,0,0:0:0:0:
272,226,177665,1,8,0:0:0:0:
272,226,177754,1,0,0:0:0:0:
272,226,177844,1,8,0:0:0:0:
115,146,178022,1,8,0:0:0:0:
115,146,178201,1,12,0:0:0:0:
115,146,178558,1,12,0:0:0:0:
115,146,178915,1,12,0:0:0:0:
115,146,179094,1,8,0:0:0:0:
377,232,179272,1,0,0:0:0:0:
272,226,179451,1,8,0:0:0:0:
272,226,179540,1,8,0:0:0:0:
272,226,179629,1,0,0:0:0:0:
272,226,179719,1,8,0:0:0:0:
272,226,179808,1,0,0:0:0:0:
272,226,179897,1,0,0:0:0:0:
272,226,179987,1,8,0:0:0:0:
272,226,180165,1,8,0:0:0:0:
272,226,180254,1,0,0:0:0:0:
272,226,180344,1,0,0:0:0:0:
272,226,180433,1,8,0:0:0:0:
272,226,180522,1,0,0:0:0:0:
272,226,180612,1,0,0:0:0:0:
272,226,180701,1,8,0:0:0:0:
202,123,180879,1,8,0:0:0:0:
302,242,181058,1,12,0:0:0:0:
255,123,181237,1,8,0:0:0:0:
161,137,181415,1,0,0:0:0:0:
161,137,181594,1,8,0:0:0:0:
161,137,181772,1,12,0:0:0:0:
161,137,181951,1,8,0:0:0:0:
377,232,182129,1,0,0:0:0:0:
272,226,182308,1,8,0:0:0:0:
272,226,182397,1,0,0:0:0:0:
272,226,182487,1,0,0:0:0:0:
272,226,182576,1,8,0:0:0:0:
272,226,182665,1,0,0:0:0:0:
272,226,182754,1,0,0:0:0:0:
272,226,182844,1,8,0:0:0:0:
272,226,183022,1,8,0:0:0:0:
272,226,183112,1,0,0:0:0:0:
272,226,183201,1,0,0:0:0:0:
272,226,183290,1,8,0:0:0:0:
272,226,183379,1,8,0:0:0:0:
272,226,183469,1,0,0:0:0:0:
272,226,183558,1,8,0:0:0:0:
202,123,183737,1,8,0:0:0:0:
302,242,183915,1,12,0:0:0:0:
255,123,184094,1,8,0:0:0:0:
161,137,184272,1,0,0:0:0:0:
161,137,184451,1,8,0:0:0:0:
161,137,184629,1,12,0:0:0:0:
161,137,184808,1,8,0:0:0:0:
377,232,184987,1,0,0:0:0:0:
272,226,185165,1,8,0:0:0:0:
272,226,185254,1,0,0:0:0:0:
272,226,185344,1,0,0:0:0:0:
272,226,185433,1,8,0:0:0:0:
272,226,185522,1,8,0:0:0:0:
272,226,185612,1,0,0:0:0:0:
272,226,185701,1,8,0:0:0:0:
272,226,185879,1,8,0:0:0:0:
272,226,185969,1,8,0:0:0:0:
272,226,186058,1,0,0:0:0:0:
272,226,186147,1,8,0:0:0:0:
272,226,186237,1,0,0:0:0:0:
272,226,186326,1,0,0:0:0:0:
272,226,186415,1,8,0:0:0:0:
202,123,186594,1,8,0:0:0:0:
302,242,186772,1,12,0:0:0:0:
255,123,186951,1,8,0:0:0:0:
161,137,187129,1,0,0:0:0:0:
161,137,187308,1,8,0:0:0:0:
161,137,187487,1,12,0:0:0:0:
161,137,187665,1,8,0:0:0:0:
153,146,187844,1,0,0:0:0:0:
153,146,188112,1,8,0:0:0:0:
153,146,188201,1,0,0:0:0:0:
153,146,188469,1,0,0:0:0:0:
153,146,188558,1,8,0:0:0:0:
153,146,188826,1,8,0:0:0:0:
143,132,189094,1,8,0:0:0:0:
143,132,189183,1,8,0:0:0:0:
143,132,189272,1,4,0:0:0:0:
143,132,189540,1,8,0:0:0:0:
143,132,189629,1,4,0:0:0:0:
143,132,189808,1,8,0:0:0:0:
143,132,189897,1,8,0:0:0:0:
143,132,189987,1,4,0:0:0:0:
311,116,190254,1,8,0:0:0:0:
331,155,190344,1,4,0:0:0:0:
311,116,190522,1,8,0:0:0:0:
311,116,190701,1,0,0:0:0:0:
311,116,191058,1,0,0:0:0:0:
303,92,191177,1,8,0:0:0:0:
303,92,191296,1,8,0:0:0:0:
303,92,191415,1,0,0:0:0:0:
303,92,191772,1,0,0:0:0:0:
303,92,192129,1,0,0:0:0:0:
303,92,192248,1,8,0:0:0:0:
303,92,192367,1,8,0:0:0:0:
303,92,192486,1,0,0:0:0:0:
303,92,192843,1,8,0:0:0:0:
463,284,193081,1,8,0:0:0:0:
463,284,193320,1,8,0:0:0:0:
463,284,193558,1,0,0:0:0:0:
191,168,193915,1,0,0:0:0:0:
191,168,194034,1,8,0:0:0:0:
191,168,194153,1,8,0:0:0:0:
191,168,194272,1,0,0:0:0:0:
191,168,194629,1,0,0:0:0:0:
219,168,194986,1,0,0:0:0:0:
219,168,195105,1,8,0:0:0:0:
219,168,195224,1,8,0:0:0:0:
219,168,195343,1,0,0:0:0:0:
219,168,195700,1,8,0:0:0:0:
219,168,195819,1,0,0:0:0:0:
219,168,195938,1,0,0:0:0:0:
219,168,196058,1,8,0:0:0:0:
219,168,196177,1,0,0:0:0:0:
219,168,196296,1,0,0:0:0:0:
259,112,196415,1,0,0:0:0:0:
271,244,196772,1,0,0:0:0:0:
271,244,196891,1,8,0:0:0:0:
271,244,197010,1,8,0:0:0:0:
271,244,197129,1,0,0:0:0:0:
271,244,197486,1,0,0:0:0:0:
271,244,197843,1,0,0:0:0:0:
271,244,197962,1,8,0:0:0:0:
271,244,198081,1,8,0:0:0:0:
271,244,198200,1,0,0:0:0:0:
271,244,198557,1,8,0:0:0:0:
271,244,198795,1,8,0:0:0:0:
271,244,199034,1,8,0:0:0:0:
271,244,199272,1,0,0:0:0:0:
271,244,199629,1,0,0:0:0:0:
271,244,199748,1,8,0:0:0:0:
271,244,199867,1,8,0:0:0:0:
271,244,199986,1,0,0:0:0:0:
271,244,200343,1,8,0:0:0:0:
271,244,200462,1,0,0:0:0:0:
271,244,200581,1,0,0:0:0:0:
271,244,200700,1,8,0:0:0:0:
271,244,200819,1,0,0:0:0:0:
271,244,200938,1,0,0:0:0:0:
271,244,201057,1,8,0:0:0:0:
271,244,201176,1,0,0:0:0:0:
271,244,201295,1,0,0:0:0:0:
271,244,201414,1,8,0:0:0:0:
271,244,201533,1,0,0:0:0:0:
271,244,201652,1,0,0:0:0:0:
419,208,201771,1,8,0:0:0:0:
419,208,201831,1,8,0:0:0:0:
419,208,201890,1,8,0:0:0:0:
419,208,201950,1,8,0:0:0:0:
419,208,202009,1,8,0:0:0:0:
419,208,202069,1,8,0:0:0:0:
419,208,202128,1,0,0:0:0:0:
250,105,202306,1,8,0:0:0:0:
130,164,202395,1,8,0:0:0:0:
358,173,202485,1,0,0:0:0:0:
252,105,202663,1,8,0:0:0:0:
358,173,202842,1,0,0:0:0:0:
44,197,202931,1,0,0:0:0:0:
189,92,203110,1,8,0:0:0:0:
358,173,203199,1,0,0:0:0:0:
302,155,203288,1,0,0:0:0:0:
261,111,203378,1,8,0:0:0:0:
358,173,203556,1,0,0:0:0:0:
261,111,203735,1,8,0:0:0:0:
238,100,203824,1,8,0:0:0:0:
358,173,203913,1,0,0:0:0:0:
236,113,204092,1,8,0:0:0:0:
361,169,204270,1,0,0:0:0:0:
291,158,204360,1,8,0:0:0:0:
207,49,204538,1,8,0:0:0:0:
323,107,204628,1,0,0:0:0:0:
361,169,204717,1,0,0:0:0:0:
261,108,204806,1,8,0:0:0:0:
228,108,204985,1,0,0:0:0:0:
242,206,205074,1,8,0:0:0:0:
225,111,205253,1,8,0:0:0:0:
225,111,205342,1,0,0:0:0:0:
293,158,205520,1,8,0:0:0:0:
293,158,205610,1,8,0:0:0:0:
361,169,205699,1,0,0:0:0:0:
259,105,205878,1,8,0:0:0:0:
236,44,205967,1,8,0:0:0:0:
361,169,206056,1,0,0:0:0:0:
361,169,206145,1,0,0:0:0:0:
259,105,206235,1,8,0:0:0:0:
361,169,206413,1,0,0:0:0:0:
256,105,206592,1,8,0:0:0:0:
215,24,206681,1,8,0:0:0:0:
361,169,206770,1,0,0:0:0:0:
256,105,206949,1,8,0:0:0:0:
361,169,207128,1,0,0:0:0:0:
265,97,207217,1,0,0:0:0:0:
227,86,207395,1,8,0:0:0:0:
361,169,207485,1,0,0:0:0:0:
361,169,207574,1,0,0:0:0:0:
253,107,207663,1,8,0:0:0:0:
361,169,207842,1,0,0:0:0:0:
253,107,208020,1,8,0:0:0:0:
129,82,208110,5,8,0:0:0:0:
361,169,208199,1,0,0:0:0:0:
253,166,208378,1,8,0:0:0:0:
321,100,208556,1,0,0:0:0:0:
321,100,208645,1,8,0:0:0:0:
224,103,208824,1,8,0:0:0:0:
224,103,208913,1,0,0:0:0:0:
232,101,209003,1,0,0:0:0:0:
241,103,209092,1,8,0:0:0:0:
227,115,209270,1,0,0:0:0:0:
271,97,209360,1,8,0:0:0:0:
271,97,209538,1,8,0:0:0:0:
271,97,209628,1,0,0:0:0:0:
183,88,209806,1,8,0:0:0:0:
189,92,209895,1,8,0:0:0:0:
361,169,209985,1,0,0:0:0:0:
236,155,210163,1,8,0:0:0:0:
250,49,210253,1,8,0:0:0:0:
361,167,210342,1,0,0:0:0:0:
361,167,210431,1,0,0:0:0:0:
235,82,210520,1,8,0:0:0:0:
361,167,210699,1,12,0:0:0:0:
205,56,210878,1,8,0:0:0:0:
205,56,210967,1,8,0:0:0:0:
361,167,211056,1,0,0:0:0:0:
213,72,211145,1,8,0:0:0:0:
235,82,211235,1,8,0:0:0:0:
361,167,211413,1,0,0:0:0:0:
176,77,211592,1,8,0:0:0:0:
361,167,211770,1,8,0:0:0:0:
235,79,211949,1,8,0:0:0:0:
208,56,212038,1,8,0:0:0:0:
361,167,212128,1,0,0:0:0:0:
214,64,212217,1,8,0:0:0:0:
361,143,212306,1,8,0:0:0:0:
361,167,212485,1,0,0:0:0:0:
176,77,212663,1,8,0:0:0:0:
361,167,212842,1,8,0:0:0:0:
361,167,213199,1,8,0:0:0:0:
214,66,213378,1,8,0:0:0:0:
214,66,213467,1,8,0:0:0:0:
361,167,213556,1,0,0:0:0:0:
88,114,213735,1,0,0:0:0:0:
361,167,213913,1,0,0:0:0:0:
288,117,214092,1,8,0:0:0:0:
298,78,214181,1,8,0:0:0:0:
361,167,214270,1,0,0:0:0:0:
248,71,214360,1,8,0:0:0:0:
288,117,214449,1,8,0:0:0:0:
361,167,214628,1,0,0:0:0:0:
180,72,214806,1,8,0:0:0:0:
361,167,214985,1,8,0:0:0:0:
288,117,215163,1,8,0:0:0:0:
152,128,215253,1,8,0:0:0:0:
361,167,215342,1,0,0:0:0:0:
248,71,215431,1,8,0:0:0:0:
273,76,215520,1,8,0:0:0:0:
361,167,215699,1,0,0:0:0:0:
206,115,215878,1,8,0:0:0:0:
361,167,216056,1,8,0:0:0:0:
361,167,216235,1,8,0:0:0:0:
208,148,216324,1,8,0:0:0:0:
361,167,216413,1,0,0:0:0:0:
248,71,216503,1,8,0:0:0:0:
273,76,216592,1,8,0:0:0:0:
361,167,216770,1,0,0:0:0:0:
206,107,216949,1,8,0:0:0:0:
361,167,217128,1,8,0:0:0:0:
361,167,217485,1,8,0:0:0:0:
361,167,217663,1,8,0:0:0:0:
237,92,217753,1,8,0:0:0:0:
361,167,217842,1,0,0:0:0:0:
276,72,218020,1,0,0:0:0:0:
246,87,218110,1,0,0:0:0:0:
361,167,218199,1,0,0:0:0:0:
276,72,218378,1,8,0:0:0:0:
228,143,218467,1,8,0:0:0:0:
361,167,218556,1,0,0:0:0:0:
248,71,218645,1,8,0:0:0:0:
276,72,218735,1,8,0:0:0:0:
361,167,218913,1,0,0:0:0:0:
156,81,219092,1,8,0:0:0:0:
361,167,219270,1,8,0:0:0:0:
276,72,219449,1,8,0:0:0:0:
73,120,219538,1,8,0:0:0:0:
361,167,219628,1,0,0:0:0:0:
248,71,219717,1,8,0:0:0:0:
276,72,219806,1,8,0:0:0:0:
361,167,219985,1,0,0:0:0:0:
151,77,220163,1,8,0:0:0:0:
358,163,220342,1,8,0:0:0:0:
346,132,220520,1,8,0:0:0:0:
143,140,220610,1,8,0:0:0:0:
346,132,220699,1,0,0:0:0:0:
248,71,220788,1,8,0:0:0:0:
276,72,220878,1,8,0:0:0:0:
343,134,221056,1,0,0:0:0:0:
151,77,221235,1,8,0:0:0:0:
343,134,221413,1,8,0:0:0:0:
343,134,221770,1,8,0:0:0:0:
343,134,221949,1,8,0:0:0:0:
226,121,222038,1,8,0:0:0:0:
343,134,222128,1,0,0:0:0:0:
276,72,222306,1,0,0:0:0:0:
343,134,222485,1,0,0:0:0:0:
279,72,222663,1,8,0:0:0:0:
44,140,222753,1,8,0:0:0:0:
343,134,222842,1,0,0:0:0:0:
248,71,222931,1,8,0:0:0:0:
279,72,223020,1,8,0:0:0:0:
343,134,223199,1,0,0:0:0:0:
221,81,223377,1,8,0:0:0:0:
226,99,223556,1,8,0:0:0:0:
279,72,223735,1,8,0:0:0:0:
202,41,223824,1,8,0:0:0:0:
244,134,223913,1,0,0:0:0:0:
251,71,224002,1,8,0:0:0:0:
279,72,224092,1,8,0:0:0:0:
244,134,224270,1,0,0:0:0:0:
217,81,224449,1,8,0:0:0:0:
246,132,224627,1,8,0:0:0:0:
246,132,224806,1,8,0:0:0:0:
15,140,224895,1,8,0:0:0:0:
238,117,224985,1,0,0:0:0:0:
251,71,225074,1,8,0:0:0:0:
279,72,225163,1,8,0:0:0:0:
238,117,225342,1,0,0:0:0:0:
217,81,225520,1,8,0:0:0:0:
238,117,225699,1,8,0:0:0:0:
238,117,226056,1,8,0:0:0:0:
238,117,226235,1,8,0:0:0:0:
264,83,226324,1,8,0:0:0:0:
238,117,226413,1,0,0:0:0:0:
135,73,226592,1,0,0:0:0:0:
264,83,226681,1,0,0:0:0:0:
238,117,226770,1,0,0:0:0:0:
281,75,226949,1,8,0:0:0:0:
158,76,227038,1,8,0:0:0:0:
238,114,227127,1,0,0:0:0:0:
254,67,227217,1,8,0:0:0:0:
281,75,227306,1,8,0:0:0:0:
238,114,227485,1,0,0:0:0:0:
238,114,227842,1,4,0:0:0:0:
335,79,228020,1,8,0:0:0:0:
304,77,228110,1,8,0:0:0:0:
359,188,228199,1,0,0:0:0:0:
304,77,228377,1,8,0:0:0:0:
356,185,228556,1,0,0:0:0:0:
213,92,228645,1,8,0:0:0:0:
225,57,228735,1,8,0:0:0:0:
219,59,228824,1,8,0:0:0:0:
356,185,228913,1,0,0:0:0:0:
254,57,229002,1,0,0:0:0:0:
246,68,229092,1,8,0:0:0:0:
356,185,229270,1,0,0:0:0:0:
242,66,229449,1,8,0:0:0:0:
242,66,229538,1,8,0:0:0:0:
356,185,229627,1,0,0:0:0:0:
158,86,229806,1,8,0:0:0:0:
361,185,229985,1,0,0:0:0:0:
184,83,230074,1,8,0:0:0:0:
184,83,230163,1,8,0:0:0:0:
184,83,230252,1,8,0:0:0:0:
361,185,230342,1,0,0:0:0:0:
192,92,230431,1,0,0:0:0:0:
201,94,230520,1,8,0:0:0:0:
213,92,230610,1,8,0:0:0:0:
367,183,230699,1,0,0:0:0:0:
260,130,230878,1,8,0:0:0:0:
225,77,230967,1,8,0:0:0:0:
367,183,231056,1,0,0:0:0:0:
196,68,231235,1,8,0:0:0:0:
367,183,231413,1,0,0:0:0:0:
190,82,231502,1,8,0:0:0:0:
190,82,231592,1,8,0:0:0:0:
190,82,231681,1,8,0:0:0:0:
371,179,231770,1,0,0:0:0:0:
176,92,231860,1,0,0:0:0:0:
176,106,231949,1,8,0:0:0:0:
371,179,232128,1,0,0:0:0:0:
275,86,232306,1,8,0:0:0:0:
275,86,232395,1,8,0:0:0:0:
371,179,232485,1,0,0:0:0:0:
371,179,232842,1,8,0:0:0:0:
178,57,233020,1,8,0:0:0:0:
213,80,233199,5,0,0:0:0:0:
199,36,233288,1,0,0:0:0:0:
213,92,233378,1,8,0:0:0:0:
227,86,233467,1,8,0:0:0:0:
371,179,233556,1,0,0:0:0:0:
280,100,233735,1,8,0:0:0:0:
178,68,233824,1,8,0:0:0:0:
373,179,233913,1,0,0:0:0:0:
263,144,234092,1,8,0:0:0:0:
373,179,234270,1,0,0:0:0:0:
216,138,234449,1,8,0:0:0:0:
373,179,234627,1,0,0:0:0:0:
219,136,234717,1,0,0:0:0:0:
219,136,234806,1,8,0:0:0:0:
164,115,234895,1,8,0:0:0:0:
373,179,234985,1,0,0:0:0:0:
164,115,235163,1,8,0:0:0:0:
164,115,235252,1,8,0:0:0:0:
373,179,235342,1,0,0:0:0:0:
376,177,235699,1,0,0:0:0:0:
193,121,235877,1,8,0:0:0:0:
193,121,235967,1,8,0:0:0:0:
376,177,236056,1,0,0:0:0:0:
176,121,236145,1,0,0:0:0:0:
176,121,236235,1,8,0:0:0:0:
376,177,236413,1,0,0:0:0:0:
285,106,236592,1,8,0:0:0:0:
291,106,236681,1,8,0:0:0:0:
376,177,236770,1,0,0:0:0:0:
296,106,236949,1,8,0:0:0:0:
376,177,237127,1,0,0:0:0:0:
256,79,237217,1,8,0:0:0:0:
251,85,237306,1,8,0:0:0:0:
251,85,237395,1,8,0:0:0:0:
376,177,237485,1,0,0:0:0:0:
251,85,237574,1,0,0:0:0:0:
251,85,237663,1,8,0:0:0:0:
376,177,237842,1,0,0:0:0:0:
197,41,238020,1,8,0:0:0:0:
204,41,238110,1,8,0:0:0:0:
376,177,238199,1,0,0:0:0:0:
294,88,238377,1,8,0:0:0:0:
376,177,238556,1,0,0:0:0:0:
291,85,238645,1,8,0:0:0:0:
338,117,238735,1,8,0:0:0:0:
338,117,238824,1,8,0:0:0:0:
376,177,238913,1,0,0:0:0:0:
197,129,239002,1,0,0:0:0:0:
206,129,239092,1,8,0:0:0:0:
212,129,239181,1,8,0:0:0:0:
376,177,239270,1,0,0:0:0:0:
268,102,239449,1,8,0:0:0:0:
268,102,239538,1,8,0:0:0:0:
376,173,239627,1,0,0:0:0:0:
267,94,239806,1,8,0:0:0:0:
376,173,239985,1,0,0:0:0:0:
226,70,240074,1,8,0:0:0:0:
224,76,240163,1,8,0:0:0:0:
218,76,240252,1,8,0:0:0:0:
376,173,240342,1,0,0:0:0:0:
224,76,240431,1,0,0:0:0:0:
206,76,240520,1,8,0:0:0:0:
376,173,240699,1,0,0:0:0:0:
230,67,240877,1,8,0:0:0:0:
227,42,240967,1,8,0:0:0:0:
376,173,241056,5,0,0:0:0:0:
376,173,241413,1,8,0:0:0:0:
245,112,241592,1,8,0:0:0:0:
376,173,241770,1,0,0:0:0:0:
241,114,241860,1,0,0:0:0:0:
241,114,241949,1,8,0:0:0:0:
236,112,242038,1,8,0:0:0:0:
160,154,242127,5,4,0:0:0:0:
160,154,242485,1,4,0:0:0:0:
160,154,242842,1,12,0:0:0:0:
201,187,243199,1,12,0:0:0:0:
201,187,243556,1,4,0:0:0:0:
201,187,243913,5,4,0:0:0:0:
201,187,244270,1,12,0:0:0:0:
201,187,244628,1,12,0:0:0:0:
256,192,244985,12,0,249181,0:0:0:0:
256,192,249270,12,0,253467,0:0:0:0:
256,192,253556,12,0,257842,0:0:0:0:
25,178,259985,5,0,0:0:0:0:
195,224,260342,1,0,0:0:0:0:
195,224,260699,1,8,0:0:0:0:
195,224,260967,1,8,0:0:0:0:
195,224,261145,1,8,0:0:0:0:
195,224,261235,1,0,0:0:0:0:
195,224,261413,1,0,0:0:0:0:
307,232,261770,1,0,0:0:0:0:
307,232,262127,1,8,0:0:0:0:
307,232,262395,1,0,0:0:0:0:
307,232,262663,1,8,0:0:0:0:
307,232,262842,1,0,0:0:0:0:
151,92,263199,1,0,0:0:0:0:
151,92,263556,1,8,0:0:0:0:
255,108,263824,1,8,0:0:0:0:
215,124,264002,1,8,0:0:0:0:
215,124,264092,1,0,0:0:0:0:
215,124,264270,1,0,0:0:0:0:
343,244,264627,1,0,0:0:0:0:
343,244,264985,1,8,0:0:0:0:
343,244,265252,1,8,0:0:0:0:
343,244,265520,1,8,0:0:0:0:
25,178,265699,5,0,0:0:0:0:
195,224,266056,1,0,0:0:0:0:
195,224,266413,1,8,0:0:0:0:
195,224,266681,1,8,0:0:0:0:
195,224,266859,1,8,0:0:0:0:
195,224,266949,1,0,0:0:0:0:
195,224,267127,1,0,0:0:0:0:
307,232,267484,1,0,0:0:0:0:
307,232,267841,1,8,0:0:0:0:
307,232,268109,1,0,0:0:0:0:
307,232,268377,1,8,0:0:0:0:
307,232,268556,1,0,0:0:0:0:
151,92,268913,1,0,0:0:0:0:
151,92,269270,1,8,0:0:0:0:
255,108,269538,1,8,0:0:0:0:
215,124,269716,1,8,0:0:0:0:
215,124,269806,1,0,0:0:0:0:
215,124,269984,1,0,0:0:0:0:
75,188,270163,1,0,0:0:0:0:
343,244,270341,1,8,0:0:0:0:
119,172,270520,1,0,0:0:0:0:
343,244,270699,1,8,0:0:0:0:
343,244,270967,1,8,0:0:0:0:
343,244,271235,1,8,0:0:0:0:
419,208,271413,1,0,0:0:0:0:
307,104,271592,1,8,0:0:0:0:
331,172,271681,1,8,0:0:0:0:
307,104,271771,1,0,0:0:0:0:
331,172,271860,1,0,0:0:0:0:
307,104,271949,1,8,0:0:0:0:
331,172,272038,1,8,0:0:0:0:
307,104,272128,1,0,0:0:0:0:
307,104,272306,1,8,0:0:0:0:
307,104,272485,1,8,0:0:0:0:
216,156,272574,1,0,0:0:0:0:
307,104,272663,1,8,0:0:0:0:
419,208,272842,1,0,0:0:0:0:
307,104,273021,1,8,0:0:0:0:
331,172,273110,1,8,0:0:0:0:
307,104,273200,1,0,0:0:0:0:
331,172,273288,1,8,0:0:0:0:
307,104,273378,1,8,0:0:0:0:
331,172,273467,1,0,0:0:0:0:
307,104,273557,1,0,0:0:0:0:
307,104,273735,1,8,0:0:0:0:
175,75,273913,1,0,0:0:0:0:
175,75,274002,1,8,0:0:0:0:
181,71,274092,1,0,0:0:0:0:
419,208,274270,1,0,0:0:0:0:
307,104,274449,1,8,0:0:0:0:
331,172,274538,1,0,0:0:0:0:
307,104,274628,1,0,0:0:0:0:
331,172,274717,1,0,0:0:0:0:
307,104,274806,1,8,0:0:0:0:
331,172,274895,1,8,0:0:0:0:
307,104,274985,1,0,0:0:0:0:
307,104,275163,1,8,0:0:0:0:
163,63,275252,1,0,0:0:0:0:
307,104,275342,1,0,0:0:0:0:
241,139,275431,1,8,0:0:0:0:
307,104,275520,1,0,0:0:0:0:
419,208,275699,1,0,0:0:0:0:
307,104,275878,1,8,0:0:0:0:
331,172,275967,1,8,0:0:0:0:
307,104,276057,1,0,0:0:0:0:
225,222,276145,1,0,0:0:0:0:
307,104,276235,1,8,0:0:0:0:
225,222,276324,1,8,0:0:0:0:
307,104,276414,1,0,0:0:0:0:
307,104,276592,1,0,0:0:0:0:
175,51,276681,1,8,0:0:0:0:
307,104,276771,1,8,0:0:0:0:
99,112,276860,1,0,0:0:0:0:
307,104,276949,1,8,0:0:0:0:
419,208,277127,1,0,0:0:0:0:
307,104,277306,1,8,0:0:0:0:
237,146,277395,1,0,0:0:0:0:
307,104,277485,1,0,0:0:0:0:
237,146,277574,1,0,0:0:0:0:
307,104,277663,1,8,0:0:0:0:
237,146,277752,1,0,0:0:0:0:
307,104,277842,1,0,0:0:0:0:
307,104,278020,1,8,0:0:0:0:
307,104,278199,1,8,0:0:0:0:
160,157,278288,1,0,0:0:0:0:
307,104,278377,1,8,0:0:0:0:
419,208,278556,1,0,0:0:0:0:
307,104,278735,1,8,0:0:0:0:
237,146,278824,1,8,0:0:0:0:
307,104,278914,1,0,0:0:0:0:
237,146,279002,1,8,0:0:0:0:
307,104,279092,1,8,0:0:0:0:
237,146,279181,1,8,0:0:0:0:
307,104,279271,1,0,0:0:0:0:
307,104,279449,1,8,0:0:0:0:
307,104,279628,1,0,0:0:0:0:
227,159,279717,1,8,0:0:0:0:
307,104,279806,1,0,0:0:0:0:
419,208,279985,1,0,0:0:0:0:
307,104,280164,1,8,0:0:0:0:
237,146,280252,1,0,0:0:0:0:
307,104,280343,1,0,0:0:0:0:
237,146,280431,1,0,0:0:0:0:
307,104,280521,1,8,0:0:0:0:
237,146,280610,1,8,0:0:0:0:
307,104,280700,1,0,0:0:0:0:
307,104,280878,1,8,0:0:0:0:
163,54,280967,1,0,0:0:0:0:
307,104,281057,1,0,0:0:0:0:
119,106,281145,1,0,0:0:0:0:
307,104,281235,1,8,0:0:0:0:
419,208,281413,1,0,0:0:0:0:
307,104,281592,1,8,0:0:0:0:
70,181,281681,1,0,0:0:0:0:
307,104,281771,1,0,0:0:0:0:
82,175,281860,1,8,0:0:0:0:
307,104,281949,1,8,0:0:0:0:
82,175,282038,1,0,0:0:0:0:
307,104,282128,1,0,0:0:0:0:
307,104,282306,1,0,0:0:0:0:
192,110,282395,1,8,0:0:0:0:
307,104,282485,1,8,0:0:0:0:
172,83,282574,1,8,0:0:0:0:
307,104,282663,1,0,0:0:0:0:
419,208,282842,1,0,0:0:0:0:
307,104,283020,1,8,0:0:0:0:
222,245,283109,1,8,0:0:0:0:
307,104,283199,1,0,0:0:0:0:
307,104,283377,1,8,0:0:0:0:
307,104,283556,1,0,0:0:0:0:
222,245,283644,1,0,0:0:0:0:
307,104,283734,1,8,0:0:0:0:
222,245,283823,1,8,0:0:0:0:
307,104,283913,1,0,0:0:0:0:
307,104,284002,1,0,0:0:0:0:
307,104,284091,1,8,0:0:0:0:
419,208,284269,1,0,0:0:0:0:
307,104,284448,1,8,0:0:0:0:
222,245,284537,1,8,0:0:0:0:
307,104,284627,1,0,0:0:0:0:
307,104,284805,1,8,0:0:0:0:
307,104,284984,1,0,0:0:0:0:
222,245,285073,1,0,0:0:0:0:
307,104,285162,1,8,0:0:0:0:
222,245,285251,1,0,0:0:0:0:
307,104,285341,1,0,0:0:0:0:
307,104,285430,1,0,0:0:0:0:
307,104,285519,1,8,0:0:0:0:
222,245,285609,1,8,0:0:0:0:
419,208,285698,1,0,0:0:0:0:
307,104,285877,1,8,0:0:0:0:
307,104,286056,1,0,0:0:0:0:
222,245,286144,1,0,0:0:0:0:
307,104,286234,1,8,0:0:0:0:
307,104,286413,1,0,0:0:0:0:
222,245,286501,1,0,0:0:0:0:
307,104,286591,1,8,0:0:0:0:
222,245,286680,1,8,0:0:0:0:
307,104,286770,1,0,0:0:0:0:
307,104,286859,1,0,0:0:0:0:
307,104,286948,1,8,0:0:0:0:
419,208,287126,1,0,0:0:0:0:
307,104,287305,1,8,0:0:0:0:
222,245,287394,1,8,0:0:0:0:
307,104,287484,1,0,0:0:0:0:
222,245,287573,1,0,0:0:0:0:
307,104,287662,1,8,0:0:0:0:
307,104,287841,1,0,0:0:0:0:
222,245,287930,1,0,0:0:0:0:
307,104,288019,1,8,0:0:0:0:
222,245,288109,1,0,0:0:0:0:
307,104,288198,1,0,0:0:0:0:
307,104,288287,1,0,0:0:0:0:
307,104,288376,1,8,0:0:0:0:
222,245,288466,1,8,0:0:0:0:
419,208,288555,1,0,0:0:0:0:
307,104,288734,1,8,0:0:0:0:
222,245,288823,1,8,0:0:0:0:
307,104,288913,1,0,0:0:0:0:
307,104,289091,1,8,0:0:0:0:
307,104,289270,1,0,0:0:0:0:
222,245,289359,1,0,0:0:0:0:
307,104,289448,1,8,0:0:0:0:
222,245,289537,1,8,0:0:0:0:
307,104,289627,1,0,0:0:0:0:
307,104,289716,1,0,0:0:0:0:
307,104,289805,1,8,0:0:0:0:
419,208,289984,1,0,0:0:0:0:
307,104,290163,1,8,0:0:0:0:
222,245,290251,1,8,0:0:0:0:
307,104,290342,1,0,0:0:0:0:
307,104,290520,1,8,0:0:0:0:
307,104,290699,1,0,0:0:0:0:
307,104,290877,1,8,0:0:0:0:
222,245,290966,1,0,0:0:0:0:
307,104,291056,1,0,0:0:0:0:
307,104,291145,1,0,0:0:0:0:
307,104,291234,1,8,0:0:0:0:
419,208,291412,1,0,0:0:0:0:
222,245,291501,1,0,0:0:0:0:
307,104,291591,1,8,0:0:0:0:
307,104,291770,1,0,0:0:0:0:
307,104,291948,1,8,0:0:0:0:
222,245,292037,1,8,0:0:0:0:
307,104,292127,1,0,0:0:0:0:
307,104,292305,1,8,0:0:0:0:
222,245,292394,1,8,0:0:0:0:
307,104,292484,1,0,0:0:0:0:
307,104,292573,1,0,0:0:0:0:
307,104,292662,1,8,0:0:0:0:
419,208,292841,1,0,0:0:0:0:
307,104,293020,1,8,0:0:0:0:
222,245,293109,1,8,0:0:0:0:
307,104,293199,1,0,0:0:0:0:
307,104,293377,1,8,0:0:0:0:
222,245,293466,1,8,0:0:0:0:
307,104,293556,1,0,0:0:0:0:
307,104,293734,1,8,0:0:0:0:
222,245,293823,1,8,0:0:0:0:
307,104,293913,1,0,0:0:0:0:
307,104,294002,1,0,0:0:0:0:
307,104,294092,1,8,0:0:0:0:
432,82,294136,1,8,0:0:0:0:
205,239,294270,1,4,0:0:0:0:
205,239,294627,1,4,0:0:0:0:
205,239,294985,1,4,0:0:0:0:
205,239,295342,1,4,0:0:0:0:
205,239,295699,1,4,0:0:0:0:
205,239,296056,1,4,0:0:0:0:
205,239,296413,1,4,0:0:0:0:
205,239,296681,1,8,0:0:0:0:
382,210,296770,1,4,0:0:0:0:
205,239,296949,1,8,0:0:0:0:
205,239,297127,1,4,0:0:0:0:
205,239,297485,1,4,0:0:0:0:
205,239,297842,1,4,0:0:0:0:
205,239,298199,1,4,0:0:0:0:
205,239,298556,1,4,0:0:0:0:
205,239,298913,1,4,0:0:0:0:
205,239,299270,1,4,0:0:0:0:
205,239,299538,1,8,0:0:0:0:
276,233,299627,1,0,0:0:0:0:
205,239,299717,1,8,0:0:0:0:
205,239,299806,1,8,0:0:0:0:
205,239,299895,1,8,0:0:0:0:
205,239,299985,1,4,0:0:0:0:
205,239,300342,1,4,0:0:0:0:
205,239,300699,1,4,0:0:0:0:
205,239,301056,1,4,0:0:0:0:
205,239,301413,1,4,0:0:0:0:
205,239,301770,1,4,0:0:0:0:
205,239,302127,1,4,0:0:0:0:
205,239,302395,1,8,0:0:0:0:
205,239,302485,1,4,0:0:0:0:
205,239,302663,1,8,0:0:0:0:
205,239,302842,1,8,0:0:0:0:
205,239,303199,1,0,0:0:0:0:
294,153,303556,1,0,0:0:0:0:
205,239,303913,1,0,0:0:0:0:
205,239,304270,1,8,0:0:0:0:
205,239,304627,1,0,0:0:0:0:
181,166,304985,1,0,0:0:0:0:
417,283,305252,1,8,0:0:0:0:
464,124,305342,1,0,0:0:0:0:
464,124,305431,1,8,0:0:0:0:
276,115,305520,1,8,0:0:0:0:
458,118,305610,1,8,0:0:0:0:
181,166,305699,1,0,0:0:0:0:
412,154,305877,1,8,0:0:0:0:
412,154,306056,1,0,0:0:0:0:
288,179,306145,1,8,0:0:0:0:
412,154,306235,1,8,0:0:0:0:
412,154,306413,1,0,0:0:0:0:
412,154,306502,1,0,0:0:0:0:
412,154,306592,1,8,0:0:0:0:
412,154,306770,1,0,0:0:0:0:
412,154,306860,1,0,0:0:0:0:
412,154,306949,1,8,0:0:0:0:
288,179,307038,1,8,0:0:0:0:
412,154,307127,1,8,0:0:0:0:
288,179,307217,1,8,0:0:0:0:
412,154,307306,1,0,0:0:0:0:
412,154,307485,1,0,0:0:0:0:
412,154,307663,1,8,0:0:0:0:
412,154,307842,1,0,0:0:0:0:
412,154,308020,1,8,0:0:0:0:
412,154,308199,1,0,0:0:0:0:
412,154,308288,1,0,0:0:0:0:
412,154,308377,1,8,0:0:0:0:
412,154,308556,1,0,0:0:0:0:
412,154,308735,1,8,0:0:0:0:
412,154,308914,1,8,0:0:0:0:
288,179,309002,1,8,0:0:0:0:
412,154,309092,1,0,0:0:0:0:
412,154,309271,1,8,0:0:0:0:
288,179,309360,1,0,0:0:0:0:
412,154,309449,1,0,0:0:0:0:
412,154,309628,1,0,0:0:0:0:
412,154,309717,1,0,0:0:0:0:
412,154,309806,1,8,0:0:0:0:
119,153,309895,1,8,0:0:0:0:
412,154,309985,1,0,0:0:0:0:
119,153,310074,1,8,0:0:0:0:
412,154,310164,1,8,0:0:0:0:
149,159,310252,1,8,0:0:0:0:
412,154,310343,1,0,0:0:0:0:
149,159,310431,1,0,0:0:0:0:
412,154,310521,1,8,0:0:0:0:
412,154,310700,1,0,0:0:0:0:
412,154,310878,1,8,0:0:0:0:
412,154,311057,1,0,0:0:0:0:
412,154,311146,1,0,0:0:0:0:
412,154,311235,1,8,0:0:0:0:
412,154,311413,1,0,0:0:0:0:
412,154,311592,1,8,0:0:0:0:
412,154,311771,1,0,0:0:0:0:
119,153,311860,1,0,0:0:0:0:
412,154,311949,1,8,0:0:0:0:
412,154,312128,1,0,0:0:0:0:
119,153,312217,1,0,0:0:0:0:
412,154,312306,1,8,0:0:0:0:
412,154,312485,1,8,0:0:0:0:
412,154,312574,1,8,0:0:0:0:
412,154,312663,1,0,0:0:0:0:
125,161,312752,1,0,0:0:0:0:
412,154,312842,1,8,0:0:0:0:
125,161,312931,1,8,0:0:0:0:
412,154,313021,1,8,0:0:0:0:
149,159,313110,1,8,0:0:0:0:
412,154,313200,1,0,0:0:0:0:
149,159,313288,1,0,0:0:0:0:
412,154,313378,1,8,0:0:0:0:
113,154,313467,1,8,0:0:0:0:
412,154,313557,1,0,0:0:0:0:
412,154,313735,1,8,0:0:0:0:
412,154,313914,1,0,0:0:0:0:
412,154,314003,1,0,0:0:0:0:
412,154,314092,1,8,0:0:0:0:
412,154,314270,1,0,0:0:0:0:
412,154,314449,1,8,0:0:0:0:
412,154,314628,1,0,0:0:0:0:
125,161,314717,1,0,0:0:0:0:
412,154,314806,1,8,0:0:0:0:
195,68,314985,1,8,0:0:0:0:
226,68,315074,1,8,0:0:0:0:
412,154,315163,1,0,0:0:0:0:
412,154,315342,1,8,0:0:0:0:
412,154,315431,1,8,0:0:0:0:
412,154,315520,1,0,0:0:0:0:
412,154,315699,1,8,0:0:0:0:
14,184,315788,1,8,0:0:0:0:
412,154,315878,1,8,0:0:0:0:
329,194,315967,1,8,0:0:0:0:
412,154,316057,1,0,0:0:0:0:
412,154,316235,1,8,0:0:0:0:
14,184,316324,1,0,0:0:0:0:
412,154,316414,1,0,0:0:0:0:
295,171,316502,1,0,0:0:0:0:
412,154,316592,1,8,0:0:0:0:
14,184,316681,1,8,0:0:0:0:
412,154,316771,1,0,0:0:0:0:
412,154,316860,1,0,0:0:0:0:
412,154,316949,1,8,0:0:0:0:
412,154,317127,1,0,0:0:0:0:
412,154,317306,1,8,0:0:0:0:
412,154,317485,1,0,0:0:0:0:
14,184,317574,1,8,0:0:0:0:
412,154,317663,1,8,0:0:0:0:
412,154,317842,1,0,0:0:0:0:
14,184,317931,1,0,0:0:0:0:
412,154,318020,1,8,0:0:0:0:
412,154,318199,1,0,0:0:0:0:
412,154,318288,1,8,0:0:0:0:
412,154,318377,1,8,0:0:0:0:
14,184,318467,1,0,0:0:0:0:
412,154,318556,1,8,0:0:0:0:
14,184,318645,1,8,0:0:0:0:
412,154,318735,1,0,0:0:0:0:
338,81,318824,1,0,0:0:0:0:
412,154,318914,1,0,0:0:0:0:
338,81,319002,1,0,0:0:0:0:
412,154,319092,1,8,0:0:0:0:
412,154,319271,1,0,0:0:0:0:
412,154,319449,1,8,0:0:0:0:
412,154,319628,1,0,0:0:0:0:
412,154,319717,1,0,0:0:0:0:
412,154,319806,1,8,0:0:0:0:
412,154,319985,1,0,0:0:0:0:
412,154,320164,1,8,0:0:0:0:
180,83,320342,1,8,0:0:0:0:
180,83,320431,1,0,0:0:0:0:
412,154,320521,1,0,0:0:0:0:
412,154,320699,1,8,0:0:0:0:
203,70,320788,1,8,0:0:0:0:
412,154,320878,1,0,0:0:0:0:
412,154,321057,1,8,0:0:0:0:
412,154,321146,1,8,0:0:0:0:
412,154,321235,1,0,0:0:0:0:
142,219,321324,1,0,0:0:0:0:
412,154,321413,1,8,0:0:0:0:
142,219,321502,1,8,0:0:0:0:
412,154,321592,1,8,0:0:0:0:
338,81,321681,1,8,0:0:0:0:
412,154,321771,1,0,0:0:0:0:
338,81,321860,1,0,0:0:0:0:
412,154,321949,1,8,0:0:0:0:
412,154,322128,1,0,0:0:0:0:
412,154,322306,1,8,0:0:0:0:
412,154,322485,1,0,0:0:0:0:
412,154,322574,1,0,0:0:0:0:
412,154,322663,1,8,0:0:0:0:
412,154,322842,1,0,0:0:0:0:
412,154,323021,1,8,0:0:0:0:
412,154,323200,1,0,0:0:0:0:
183,155,323288,1,8,0:0:0:0:
412,154,323378,1,8,0:0:0:0:
412,154,323557,1,0,0:0:0:0:
183,155,323645,1,0,0:0:0:0:
412,154,323735,1,8,0:0:0:0:
412,154,323914,1,0,0:0:0:0:
412,154,324003,1,0,0:0:0:0:
412,154,324092,1,8,0:0:0:0:
183,155,324181,1,8,0:0:0:0:
412,154,324270,1,0,0:0:0:0:
183,155,324360,1,8,0:0:0:0:
412,154,324449,1,8,0:0:0:0:
338,81,324538,1,8,0:0:0:0:
412,154,324628,1,0,0:0:0:0:
338,81,324717,1,0,0:0:0:0:
412,154,324806,1,8,0:0:0:0:
183,155,324895,1,8,0:0:0:0:
412,154,324985,1,0,0:0:0:0:
412,154,325163,1,8,0:0:0:0:
412,154,325342,1,0,0:0:0:0:
412,154,325431,1,0,0:0:0:0:
412,154,325520,1,8,0:0:0:0:
183,155,325699,1,4,0:0:0:0:
183,155,326056,1,4,0:0:0:0:
183,155,326413,1,4,0:0:0:0:
183,155,326592,1,8,0:0:0:0:
183,155,326681,1,8,0:0:0:0:
183,155,326770,1,0,0:0:0:0:
219,189,326860,1,8,0:0:0:0:
219,189,326949,1,8,0:0:0:0:
219,189,327038,1,8,0:0:0:0:
219,189,327127,1,4,0:0:0:0:
183,155,327485,1,4,0:0:0:0:
183,155,327842,1,4,0:0:0:0:
183,155,328020,1,8,0:0:0:0:
183,155,328199,1,0,0:0:0:0:
311,73,328288,1,8,0:0:0:0:
183,155,328377,1,8,0:0:0:0:
311,73,328467,1,8,0:0:0:0:
183,155,328556,1,0,0:0:0:0:
183,155,328735,1,8,0:0:0:0:
183,155,328913,1,0,0:0:0:0:
255,91,329002,1,0,0:0:0:0:
183,155,329092,1,8,0:0:0:0:
183,155,329270,1,8,0:0:0:0:
127,88,329360,1,8,0:0:0:0:
183,155,329449,1,0,0:0:0:0:
183,155,329627,1,8,0:0:0:0:
183,155,329717,1,0,0:0:0:0:
183,155,329806,1,0,0:0:0:0:
412,154,329985,1,8,0:0:0:0:
139,132,330074,1,8,0:0:0:0:
412,154,330164,1,0,0:0:0:0:
160,144,330252,1,0,0:0:0:0:
412,154,330343,1,0,0:0:0:0:
412,154,330521,1,8,0:0:0:0:
279,105,330610,1,8,0:0:0:0:
412,154,330700,1,0,0:0:0:0:
338,81,330788,1,0,0:0:0:0:
412,154,330878,1,8,0:0:0:0:
412,154,331057,1,0,0:0:0:0:
412,154,331146,1,0,0:0:0:0:
412,154,331235,1,8,0:0:0:0:
412,154,331413,1,0,0:0:0:0:
412,154,331592,1,8,0:0:0:0:
412,154,331771,1,0,0:0:0:0:
226,123,331860,1,0,0:0:0:0:
412,154,331949,1,8,0:0:0:0:
412,154,332128,1,8,0:0:0:0:
206,0,332217,1,8,0:0:0:0:
412,154,332306,1,0,0:0:0:0:
412,154,332485,1,8,0:0:0:0:
412,154,332574,1,0,0:0:0:0:
412,154,332663,1,0,0:0:0:0:
338,81,332752,1,0,0:0:0:0:
412,154,332842,1,8,0:0:0:0:
218,120,332931,1,8,0:0:0:0:
412,154,333020,1,0,0:0:0:0:
133,187,333110,1,0,0:0:0:0:
412,154,333200,1,0,0:0:0:0:
412,154,333378,1,8,0:0:0:0:
133,187,333467,1,8,0:0:0:0:
412,154,333557,1,0,0:0:0:0:
412,154,333735,1,8,0:0:0:0:
412,154,333914,1,0,0:0:0:0:
412,154,334003,1,0,0:0:0:0:
412,154,334092,1,8,0:0:0:0:
125,208,334270,1,4,0:0:0:0:
125,208,334627,1,4,0:0:0:0:
125,208,334985,1,4,0:0:0:0:
125,208,335342,1,0,0:0:0:0:
125,208,335431,1,8,0:0:0:0:
125,208,335520,1,8,0:0:0:0:
125,208,335610,1,8,0:0:0:0:
125,208,335699,1,0,0:0:0:0:
125,208,336235,1,0,0:0:0:0:
37,167,336770,1,8,0:0:0:0:
