osu file format v14

[General]
AudioFilename: audio.mp3
AudioLeadIn: 0
PreviewTime: 4167
Countdown: 0
SampleSet: Normal
StackLeniency: 0.7
Mode: 0
LetterboxInBreaks: 0
WidescreenStoryboard: 0

[Editor]
Bookmarks: 37135
DistanceSpacing: 0.8
BeatDivisor: 4
GridSize: 8
TimelineZoom: 1

[Metadata]
Title:Metal Crusher
TitleUnicode:Metal Crusher
Artist:Toby Fox
ArtistUnicode:Toby Fox
Creator:Fifkee
Version:Molybdenum
Source:Undertale
Tags:undertale mettaton chiptune
BeatmapID:1227399
BeatmapSetID:579677

[Difficulty]
HPDrainRate:6
CircleSize:4
OverallDifficulty:8
ApproachRate:9
SliderMultiplier:1.4
SliderTickRate:1

[Events]
//Background and Video events
0,0,"hqdefault.png",0,0
//Break Periods
//Storyboard Layer 0 (Background)
//Storyboard Layer 1 (Fail)
//Storyboard Layer 2 (Pass)
//Storyboard Layer 3 (Foreground)
//Storyboard Sound Samples

[TimingPoints]
54.4342357813921,517.241379310345,4,1,0,100,1,0
154.434235781392,517.241379310345,4,1,0,100,1,0
3128,517.241379310345,4,1,0,100,1,0
3903,517.241379310345,4,1,0,100,1,0
3903,-100,4,1,0,100,0,0

[Colours]
Combo1 : 249,246,229
Combo2 : 146,143,175
Combo3 : 166,0,166
Combo4 : 0,0,236

[HitObjects]
76,106,154,6,0,P|68:162|114:207,1,105
144,280,671,1,0,0:0:0:0:
192,96,930,1,0,0:0:0:0:
344,144,1188,1,0,0:0:0:0:
344,144,1576,1,0,0:0:0:0:
344,144,1706,1,0,0:0:0:0:
392,236,2223,6,2,P|364:264|296:284,1,105
264,284,2740,1,0,0:0:0:0:
224,128,2999,1,0,0:0:0:0:
124,248,3257,2,0,L|125:100,1,140
320,56,4290,5,0,0:0:0:0:
336,80,4420,1,0,0:0:0:0:
344,112,4549,1,0,0:0:0:0:
344,144,4678,1,0,0:0:0:0:
336,176,4808,1,0,0:0:0:0:
128,64,5066,5,0,0:0:0:0:
112,96,5196,1,0,0:0:0:0:
120,128,5325,1,0,0:0:0:0:
352,192,5584,5,0,0:0:0:0:
360,224,5713,1,0,0:0:0:0:
360,256,5842,1,0,0:0:0:0:
170,281,6101,1,0,0:0:0:0:
166,106,6230,1,0,0:0:0:0:
341,102,6359,1,0,0:0:0:0:
345,277,6489,1,0,0:0:0:0:
166,106,6618,1,0,0:0:0:0:
341,102,6747,1,0,0:0:0:0:
256,56,6877,5,0,0:0:0:0:
290,49,7006,1,0,0:0:0:0:
323,57,7135,1,0,0:0:0:0:
350,79,7265,1,0,0:0:0:0:
366,110,7394,1,0,0:0:0:0:
288,260,7653,2,0,L|252:316,2,35
224,128,8170,5,0,0:0:0:0:
128,344,8299,1,0,0:0:0:0:
224,128,8428,1,0,0:0:0:0:
352,128,8687,1,0,0:0:0:0:
272,352,8816,1,0,0:0:0:0:
352,128,8946,1,0,0:0:0:0:
164,184,9204,2,0,L|200:144,2,35
136,216,9721,2,0,L|96:264,2,35
256,76,10239,5,0,0:0:0:0:
292,56,10368,1,0,0:0:0:0:
332,56,10497,1,0,0:0:0:0:
364,68,10627,1,0,0:0:0:0:
392,88,10756,1,0,0:0:0:0:
416,112,10885,1,0,0:0:0:0:
424,144,11015,1,0,0:0:0:0:
424,184,11144,1,0,0:0:0:0:
400,232,11273,2,0,L|376:284,2,35
272,192,11790,6,0,L|292:160,2,35
347,314,12308,1,8,0:0:0:0:
248,272,12566,1,0,0:0:0:0:
224,248,12696,1,0,0:0:0:0:
208,216,12825,1,0,0:0:0:0:
216,184,12954,1,0,0:0:0:0:
232,160,13084,1,0,0:0:0:0:
348,104,13342,1,0,0:0:0:0:
376,124,13471,1,0,0:0:0:0:
392,152,13601,5,0,0:0:0:0:
400,240,13859,2,0,L|376:288,2,35
392,133,14377,1,0,0:0:0:0:
375,103,14506,1,0,0:0:0:0:
348,80,14635,1,0,0:0:0:0:
316,67,14765,1,0,0:0:0:0:
281,65,14894,1,0,0:0:0:0:
248,74,15023,1,0,0:0:0:0:
219,93,15153,1,0,0:0:0:0:
200,136,15282,5,0,0:0:0:0:
120,208,15411,2,0,L|168:176,2,35
136,296,15928,2,0,L|92:269,2,35
264,248,16446,1,0,0:0:0:0:
197,319,16575,1,0,0:0:0:0:
132,257,16704,1,0,0:0:0:0:
144,144,16963,1,0,0:0:0:0:
210,78,17092,1,0,0:0:0:0:
269,141,17221,5,0,0:0:0:0:
276,168,17480,1,0,0:0:0:0:
281,202,17609,1,0,0:0:0:0:
288,246,17739,1,0,0:0:0:0:
320,135,17997,1,0,0:0:0:0:
325,169,18127,1,0,0:0:0:0:
333,208,18256,1,0,0:0:0:0:
388,85,18515,5,0,0:0:0:0:
410,111,18644,1,0,0:0:0:0:
422,137,18773,1,0,0:0:0:0:
431,170,18903,1,0,0:0:0:0:
419,203,19032,1,0,0:0:0:0:
399,232,19161,1,0,0:0:0:0:
352,248,19290,1,0,0:0:0:0:
312,248,19420,1,0,0:0:0:0:
264,240,19549,1,0,0:0:0:0:
208,64,19678,5,0,0:0:0:0:
365,192,19808,1,0,0:0:0:0:
160,256,20066,1,0,0:0:0:0:
208,64,20196,1,0,0:0:0:0:
360,160,20325,1,0,0:0:0:0:
140,86,20454,1,0,0:0:0:0:
117,120,20584,2,0,L|102:177,1,35
101,206,20842,2,2,P|142:289|272:308,1,210
240,240,21877,2,2,P|346:193|381:89,1,210
304,104,22911,6,2,L|134:106,1,140
160,176,23946,2,2,L|327:177,1,140
152,216,24980,2,2,P|202:302|321:305,1,210
288,248,26015,2,2,P|329:160|248:104,1,210
104,256,27049,5,0,0:0:0:0:
106,206,27178,5,0,0:0:0:0:
107,156,27308,5,0,0:0:0:0:
291,171,27566,5,0,0:0:0:0:
291,124,27696,5,0,0:0:0:0:
288,71,27825,5,0,0:0:0:0:
375,48,28084,6,2,L|372:211,1,140
352,244,28730,1,0,0:0:0:0:
315,262,28859,1,0,0:0:0:0:
272,268,28989,1,0,0:0:0:0:
224,248,29118,2,2,P|173:134|217:71,1,210
376,80,30153,2,2,P|460:158|439:275,1,210
368,216,31187,1,2,0:0:0:0:
240,296,31704,1,2,0:0:0:0:
120,224,32221,1,2,0:0:0:0:
96,112,32739,5,2,0:0:0:0:
190,97,33256,6,2,P|301:95|415:198,1,245
417,204,34290,5,0,0:0:0:0:
372,281,34808,5,0,0:0:0:0:
293,318,35325,6,2,P|217:306|189:158,1,245
212,137,36359,5,0,0:0:0:0:
250,126,36489,5,0,0:0:0:0:
296,120,36618,5,0,0:0:0:0:
330,142,36747,5,0,0:0:0:0:
348,164,36877,5,0,0:0:0:0:
352,192,37006,5,0,0:0:0:0:
352,232,37135,5,0,0:0:0:0:
320,288,37394,1,0,0:0:0:0:
176,248,37523,1,0,0:0:0:0:
224,120,37653,1,0,0:0:0:0:
352,136,37782,1,0,0:0:0:0:
387,192,37911,5,0,0:0:0:0:
403,228,38170,1,0,0:0:0:0:
403,266,38299,1,0,0:0:0:0:
380,295,38428,1,0,0:0:0:0:
263,302,38687,5,0,0:0:0:0:
230,272,38816,1,0,0:0:0:0:
210,225,38946,1,0,0:0:0:0:
256,272,39204,5,0,0:0:0:0:
256,72,39334,1,0,0:0:0:0:
278,268,39463,5,0,0:0:0:0:
222,76,39593,1,0,0:0:0:0:
298,259,39721,5,0,0:0:0:0:
192,90,39851,1,0,0:0:0:0:
317,243,39980,5,0,0:0:0:0:
164,114,40110,1,0,0:0:0:0:
331,218,40239,5,0,0:0:0:0:
142,152,40369,1,0,0:0:0:0:
335,193,40497,5,0,0:0:0:0:
215,215,40756,5,0,0:0:0:0:
256,145,40885,1,0,0:0:0:0:
296,215,41015,1,0,0:0:0:0:
145,118,41273,5,0,0:0:0:0:
299,120,41403,1,0,0:0:0:0:
221,124,41532,1,0,0:0:0:0:
214,201,41790,2,0,L|215:256,2,35
208,88,42308,2,0,L|206:40,2,35
208,312,42825,2,0,L|208:372,2,35
146,150,43342,5,0,0:0:0:0:
171,129,43471,1,0,0:0:0:0:
205,124,43601,1,0,0:0:0:0:
238,134,43730,1,0,0:0:0:0:
267,147,43859,1,0,0:0:0:0:
285,171,43989,1,0,0:0:0:0:
300,198,44118,1,0,0:0:0:0:
323,220,44247,1,0,0:0:0:0:
366,242,44377,1,0,0:0:0:0:
408,224,44506,5,0,0:0:0:0:
422,192,44635,1,0,0:0:0:0:
390,91,44894,1,0,0:0:0:0:
256,152,45023,5,0,0:0:0:0:
152,168,45153,1,0,0:0:0:0:
192,80,45411,1,8,0:0:0:0:
212,202,45670,6,0,L|252:253,4,35
200,160,46446,1,0,0:0:0:0:
200,160,46575,1,0,0:0:0:0:
312,160,46704,1,0,0:0:0:0:
253,163,46963,2,0,L|254:212,2,35
197,71,47480,5,0,0:0:0:0:
156,97,47609,1,0,0:0:0:0:
129,138,47739,1,0,0:0:0:0:
128,176,47868,1,0,0:0:0:0:
142,214,47997,1,0,0:0:0:0:
175,250,48127,1,0,0:0:0:0:
219,270,48256,1,0,0:0:0:0:
264,280,48385,1,0,0:0:0:0:
332,265,48515,2,0,L|365:244,2,35
160,288,49032,6,0,L|144:336,2,35
155,235,49549,1,0,0:0:0:0:
50,164,49678,1,0,0:0:0:0:
159,73,49808,1,0,0:0:0:0:
256,112,50066,1,0,0:0:0:0:
256,112,50196,1,0,0:0:0:0:
256,112,50325,1,0,0:0:0:0:
328,112,50584,2,0,L|283:163,1,35
304,144,50842,1,0,0:0:0:0:
226,242,51101,5,0,0:0:0:0:
226,141,51230,1,0,0:0:0:0:
314,192,51359,1,0,0:0:0:0:
222,287,51618,1,0,0:0:0:0:
160,158,51747,1,0,0:0:0:0:
289,96,51877,1,0,0:0:0:0:
351,225,52006,1,0,0:0:0:0:
305,169,52135,2,0,L|260:204,3,35
189,133,52653,1,0,0:0:0:0:
155,260,52782,5,0,0:0:0:0:
271,289,52911,1,0,0:0:0:0:
272,80,53170,1,0,0:0:0:0:
381,197,53299,1,0,0:0:0:0:
192,216,53428,1,4,0:0:0:0:
256,192,53687,12,0,55497,0:0:0:0:
