osu file format v14

[General]
AudioFilename: audio.mp3
AudioLeadIn: 0
PreviewTime: 4167
Countdown: 1
SampleSet: Normal
StackLeniency: 0.7
Mode: 0
LetterboxInBreaks: 0
WidescreenStoryboard: 1
SamplesMatchPlaybackRate: 1

[Editor]
DistanceSpacing: 2.2
BeatDivisor: 1
GridSize: 16
TimelineZoom: 1

[Metadata]
Title:Metal Crusher
TitleUnicode:Metal Crusher
Artist:Toby Fox
ArtistUnicode:Toby Fox
Creator:Fifkee
Version:Gold
Source:Undertale
Tags:undertale mettaton chiptune
BeatmapID:1227398
BeatmapSetID:579677

[Difficulty]
HPDrainRate:0
CircleSize:2
OverallDifficulty:0
ApproachRate:0
SliderMultiplier:1.4
SliderTickRate:1

[Events]
//Background and Video events
0,0,"hqdefault.png",0,0
//Break Periods
2,20525,34559
//Storyboard Layer 0 (Background)
//Storyboard Layer 1 (Fail)
//Storyboard Layer 2 (Pass)
//Storyboard Layer 3 (Foreground)
//Storyboard Sound Samples

[TimingPoints]
-∞,∞,4,1,0,100,1,0 -∞,-133.333333333333,4,1,0,100,0,0
54.4342357813921,517.241379310345,4,1,0,100,1,0
154.434235781392,517.241379310345,4,1,0,100,1,0
3128,517.241379310345,4,1,0,100,1,0
3903,517.241379310345,4,1,0,100,1,0
3903,-100,4,1,0,100,0,0

[Colours]
Combo1 : 249,246,229
Combo2 : 86,84,118
Combo3 : 64,0,64
Combo4 : 0,0,64

[HitObjects]
144,96,183,5,0,0:0:0:0:
224,160,671,1,0,0:0:0:0:
320,208,1188,1,0,0:0:0:0:
320,208,1706,1,0,0:0:0:0:
224,192,2223,2,0,L|112:96,2,140
96,64,4290,5,0,0:0:0:0:
128,112,4808,1,0,0:0:0:0:
192,192,5325,2,0,L|352:192,1,140
320,96,6359,1,0,0:0:0:0:
112,96,6877,1,0,0:0:0:0:
112,240,7394,1,0,0:0:0:0:
288,240,7911,1,0,0:0:0:0:
240,112,8428,2,0,L|96:112,1,140
112,192,9463,2,0,L|256:192,1,140
336,176,10497,5,0,0:0:0:0:
320,288,11015,1,0,0:0:0:0:
224,288,11532,2,0,L|64:288,2,140
384,288,13084,1,0,0:0:0:0:
384,112,13601,1,0,0:0:0:0:
256,112,14118,2,0,L|96:112,1,140
112,240,15153,2,0,L|256:240,1,140
368,240,16187,1,0,0:0:0:0:
368,112,16704,5,0,0:0:0:0:
304,112,17221,1,0,0:0:0:0:
240,112,17739,1,0,0:0:0:0:
144,112,18256,2,0,P|128:176|176:256,1,140
240,240,19290,2,0,L|384:240,1,140
416,160,20325,1,0,0:0:0:0:
320,144,36359,5,0,0:0:0:0:
240,224,37394,1,0,0:0:0:0:
208,112,37911,2,0,L|352:112,2,140
208,256,39463,2,0,L|368:256,1,140
352,128,40497,1,0,0:0:0:0:
224,112,41015,1,0,0:0:0:0:
112,112,41532,1,0,0:0:0:0:
112,240,42049,1,0,0:0:0:0:
208,240,42566,21,0,0:0:0:0:
352,256,43084,1,0,0:0:0:0:
352,144,43601,1,0,0:0:0:0:
336,48,44118,1,0,0:0:0:0:
208,48,44635,1,0,0:0:0:0:
208,160,45153,2,0,L|352:160,1,140
352,272,46187,1,0,0:0:0:0:
256,272,46704,2,0,L|112:272,1,140
112,192,47739,2,0,L|256:192,1,140
256,96,48773,5,0,0:0:0:0:
128,96,49290,1,0,0:0:0:0:
128,224,49808,1,0,0:0:0:0:
256,224,50325,1,0,0:0:0:0:
256,64,50842,2,0,L|256:224,1,140
256,304,51877,1,0,0:0:0:0:
368,304,52394,1,0,0:0:0:0:
368,160,52911,1,0,0:0:0:0:
224,160,53428,1,0,0:0:0:0:
