osu file format v14

[General]
AudioFilename: audio.mp3
AudioLeadIn: 0
PreviewTime: 4167
Countdown: 0
SampleSet: Soft
StackLeniency: 0.7
Mode: 3
LetterboxInBreaks: 0
SpecialStyle: 0
WidescreenStoryboard: 1
SamplesMatchPlaybackRate: 1

[Editor]
DistanceSpacing: 0.8
BeatDivisor: 4
GridSize: 8
TimelineZoom: 1

[Metadata]
Title:Metal Crusher
TitleUnicode:Metal Crusher
Artist:Toby Fox
ArtistUnicode:Toby Fox
Creator:Fifkee
Version:4K ADVANCED
Source:Undertale
Tags:undertale mettaton chiptune
BeatmapID:1231759
BeatmapSetID:579677

[Difficulty]
HPDrainRate:6.5
CircleSize:4
OverallDifficulty:9
ApproachRate:7
SliderMultiplier:1.4
SliderTickRate:1

[Events]
//Background and Video events
0,0,"hqdefault.png",0,0
//Break Periods
//Storyboard Layer 0 (Background)
//Storyboard Layer 1 (Fail)
//Storyboard Layer 2 (Pass)
//Storyboard Layer 3 (Foreground)
//Storyboard Sound Samples

[TimingPoints]
54.4342357813921,517.241379310345,4,2,0,100,1,0
154.434235781392,517.241379310345,4,2,0,100,1,0

[Colours]
Combo1 : 249,246,229
Combo2 : 146,143,175
Combo3 : 166,0,166
Combo4 : 0,0,236

[HitObjects]
64,192,283,5,0,0:0:0:0:
192,192,542,1,0,0:0:0:0:
320,192,671,1,0,0:0:0:0:
448,192,930,1,0,0:0:0:0:
64,192,1188,1,0,0:0:0:0:
448,192,1576,1,0,0:0:0:0:
192,192,1706,1,0,0:0:0:0:
320,192,2223,1,0,0:0:0:0:
64,192,2611,1,0,0:0:0:0:
448,192,2740,1,0,0:0:0:0:
192,192,2999,1,0,0:0:0:0:
64,192,3257,1,0,0:0:0:0:
448,192,3257,1,0,0:0:0:0:
320,192,4292,1,0,0:0:0:0:
192,192,4421,1,0,0:0:0:0:
448,192,4550,1,0,0:0:0:0:
448,192,4680,1,0,0:0:0:0:
64,192,4809,1,0,0:0:0:0:
320,192,5068,1,0,0:0:0:0:
192,192,5197,1,0,0:0:0:0:
320,192,5326,1,0,0:0:0:0:
448,192,5585,1,0,0:0:0:0:
64,192,5714,1,0,0:0:0:0:
320,192,5844,1,0,0:0:0:0:
192,192,6102,1,0,0:0:0:0:
448,192,6232,1,0,0:0:0:0:
64,192,6361,1,0,0:0:0:0:
448,192,6490,1,0,0:0:0:0:
448,192,6619,1,0,0:0:0:0:
192,192,6749,1,0,0:0:0:0:
320,192,6878,1,0,0:0:0:0:
64,192,7007,1,0,0:0:0:0:
448,192,7137,1,0,0:0:0:0:
448,192,7266,1,0,0:0:0:0:
192,192,7395,1,0,0:0:0:0:
320,192,7654,1,0,0:0:0:0:
192,192,7783,1,0,0:0:0:0:
64,192,7913,1,0,0:0:0:0:
320,192,8171,1,0,0:0:0:0:
448,192,8300,1,0,0:0:0:0:
192,192,8430,1,0,0:0:0:0:
192,192,8688,1,0,0:0:0:0:
64,192,8818,1,0,0:0:0:0:
448,192,8947,1,0,0:0:0:0:
64,192,9206,1,0,0:0:0:0:
192,192,9335,1,0,0:0:0:0:
320,192,9464,1,0,0:0:0:0:
64,192,9723,1,0,0:0:0:0:
192,192,9852,1,0,0:0:0:0:
448,192,9982,1,0,0:0:0:0:
192,192,10240,1,0,0:0:0:0:
320,192,10369,1,0,0:0:0:0:
64,192,10499,1,0,0:0:0:0:
448,192,10628,1,0,0:0:0:0:
448,192,10757,1,0,0:0:0:0:
192,192,10887,1,0,0:0:0:0:
320,192,11016,1,0,0:0:0:0:
64,192,11145,1,0,0:0:0:0:
448,192,11275,1,0,0:0:0:0:
448,192,11404,1,0,0:0:0:0:
192,192,11533,1,0,0:0:0:0:
320,192,11792,1,0,0:0:0:0:
64,192,11921,1,0,0:0:0:0:
448,192,12050,1,0,0:0:0:0:
192,192,12309,1,0,0:0:0:0:
64,192,12568,1,0,0:0:0:0:
192,192,12697,1,0,0:0:0:0:
320,192,12826,1,0,0:0:0:0:
448,192,12956,1,0,0:0:0:0:
320,192,13085,1,0,0:0:0:0:
448,192,13344,1,0,0:0:0:0:
192,192,13473,1,0,0:0:0:0:
320,192,13602,1,0,0:0:0:0:
192,192,13861,1,0,0:0:0:0:
448,192,13990,1,0,0:0:0:0:
64,192,14119,1,0,0:0:0:0:
192,192,14378,1,0,0:0:0:0:
320,192,14507,1,0,0:0:0:0:
320,192,14637,1,0,0:0:0:0:
192,192,14766,1,0,0:0:0:0:
448,192,14895,1,0,0:0:0:0:
64,192,15025,1,0,0:0:0:0:
448,192,15154,1,0,0:0:0:0:
448,192,15283,1,0,0:0:0:0:
64,192,15413,1,0,0:0:0:0:
192,192,15542,1,0,0:0:0:0:
320,192,15671,1,0,0:0:0:0:
448,192,15930,1,0,0:0:0:0:
64,192,16059,1,0,0:0:0:0:
448,192,16188,1,0,0:0:0:0:
192,192,16447,1,0,0:0:0:0:
448,192,16576,1,0,0:0:0:0:
448,192,16706,1,0,0:0:0:0:
320,192,16964,1,0,0:0:0:0:
64,192,17094,1,0,0:0:0:0:
192,192,17223,1,0,0:0:0:0:
448,192,17482,1,0,0:0:0:0:
192,192,17579,1,0,0:0:0:0:
320,192,17740,1,0,0:0:0:0:
64,192,17999,1,0,0:0:0:0:
192,192,18085,1,0,0:0:0:0:
320,192,18257,1,0,0:0:0:0:
320,192,18516,1,0,0:0:0:0:
320,192,18645,1,0,0:0:0:0:
320,192,18775,1,0,0:0:0:0:
192,192,18904,1,0,0:0:0:0:
448,192,19033,1,0,0:0:0:0:
448,192,19163,1,0,0:0:0:0:
64,192,19292,1,0,0:0:0:0:
320,192,19421,1,0,0:0:0:0:
192,192,19550,1,0,0:0:0:0:
448,192,19680,1,0,0:0:0:0:
64,192,19809,1,0,0:0:0:0:
448,192,20068,1,0,0:0:0:0:
192,192,20197,1,0,0:0:0:0:
320,192,20326,1,0,0:0:0:0:
64,192,20456,1,0,0:0:0:0:
192,192,20585,1,0,0:0:0:0:
320,192,20714,1,0,0:0:0:0:
448,192,20844,128,0,21619:0:0:0:0:
64,192,20844,128,0,21619:0:0:0:0:
320,192,21619,1,0,0:0:0:0:
192,192,21619,1,0,0:0:0:0:
320,192,21878,128,0,22654:0:0:0:0:
192,192,21878,128,0,22654:0:0:0:0:
448,192,22654,1,0,0:0:0:0:
64,192,22654,1,0,0:0:0:0:
64,192,22913,128,0,23430:0:0:0:0:
448,192,22913,128,0,23430:0:0:0:0:
320,192,23430,1,0,0:0:0:0:
192,192,23430,1,0,0:0:0:0:
192,192,23947,128,0,24464:0:0:0:0:
320,192,23947,128,0,24464:0:0:0:0:
448,192,24464,1,0,0:0:0:0:
64,192,24464,1,0,0:0:0:0:
64,192,24982,128,0,25757:0:0:0:0:
448,192,24982,128,0,25757:0:0:0:0:
192,192,25757,1,0,0:0:0:0:
320,192,25757,1,0,0:0:0:0:
192,192,26016,128,0,26792:0:0:0:0:
320,192,26016,128,0,26792:0:0:0:0:
64,192,26792,1,0,0:0:0:0:
448,192,26792,1,0,0:0:0:0:
64,192,27050,1,0,0:0:0:0:
448,192,27050,1,0,0:0:0:0:
64,192,27180,1,0,0:0:0:0:
448,192,27180,1,0,0:0:0:0:
64,192,27309,1,0,0:0:0:0:
448,192,27309,1,0,0:0:0:0:
64,192,27568,1,0,0:0:0:0:
448,192,27568,1,0,0:0:0:0:
448,192,27697,1,0,0:0:0:0:
64,192,27697,1,0,0:0:0:0:
64,192,27826,1,0,0:0:0:0:
448,192,27826,1,0,0:0:0:0:
64,192,28085,1,0,0:0:0:0:
448,192,28085,1,0,0:0:0:0:
192,192,28602,1,0,0:0:0:0:
320,192,28602,1,0,0:0:0:0:
320,192,28732,1,0,0:0:0:0:
448,192,28861,1,0,0:0:0:0:
448,192,28990,1,0,0:0:0:0:
192,192,29119,128,0,29895:0:0:0:0:
320,192,29895,1,0,0:0:0:0:
64,192,30154,128,0,30930:0:0:0:0:
192,192,30930,1,0,0:0:0:0:
448,192,31188,128,0,31706:0:0:0:0:
320,192,31706,1,0,0:0:0:0:
192,192,32223,128,0,32740:0:0:0:0:
320,192,32740,1,0,0:0:0:0:
320,192,33257,128,0,33904:0:0:0:0:
64,192,34163,1,0,0:0:0:0:
192,192,34292,1,0,0:0:0:0:
320,192,34809,1,0,0:0:0:0:
448,192,35326,128,0,36102:0:0:0:0:
64,192,35326,128,0,36102:0:0:0:0:
448,192,36232,1,0,0:0:0:0:
64,192,36361,1,0,0:0:0:0:
192,192,36490,1,0,0:0:0:0:
320,192,36619,1,0,0:0:0:0:
448,192,36749,1,0,0:0:0:0:
320,192,36878,1,0,0:0:0:0:
448,192,37395,1,0,0:0:0:0:
192,192,37525,1,0,0:0:0:0:
320,192,37654,1,0,0:0:0:0:
320,192,37783,1,0,0:0:0:0:
64,192,37913,1,0,0:0:0:0:
192,192,38171,1,0,0:0:0:0:
448,192,38300,1,0,0:0:0:0:
320,192,38430,1,0,0:0:0:0:
320,192,38688,1,0,0:0:0:0:
64,192,38818,1,0,0:0:0:0:
448,192,38947,1,0,0:0:0:0:
192,192,39206,1,0,0:0:0:0:
320,192,39335,1,0,0:0:0:0:
320,192,39464,1,0,0:0:0:0:
64,192,39594,1,0,0:0:0:0:
192,192,39723,1,0,0:0:0:0:
320,192,39852,1,0,0:0:0:0:
448,192,39982,1,0,0:0:0:0:
448,192,40111,1,0,0:0:0:0:
448,192,40240,1,0,0:0:0:0:
64,192,40369,1,0,0:0:0:0:
320,192,40499,1,0,0:0:0:0:
320,192,40757,1,0,0:0:0:0:
192,192,40887,1,0,0:0:0:0:
448,192,41016,1,0,0:0:0:0:
448,192,41275,1,0,0:0:0:0:
192,192,41404,1,0,0:0:0:0:
320,192,41533,1,0,0:0:0:0:
64,192,41792,1,0,0:0:0:0:
448,192,41921,1,0,0:0:0:0:
192,192,42050,1,0,0:0:0:0:
320,192,42309,1,0,0:0:0:0:
320,192,42438,1,0,0:0:0:0:
320,192,42568,1,0,0:0:0:0:
64,192,42826,1,0,0:0:0:0:
64,192,42956,1,0,0:0:0:0:
64,192,43085,1,0,0:0:0:0:
448,192,43344,1,0,0:0:0:0:
192,192,43473,1,0,0:0:0:0:
320,192,43570,1,0,0:0:0:0:
320,192,43732,1,0,0:0:0:0:
320,192,43861,1,0,0:0:0:0:
64,192,43990,1,0,0:0:0:0:
448,192,44119,1,0,0:0:0:0:
192,192,44249,1,0,0:0:0:0:
448,192,44378,1,0,0:0:0:0:
64,192,44507,1,0,0:0:0:0:
320,192,44637,1,0,0:0:0:0:
192,192,44895,1,0,0:0:0:0:
448,192,45025,1,0,0:0:0:0:
64,192,45154,1,0,0:0:0:0:
320,192,45413,1,0,0:0:0:0:
448,192,45413,1,0,0:0:0:0:
448,192,45671,1,0,0:0:0:0:
320,192,45800,1,0,0:0:0:0:
192,192,45930,1,0,0:0:0:0:
64,192,46059,1,0,0:0:0:0:
448,192,46188,1,0,0:0:0:0:
448,192,46447,1,0,0:0:0:0:
448,192,46576,1,0,0:0:0:0:
192,192,46706,1,0,0:0:0:0:
320,192,46964,1,0,0:0:0:0:
64,192,47094,1,0,0:0:0:0:
448,192,47223,1,0,0:0:0:0:
192,192,47482,1,0,0:0:0:0:
448,192,47611,1,0,0:0:0:0:
448,192,47740,1,0,0:0:0:0:
64,192,47869,1,0,0:0:0:0:
320,192,47999,1,0,0:0:0:0:
320,192,48128,1,0,0:0:0:0:
192,192,48257,1,0,0:0:0:0:
448,192,48387,1,0,0:0:0:0:
64,192,48516,1,0,0:0:0:0:
448,192,48645,1,0,0:0:0:0:
192,192,48775,1,0,0:0:0:0:
320,192,49033,1,0,0:0:0:0:
320,192,49163,1,0,0:0:0:0:
192,192,49292,1,0,0:0:0:0:
448,192,49550,1,0,0:0:0:0:
320,192,49680,1,0,0:0:0:0:
192,192,49809,1,0,0:0:0:0:
448,192,50068,1,0,0:0:0:0:
448,192,50197,1,0,0:0:0:0:
448,192,50326,1,0,0:0:0:0:
64,192,50585,1,0,0:0:0:0:
320,192,50714,1,0,0:0:0:0:
192,192,50844,1,0,0:0:0:0:
320,192,51102,1,0,0:0:0:0:
320,192,51232,1,0,0:0:0:0:
320,192,51361,1,0,0:0:0:0:
64,192,51619,1,0,0:0:0:0:
192,192,51749,1,0,0:0:0:0:
320,192,51878,1,0,0:0:0:0:
448,192,52007,1,0,0:0:0:0:
320,192,52137,1,0,0:0:0:0:
192,192,52266,1,0,0:0:0:0:
64,192,52395,1,0,0:0:0:0:
192,192,52525,1,0,0:0:0:0:
320,192,52654,1,0,0:0:0:0:
448,192,52783,1,0,0:0:0:0:
320,192,52913,1,0,0:0:0:0:
64,192,53171,1,0,0:0:0:0:
192,192,53300,1,0,0:0:0:0:
320,192,53430,1,0,0:0:0:0:
