osu file format v14

[General]
AudioFilename: audio.mp3
AudioLeadIn: 0
PreviewTime: 4163
Countdown: 1
SampleSet: Soft
StackLeniency: 0.7
Mode: 0
LetterboxInBreaks: 0
WidescreenStoryboard: 1

[Editor]
DistanceSpacing: 0.5
BeatDivisor: 4
GridSize: 4
TimelineZoom: 3.499999

[Metadata]
Title:Metal Crusher
TitleUnicode:Metal Crusher
Artist:Toby Fox
ArtistUnicode:Toby Fox
Creator:-Light-
Version:Showtime!!
Source:Undertale
Tags:video game ost original soundtrack mettaton derandom otaku ren chrononig m3gb3g
BeatmapID:2010173
BeatmapSetID:959780

[Difficulty]
HPDrainRate:6.5
CircleSize:4
OverallDifficulty:9.5
ApproachRate:9.8
SliderMultiplier:2
SliderTickRate:1

[Events]
//Background and Video events
0,0,"bg.jpg",0,0
//Break Periods
//Storyboard Layer 0 (Background)
//Storyboard Layer 1 (Fail)
//Storyboard Layer 2 (Pass)
//Storyboard Layer 3 (Foreground)
//Storyboard Sound Samples

[TimingPoints]
90,258.620689655172,4,2,0,40,1,0
90,-142.857142857143,4,2,0,40,0,0
4227,-100,4,2,0,40,0,0
20779,-125,4,2,0,59,0,0
22848,-133.333333333333,4,2,0,59,0,0
23365,-142.857142857143,4,2,0,59,0,0
23883,-125,4,2,0,59,0,0
29055,-100,4,2,0,59,0,0
35262,-142.857142857143,4,2,0,59,0,0
36814,-166.666666666667,4,2,0,59,0,0
37460,-100,4,2,0,59,0,0
53883,-125,4,2,0,59,0,0
61900,-200,4,2,0,59,0,0

[Colours]
Combo1 : 206,206,0
Combo2 : 255,128,64
Combo3 : 255,89,255
Combo4 : 163,82,82

[HitObjects]
107,384,90,6,0,P|126:325|103:242,1,139.999995727539
30,160,477,1,0,0:0:0:0:
30,160,607,6,0,B|89:137|89:137|166:153,1,139.999995727539
264,248,1124,2,0,P|243:197|264:105,1,139.999995727539
343,27,1512,1,0,0:0:0:0:
343,27,1641,6,0,L|351:172,1,139.999995727539
464,291,2158,2,0,B|485:223|485:223|469:147,1,139.999995727539
372,212,2546,1,0,0:0:0:0:
372,212,2676,2,0,P|365:246|374:286,1,69.9999978637696
272,227,2934,2,0,P|278:192|271:158,1,69.9999978637696
257,335,3193,6,0,B|300:341|300:341|321:365|321:365|385:372,2,139.999995727539
82,349,4227,5,0,0:0:0:0:
82,349,4292,1,0,0:0:0:0:
82,349,4357,1,0,0:0:0:0:
239,273,4486,1,0,0:0:0:0:
84,177,4615,1,0,0:0:0:0:
215,360,4745,6,0,B|265:366|265:366|316:331,1,100
277,112,5003,1,0,0:0:0:0:
152,292,5133,1,0,0:0:0:0:
42,67,5262,6,0,L|152:51,1,100
335,219,5521,1,0,0:0:0:0:
241,18,5650,1,0,0:0:0:0:
34,206,5779,6,0,B|152:224|115:148|239:157,1,200
394,121,6167,1,0,0:0:0:0:
270,368,6296,6,0,B|255:326|255:326|279:254,1,100
471,69,6555,2,0,B|489:109|489:109|471:183,1,100
221,156,6814,1,0,0:0:0:0:
408,22,6943,1,0,0:0:0:0:
345,298,7072,1,0,0:0:0:0:
246,56,7202,1,0,0:0:0:0:
132,329,7331,6,0,B|157:277|157:277|129:111,1,200
4,295,7719,1,0,0:0:0:0:
244,235,7848,2,0,L|345:210,1,100
94,98,8107,1,0,0:0:0:0:
266,348,8236,1,0,0:0:0:0:
266,348,8301,1,0,0:0:0:0:
266,348,8365,6,0,B|159:320|197:407|69:376,1,200
178,154,8753,1,0,0:0:0:0:
339,384,8883,2,0,B|348:341|348:341|328:284,1,100
296,61,9141,1,0,0:0:0:0:
191,314,9271,1,0,0:0:0:0:
430,161,9400,6,0,B|392:166|392:166|368:159|368:159|319:166,1,100
29,162,9658,1,0,0:0:0:0:
279,259,9788,1,0,0:0:0:0:
136,32,9917,2,0,B|102:121|102:121|125:232,1,200
242,373,10305,1,0,0:0:0:0:
287,165,10434,5,0,0:0:0:0:
332,367,10564,1,0,0:0:0:0:
474,118,10693,1,0,0:0:0:0:
430,365,10822,1,0,0:0:0:0:
362,114,10952,6,0,B|353:64|353:64|365:12,1,100
411,248,11210,1,0,0:0:0:0:
273,79,11339,1,0,0:0:0:0:
209,367,11469,6,0,P|227:321|156:183,1,200
11,132,11857,1,0,0:0:0:0:
60,355,11986,1,0,0:0:0:0:
123,109,12115,1,0,0:0:0:0:
123,109,12180,1,0,0:0:0:0:
123,109,12245,2,0,B|135:66|135:66|117:6,1,100
33,273,12503,5,0,0:0:0:0:
33,273,12568,1,0,0:0:0:0:
33,273,12633,1,0,0:0:0:0:
211,126,12762,1,0,0:0:0:0:
209,367,12891,1,0,0:0:0:0:
413,132,13021,6,0,B|366:122|366:122|303:145,1,100
140,281,13279,1,0,0:0:0:0:
387,350,13408,1,0,0:0:0:0:
211,126,13538,6,0,L|201:232,1,100
321,43,13796,1,0,0:0:0:0:
69,112,13926,1,0,0:0:0:0:
310,303,14055,6,0,P|369:316|438:200,1,200
321,43,14443,1,0,0:0:0:0:
240,240,14572,6,0,B|223:280|223:280|235:346,1,100
158,106,14831,2,0,B|168:50|168:50|151:10,1,100
38,236,15089,1,0,0:0:0:0:
320,154,15219,1,0,0:0:0:0:
19,229,15348,1,0,0:0:0:0:
332,274,15477,1,0,0:0:0:0:
56,332,15607,6,0,B|122:307|122:307|266:334,1,200
405,363,15995,1,0,0:0:0:0:
244,212,16124,2,0,P|230:166|255:94,1,100
380,21,16383,1,0,0:0:0:0:
498,224,16512,1,0,0:0:0:0:
498,224,16577,1,0,0:0:0:0:
498,224,16641,6,0,B|365:214|453:155|314:153,1,200
88,212,17029,1,0,0:0:0:0:
322,361,17158,2,0,P|338:313|328:240,1,100
139,88,17417,1,0,0:0:0:0:
186,357,17546,1,0,0:0:0:0:
315,64,17676,6,0,P|269:79|237:226,1,200
322,361,18064,1,0,0:0:0:0:
488,145,18193,2,0,B|451:130|451:130|388:140,1,100
131,243,18452,1,0,0:0:0:0:
393,305,18581,1,0,0:0:0:0:
172,140,18710,5,0,0:0:0:0:
214,378,18839,1,0,0:0:0:0:
95,109,18969,1,0,0:0:0:0:
33,373,19098,1,0,0:0:0:0:
242,193,19227,6,0,B|259:152|259:152|240:84,1,100
29,231,19486,1,0,0:0:0:0:
288,266,19615,1,0,0:0:0:0:
129,384,19745,2,0,B|119:333|119:333|129:289|129:289|104:166,1,200
168,23,20133,1,0,0:0:0:0:
308,177,20262,6,0,B|262:186|262:186|204:168,1,100
386,20,20521,2,0,B|432:11|432:11|490:29,1,100
411,283,20779,6,0,P|391:242|419:125,1,160
491,300,21167,1,0,0:0:0:0:
332,370,21296,2,0,L|240:359,1,80
180,170,21555,2,0,B|201:209|201:209|195:256,1,80
88,376,21814,6,0,P|116:305|74:217,1,160
0,150,22202,1,0,0:0:0:0:
87,48,22331,2,0,B|125:35|125:35|169:49,1,80
251,184,22589,2,0,P|241:144|258:94,1,80
485,56,22848,6,0,L|331:37,1,150.000005722046
249,107,23236,1,0,0:0:0:0:
20,233,23365,6,0,L|174:214,1,139.999995727539
256,284,23753,1,0,0:0:0:0:
501,192,23883,6,0,P|450:172|355:237,1,160
225,367,24271,1,0,0:0:0:0:
225,367,24335,1,0,0:0:0:0:
225,367,24400,2,0,B|360:404|315:298|476:340,1,240
256,284,24917,6,0,P|266:238|236:122,1,160
135,27,25305,1,0,0:0:0:0:
5,244,25434,2,0,L|93:254,1,80
240,129,25693,2,0,B|197:119|197:119|148:132,1,80
339,275,25952,6,0,B|322:232|322:232|340:97,1,160
430,22,26339,1,0,0:0:0:0:
498,155,26469,2,0,L|417:165,1,80
199,225,26727,2,0,L|278:234,1,80
477,336,26986,5,0,0:0:0:0:
277,376,27115,1,0,0:0:0:0:
314,106,27245,2,0,L|410:100,1,80
213,313,27503,5,0,0:0:0:0:
139,75,27633,1,0,0:0:0:0:
98,276,27762,2,0,L|1:265,1,80
322,192,28021,6,0,B|232:197|267:136|161:146,1,160
63,346,28408,1,0,0:0:0:0:
63,346,28473,1,0,0:0:0:0:
63,346,28538,2,0,P|90:311|98:263,1,80
139,75,28796,2,0,P|149:113|174:144,1,80
391,338,29055,6,0,P|325:355|329:190,1,300
489,73,29572,2,0,L|383:55,1,100
138,202,29831,2,0,P|193:198|247:221,1,100
508,192,30089,6,0,B|403:201|449:127|302:132,1,200
173,282,30477,1,0,0:0:0:0:
60,146,30607,2,0,L|47:259,1,100
241,123,30865,2,0,B|249:76|249:76|234:26,1,100
253,240,31124,6,0,P|314:220|420:335,1,200
302,375,31512,1,0,0:0:0:0:
173,197,31641,6,0,B|126:148|188:10|188:10|246:16|281:60,1,300
494,144,32158,6,0,P|447:131|322:209,1,200
272,310,32546,1,0,0:0:0:0:
39,174,32676,6,0,P|86:161|211:239,1,200
277,331,33064,1,0,0:0:0:0:
256,159,33193,6,0,P|245:110|374:35,1,200
397,199,33581,1,0,0:0:0:0:
220,239,33710,2,0,B|94:238|157:173|34:173,1,200
133,65,34098,1,0,0:0:0:0:
282,178,34227,6,0,B|323:264|323:264|290:369,1,200
197,342,34615,1,0,0:0:0:0:
21,259,34745,6,0,L|224:238,1,200
464,197,35133,1,0,0:0:0:0:
344,72,35262,6,0,B|320:24|268:16|268:16|220:64|224:145|298:164|312:257|276:334,1,419.999987182618
85,374,36167,1,0,0:0:0:0:
85,374,36232,1,0,0:0:0:0:
85,374,36296,2,0,P|76:340|88:307,1,69.9999978637696
177,203,36555,2,0,P|188:235|179:268,1,69.9999978637696
23,166,36814,2,0,L|104:153,2,59.9999981689454
226,41,37331,5,0,0:0:0:0:
226,41,37396,1,0,0:0:0:0:
226,41,37460,1,0,0:0:0:0:
321,280,37589,1,0,0:0:0:0:
413,35,37719,1,0,0:0:0:0:
503,245,37848,6,0,L|394:230,1,100
119,127,38107,1,0,0:0:0:0:
213,375,38236,1,0,0:0:0:0:
288,96,38365,6,0,B|268:135|268:135|278:199,1,100
424,370,38624,1,0,0:0:0:0:
467,106,38753,1,0,0:0:0:0:
288,315,38883,6,0,L|399:292,1,100
203,172,39141,1,0,0:0:0:0:
135,361,39271,1,0,0:0:0:0:
41,138,39400,5,0,0:0:0:0:
308,220,39529,1,0,0:0:0:0:
41,303,39658,1,0,0:0:0:0:
139,33,39788,1,0,0:0:0:0:
211,340,39917,5,0,0:0:0:0:
131,120,40046,1,0,0:0:0:0:
291,308,40176,1,0,0:0:0:0:
306,40,40305,1,0,0:0:0:0:
124,278,40434,6,0,B|241:295|198:216|321:220,1,200
477,114,40822,1,0,0:0:0:0:
378,380,40952,2,0,B|366:330|366:330|384:277,1,100
443,34,41210,1,0,0:0:0:0:
491,278,41339,1,0,0:0:0:0:
491,278,41404,1,0,0:0:0:0:
491,278,41469,6,0,B|374:295|417:216|294:220,1,200
45,189,41857,1,0,0:0:0:0:
227,14,41986,2,0,B|249:58|249:58|237:114,1,100
116,346,42245,1,0,0:0:0:0:
92,94,42374,1,0,0:0:0:0:
230,342,42503,6,0,P|209:289|290:171,1,200
464,110,42891,1,0,0:0:0:0:
464,360,43021,2,0,L|349:345,1,100
173,161,43279,1,0,0:0:0:0:
401,219,43408,1,0,0:0:0:0:
213,33,43538,5,0,0:0:0:0:
310,303,43667,1,0,0:0:0:0:
322,9,43796,1,0,0:0:0:0:
187,281,43926,1,0,0:0:0:0:
60,44,44055,5,0,0:0:0:0:
265,134,44184,1,0,0:0:0:0:
2,283,44314,1,0,0:0:0:0:
309,375,44443,1,0,0:0:0:0:
143,147,44572,6,0,P|112:186|137:339,1,200
345,195,44960,1,0,0:0:0:0:
176,68,45089,1,0,0:0:0:0:
425,20,45219,1,0,0:0:0:0:
425,20,45283,1,0,0:0:0:0:
424,20,45348,2,0,P|440:66|432:115,1,100
275,372,45607,5,0,0:0:0:0:
275,372,45671,1,0,0:0:0:0:
275,372,45736,1,0,0:0:0:0:
506,249,45865,1,0,0:0:0:0:
242,143,45995,1,0,0:0:0:0:
420,371,46124,6,0,B|434:328|434:328|418:259,1,100
304,61,46383,1,0,0:0:0:0:
219,312,46512,1,0,0:0:0:0:
36,62,46641,6,0,B|85:46|85:46|138:60,1,100
313,186,46900,1,0,0:0:0:0:
60,257,47029,1,0,0:0:0:0:
283,374,47158,6,0,B|348:383|406:347|406:347|408:305|391:266,1,200
229,119,47546,1,0,0:0:0:0:
128,352,47676,5,0,0:0:0:0:
395,276,47805,1,0,0:0:0:0:
141,171,47934,1,0,0:0:0:0:
454,79,48064,1,0,0:0:0:0:
189,277,48193,5,0,0:0:0:0:
326,28,48322,1,0,0:0:0:0:
333,355,48452,1,0,0:0:0:0:
229,119,48581,1,0,0:0:0:0:
499,291,48710,6,0,B|437:284|437:284|411:256|411:256|305:248,1,200
67,251,49098,1,0,0:0:0:0:
226,371,49227,2,0,B|246:318|246:318|224:263,1,100
43,123,49486,1,0,0:0:0:0:
314,53,49615,1,0,0:0:0:0:
314,53,49680,1,0,0:0:0:0:
314,53,49745,6,0,P|294:149|318:263,1,200
414,360,50133,1,0,0:0:0:0:
496,121,50262,2,0,B|452:135|452:135|385:124,1,100
141,50,50521,1,0,0:0:0:0:
311,248,50650,1,0,0:0:0:0:
20,183,50779,6,0,P|67:171|190:257,1,200
76,371,51167,1,0,0:0:0:0:
202,146,51296,2,0,B|245:132|245:132|314:154,1,100
464,255,51555,1,0,0:0:0:0:
221,315,51684,1,0,0:0:0:0:
429,159,51814,5,0,0:0:0:0:
285,372,51943,1,0,0:0:0:0:
366,87,52072,1,0,0:0:0:0:
472,354,52202,1,0,0:0:0:0:
202,222,52331,5,0,0:0:0:0:
464,255,52460,1,0,0:0:0:0:
229,55,52589,1,0,0:0:0:0:
174,376,52719,1,0,0:0:0:0:
10,113,52848,6,0,B|119:95|76:166|217:134,1,200
471,104,53236,1,0,0:0:0:0:
340,21,53365,2,0,P|323:68|327:131,1,100
384,278,53624,1,0,0:0:0:0:
384,278,53753,1,0,0:0:0:0:
219,222,53883,6,0,L|303:210,1,80
376,367,54141,2,0,L|292:355,1,80
95,271,54400,1,0,0:0:0:0:
180,372,54529,1,0,0:0:0:0:
219,222,54658,1,0,0:0:0:0:
219,222,54788,1,0,0:0:0:0:
105,176,54917,6,0,B|70:185|70:185|22:173,1,80
147,40,55176,2,0,B|182:31|182:31|230:43,1,80
297,154,55434,1,0,0:0:0:0:
376,37,55564,1,0,0:0:0:0:
436,160,55693,1,0,0:0:0:0:
436,160,55822,1,0,0:0:0:0:
319,239,55952,6,0,L|224:251,3,80
198,174,56469,1,0,0:0:0:0:
288,324,56598,1,0,0:0:0:0:
344,155,56727,1,0,0:0:0:0:
344,155,56857,1,0,0:0:0:0:
447,279,56986,6,0,P|459:324|450:366,3,80
319,239,57503,6,0,L|224:251,1,80
433,159,57762,2,0,L|528:171,1,80
319,81,58021,6,0,B|304:51|304:51|314:2,3,80
244,159,58538,2,0,P|210:168|161:163,1,80
57,16,58796,2,0,P|81:40|101:85,1,80
41,245,59055,6,0,L|45:159,2,80
128,285,59443,1,0,0:0:0:0:
201,225,59572,2,0,B|219:253|219:253|215:304,1,80
314,380,59831,2,0,B|310:333|310:333|328:305,1,80
442,221,60089,6,0,L|451:302,2,80
332,168,60477,1,0,0:0:0:0:
393,95,60607,2,0,B|359:79|359:79|306:88,1,80
277,242,60865,2,0,B|311:258|311:258|364:249,1,80
224,115,61124,6,0,L|214:203,2,80
167,35,61512,1,0,0:0:0:0:
83,93,61641,2,0,P|96:135|87:177,1,80
23,271,61900,6,0,P|19:251|26:213,1,50
