osu file format v14

[General]
AudioFilename: megalovania.mp3
AudioLeadIn: 0
PreviewTime: 67366
Countdown: 0
SampleSet: Normal
StackLeniency: 0.5
Mode: 0
LetterboxInBreaks: 0
WidescreenStoryboard: 0

[Editor]
Bookmarks: 91366
DistanceSpacing: 0.9
BeatDivisor: 8
GridSize: 4
TimelineZoom: 2.400006

[Metadata]
Title:Megalovania -Dual Mix-
TitleUnicode:Megalovania -Dual Mix-
Artist:Toby Fox
ArtistUnicode:Toby Fox
Creator:Snow Note
Version:DETERMINATION AR10
Source:UNDERTALE
Tags:7odoa Sans Genocide
BeatmapID:1007771
BeatmapSetID:429866

[Difficulty]
HPDrainRate:4
CircleSize:3.8
OverallDifficulty:9
ApproachRate:10
SliderMultiplier:2.39999990463257
SliderTickRate:1

[Events]
//Background and Video events
0,0,"megalovania.jpg",0,0
//Break Periods
2,163566,166766
//Storyboard Layer 0 (Background)
//Storyboard Layer 1 (Fail)
//Storyboard Layer 2 (Pass)
//Storyboard Layer 3 (Foreground)
//Storyboard Layer 4 (Overlay)
//Storyboard Sound Samples

[TimingPoints]
366,250,4,1,2,50,1,0
19241,-100,4,1,2,5,0,0
19366,-200,4,1,2,30,0,0
35366,-90.9090909090909,4,1,2,55,0,1
42366,-90.9090909090909,4,1,1,55,0,1
43366,-90.9090909090909,4,1,2,55,0,1
50366,-90.9090909090909,4,1,1,55,0,1
51366,-117.647058823529,4,1,1,45,0,0
59366,-90.9090909090909,4,1,2,55,0,1
65366,-90.9090909090909,4,1,1,55,0,0
67366,-90.9090909090909,4,1,2,55,0,1
74366,-90.9090909090909,4,1,1,55,0,0
75366,-90.9090909090909,4,1,2,55,0,1
81366,-90.9090909090909,4,1,1,55,0,0
83366,-90.9090909090909,4,1,2,55,0,1
89366,-90.9090909090909,4,1,1,55,0,0
91366,-90.9090909090909,4,1,2,55,0,1
97366,-90.9090909090909,4,1,1,55,0,0
99366,-117.647058823529,4,1,1,40,0,0
131366,-90.9090909090909,4,1,2,55,0,1
146366,-90.9090909090909,4,1,1,55,0,1
147366,-90.9090909090909,4,1,2,55,0,1
154366,-90.9090909090909,4,1,1,55,0,1
155366,-90.9090909090909,4,1,2,50,0,0
159366,-78.125,4,1,2,60,0,1
163366,-100,4,3,2,25,0,0
171366,-90.9090909090909,4,1,2,55,0,1
178366,-90.9090909090909,4,1,1,55,0,1
179366,-90.9090909090909,4,1,2,55,0,1
187241,-90.9090909090909,4,1,2,50,0,0

[Colours]
Combo1 : 192,192,192
Combo2 : 255,0,0
Combo3 : 255,128,0
Combo4 : 255,255,0
Combo5 : 255,255,255

[HitObjects]
200,192,12553,5,0,0:0:0:0:
312,192,12803,1,0,0:0:0:0:
256,192,13366,12,0,19303,0:0:0:0:
72,208,19366,37,0,0:0:0:0:
72,208,19491,1,0,0:0:0:0:
148,136,19616,1,0,0:0:0:0:
188,336,19866,1,0,0:0:0:0:
188,336,20241,5,0,0:0:0:0:
272,344,20491,1,0,0:0:0:0:
356,348,20741,1,0,0:0:0:0:
484,236,20991,53,0,0:0:0:0:
392,260,21116,1,0,0:0:0:0:
364,168,21241,1,0,0:0:0:0:
456,136,21366,5,0,0:0:0:0:
456,136,21491,1,0,0:0:0:0:
400,56,21616,1,0,0:0:0:0:
256,192,21866,1,0,0:0:0:0:
256,192,22241,53,0,0:0:0:0:
176,216,22491,1,0,0:0:0:0:
96,240,22741,1,0,0:0:0:0:
32,48,22991,5,0,0:0:0:0:
132,32,23116,1,0,0:0:0:0:
96,128,23241,1,0,0:0:0:0:
196,116,23366,53,0,0:0:0:0:
196,116,23491,1,0,0:0:0:0:
256,32,23616,1,0,0:0:0:0:
388,188,23866,1,0,0:0:0:0:
388,188,24241,5,0,0:0:0:0:
368,268,24491,1,0,0:0:0:0:
344,348,24741,1,0,0:0:0:0:
256,264,24991,53,0,0:0:0:0:
216,172,25116,1,0,0:0:0:0:
304,124,25241,1,0,0:0:0:0:
256,32,25366,5,0,0:0:0:0:
256,32,25491,1,0,0:0:0:0:
384,80,25616,1,0,0:0:0:0:
128,144,25866,1,0,0:0:0:0:
128,144,26241,53,0,0:0:0:0:
108,224,26491,1,0,0:0:0:0:
88,304,26741,1,0,0:0:0:0:
204,368,26991,5,0,0:0:0:0:
300,316,27116,1,0,0:0:0:0:
396,368,27241,1,0,0:0:0:0:
492,316,27366,53,0,0:0:0:0:
380,260,27491,1,0,0:0:0:0:
480,220,27616,2,0,L|472:132,1,59.9999976158143,0|0,0:0|0:0,0:0:0:0:
368,168,27866,2,0,L|360:80,1,59.9999976158143,0|0,0:0|0:0,0:0:0:0:
452,16,28116,1,0,0:0:0:0:
348,40,28241,6,0,L|276:32,1,59.9999976158143,0|0,0:0|0:0,0:0:0:0:
259,161,28491,2,0,L|200:168,1,59.9999976158143,0|0,0:0|0:0,0:0:0:0:
200,308,28741,2,0,L|128:300,1,59.9999976158143,0|0,0:0|0:0,0:0:0:0:
64,232,28991,53,0,0:0:0:0:
272,256,29116,1,0,0:0:0:0:
100,384,29241,1,0,0:0:0:0:
24,104,29366,5,0,0:0:0:0:
24,104,29491,1,0,0:0:0:0:
232,128,29616,2,0,L|240:60,1,59.9999976158143,0|0,0:0|0:0,0:0:0:0:
71,287,29866,2,0,L|64:228,1,59.9999976158143,0|0,0:0|0:0,0:0:0:0:
228,380,30116,1,0,0:0:0:0:
152,204,30241,54,0,L|144:144,1,59.9999976158143
344,32,30491,2,0,L|351:91,1,59.9999976158143,0|0,0:0|0:0,0:0:0:0:
244,272,30741,2,0,L|236:212,1,59.9999976158143,0|0,0:0|0:0,0:0:0:0:
496,196,30991,1,0,0:0:0:0:
440,368,31116,1,0,0:0:0:0:
364,272,31241,1,0,0:0:0:0:
444,96,31366,5,0,0:0:0:0:
444,96,31491,1,0,0:0:0:0:
256,28,31616,2,0,L|192:32,1,59.9999976158143,0|0,0:0|0:0,0:0:0:0:
336,192,31866,2,0,L|400:196,1,59.9999976158143,0|0,0:0|0:0,0:0:0:0:
188,120,32116,1,0,0:0:0:0:
44,292,32241,54,0,L|56:372,1,59.9999976158143
208,268,32491,2,0,L|196:348,1,59.9999976158143,0|0,0:0|0:0,0:0:0:0:
352,304,32741,2,0,L|364:384,1,59.9999976158143,0|0,0:0|0:0,0:0:0:0:
488,288,32991,1,0,0:0:0:0:
340,196,33116,1,0,0:0:0:0:
472,88,33241,1,0,0:0:0:0:
416,240,33366,5,0,0:0:0:0:
416,240,33491,1,0,0:0:0:0:
336,76,33616,2,0,L|340:16,1,59.9999976158143,0|0,0:0|0:0,0:0:0:0:
176,68,33866,2,0,L|172:128,1,59.9999976158143,0|0,0:0|0:0,0:0:0:0:
256,312,34116,1,0,0:0:0:0:
320,160,34241,54,0,L|260:156,1,59.9999976158143
84,292,34491,2,0,L|144:296,1,59.9999976158143,0|0,0:0|0:0,0:0:0:0:
72,52,34741,2,0,L|12:48,1,59.9999976158143,0|0,0:0|0:0,0:0:0:0:
28,192,34991,5,0,0:0:0:0:
132,384,35116,1,0,0:0:0:0:
320,192,35241,1,0,0:0:0:0:
140,32,35366,5,4,0:0:0:0:
324,296,35491,1,0,0:0:0:0:
493,149,35616,2,0,P|501:103|456:8,1,131.999998783112,8|0,0:0|0:0,0:0:0:0:
222,236,35866,2,0,P|213:281|258:376,1,131.999998783112,0|0,0:0|0:0,0:0:0:0:
456,352,36116,1,8,0:0:0:0:
272,32,36241,6,0,P|216:20|128:48,1,131.999998783112,0|0,0:0|0:0,0:0:0:0:
4,340,36491,2,0,P|60:352|148:324,1,131.999998783112,0|8,0:0|0:0,0:0:0:0:
356,128,36741,2,0,P|300:116|212:144,1,131.999998783112,0|0,0:0|0:0,0:0:0:0:
256,368,36991,1,0,0:0:0:0:
448,248,37116,1,8,0:0:0:0:
148,192,37241,1,0,0:0:0:0:
388,32,37366,5,4,0:0:0:0:
288,232,37491,1,0,0:0:0:0:
256,16,37616,2,0,L|388:32,1,131.999998783112,8|0,0:0|0:0,0:0:0:0:
192,296,37866,2,0,L|60:312,1,131.999998783112,0|0,0:0|0:0,0:0:0:0:
112,84,38116,1,8,0:0:0:0:
356,240,38241,38,0,P|356:312|312:364,1,131.999998783112
247,81,38491,2,0,P|309:45|376:57,1,131.999998783112,0|8,0:0|0:0,0:0:0:0:
164,254,38741,2,0,P|102:218|79:154,1,131.999998783112,0|0,0:0|0:0,0:0:0:0:
184,16,38991,1,0,0:0:0:0:
256,208,39116,1,8,0:0:0:0:
0,72,39241,1,8,0:0:0:0:
343,147,39366,5,4,0:0:0:0:
252,324,39491,1,0,0:0:0:0:
169,147,39616,2,0,L|185:7,1,131.999998783112,8|0,0:0|0:0,0:0:0:0:
512,216,39866,2,0,L|496:356,1,131.999998783112,0|0,0:0|0:0,0:0:0:0:
256,192,40116,1,8,0:0:0:0:
340,64,40241,6,0,B|412:88|412:88|444:136,1,131.999998783112,0|0,0:0|0:0,0:0:0:0:
103,183,40491,2,0,B|87:108|87:108|113:57,1,131.999998783112,0|8,0:0|0:0,0:0:0:0:
324,328,40741,2,0,B|268:379|268:379|210:382,1,131.999998783112,0|0,0:0|0:0,0:0:0:0:
188,132,40991,1,0,0:0:0:0:
424,212,41116,1,8,0:0:0:0:
144,264,41241,1,0,0:0:0:0:
200,20,41366,37,4,0:0:0:0:
256,280,41491,1,0,0:0:0:0:
432,140,41616,2,0,L|396:8,1,131.999998783112,8|0,0:0|0:0,0:0:0:0:
80,244,41866,2,0,L|116:376,1,131.999998783112,0|0,0:0|0:0,0:0:0:0:
344,188,42116,1,8,0:0:0:0:
168,188,42241,1,0,0:0:0:0:
372,312,42366,6,0,L|520:328,1,131.999998783112,8|0,0:0|0:0,0:0:0:0:
256,96,42616,1,0,0:0:0:0:
140,312,42741,2,0,L|-8:328,1,131.999998783112,8|0,0:0|0:0,0:0:0:0:
136,24,42991,1,0,0:0:0:0:
256,268,43116,1,8,0:0:0:0:
376,24,43241,1,8,0:0:0:0:
176,188,43366,5,4,0:0:0:0:
312,384,43491,1,0,0:0:0:0:
464,216,43616,2,0,B|476:156|476:156|440:84,1,131.999998783112,8|0,0:0|0:0,0:0:0:0:
80,296,43866,2,0,L|216:312,1,131.999998783112,0|0,0:0|0:0,0:0:0:0:
324,72,44116,1,8,0:0:0:0:
24,92,44241,38,0,B|12:148|12:148|40:220,1,131.999998783112
328,376,44491,2,0,B|340:320|340:320|320:248,1,131.999998783112,0|8,0:0|0:0,0:0:0:0:
120,16,44741,2,0,L|100:152,1,131.999998783112
104,360,44991,1,0,0:0:0:0:
208,140,45116,1,8,0:0:0:0:
0,280,45241,1,0,0:0:0:0:
296,152,45366,5,4,0:0:0:0:
504,292,45491,1,0,0:0:0:0:
364,368,45616,2,0,L|348:228,1,131.999998783112,8|0,0:0|0:0,0:0:0:0:
484,16,45866,2,0,L|504:160,1,131.999998783112,0|0,0:0|0:0,0:0:0:0:
256,324,46116,1,8,0:0:0:0:
244,80,46241,6,0,B|288:64|288:64|372:100,1,131.999998783112
188,364,46491,2,0,B|144:380|144:380|64:344,1,131.999998783112,0|8,0:0|0:0,0:0:0:0:
12,36,46741,2,0,B|56:20|56:20|136:56,1,131.999998783112,0|0,0:0|0:0,0:0:0:0:
144,280,46991,1,0,0:0:0:0:
8,196,47116,1,8,0:0:0:0:
256,120,47241,1,0,0:0:0:0:
268,124,47303,1,0,0:0:0:0:
280,128,47366,37,4,0:0:0:0:
84,224,47491,1,0,0:0:0:0:
344,280,47616,2,0,L|496:256,1,131.999998783112,8|0,0:0|0:0,0:0:0:0:
168,104,47866,2,0,L|16:128,1,131.999998783112,0|0,0:0|0:0,0:0:0:0:
256,360,48116,1,8,0:0:0:0:
328,136,48241,6,0,B|344:80|344:80|320:8,1,131.999998783112,0|0,0:0|0:0,0:0:0:0:
116,192,48491,2,0,B|100:248|100:248|120:320,1,131.999998783112,0|8,0:0|0:0,0:0:0:0:
416,380,48741,2,0,B|432:324|432:324|408:252,1,131.999998783112,0|0,0:0|0:0,0:0:0:0:
208,116,48991,1,0,0:0:0:0:
256,316,49116,1,8,0:0:0:0:
324,0,49241,1,0,0:0:0:0:
120,236,49366,5,4,0:0:0:0:
364,192,49491,1,0,0:0:0:0:
184,20,49616,2,0,L|52:48,1,131.999998783112,8|0,0:0|0:0,0:0:0:0:
328,364,49866,2,0,L|460:340,1,131.999998783112,0|0,0:0|0:0,0:0:0:0:
208,108,50116,1,8,0:0:0:0:
176,328,50241,1,0,0:0:0:0:
504,184,50366,38,0,L|484:40,1,131.999998783112,12|0,0:0|0:0,0:0:0:0:
336,12,50616,1,0,0:0:0:0:
8,200,50741,2,0,L|28:344,1,131.999998783112,8|0,0:0|0:0,0:0:0:0:
176,372,50991,1,0,0:0:0:0:
376,296,51116,5,8,0:0:0:0:
364,232,51178,1,0,0:0:0:0:
348,168,51241,1,8,0:0:0:0:
336,104,51303,1,0,0:0:0:0:
320,40,51366,6,0,P|252:24|132:56,1,152.99999683857,4|0,0:0|0:0,0:0:0:0:
156,56,51616,2,0,L|41:43,1,101.99999789238,8|0,0:0|0:0,0:0:0:0:
24,224,51866,1,0,0:0:0:0:
280,152,51991,2,0,L|394:139,1,101.99999789238,0|8,0:0|0:0,0:0:0:0:
184,332,52241,2,0,L|69:319,1,101.99999789238,0|0,0:0|0:0,0:0:0:0:
356,240,52491,38,0,P|372:284|372:340,1,101.99999789238,0|8,0:0|0:0,0:0:0:0:
64,204,52741,2,0,P|18:122|64:17,1,203.99999578476
316,180,53116,1,8,0:0:0:0:
212,8,53241,1,0,0:0:0:0:
88,352,53366,6,0,P|186:364|254:309,1,152.99999683857
258,285,53616,1,8,0:0:0:0:
132,92,53741,2,0,P|100:86|28:112,1,101.99999789238
380,196,53991,2,0,P|408:204|484:180,1,101.99999789238,0|8,0:0|0:0,0:0:0:0:
332,32,54241,6,0,P|248:56|200:144,1,152.99999683857
200,144,54491,2,0,L|160:152,4,25.4999994730949,0|0|0|0|8,0:0|0:0|0:0|0:0|0:0,0:0:0:0:
256,320,54741,37,0,0:0:0:0:
440,276,54866,1,0,0:0:0:0:
312,104,54991,1,0,0:0:0:0:
360,352,55116,1,8,0:0:0:0:
504,188,55241,1,0,0:0:0:0:
504,188,55303,1,0,0:0:0:0:
504,188,55366,6,0,P|488:112|512:36,1,152.99999683857,4|0,0:0|0:0,0:0:0:0:
488,8,55616,1,8,0:0:0:0:
344,272,55741,2,0,P|354:335|376:376,1,101.99999789238
388,56,55991,2,0,P|352:36|288:36,1,101.99999789238,0|8,0:0|0:0,0:0:0:0:
124,328,56241,6,0,P|164:352|224:348,1,101.99999789238
108,52,56491,2,0,P|72:48|8:72,1,101.99999789238,0|8,0:0|0:0,0:0:0:0:
384,248,56741,38,0,P|400:212|400:136,1,101.99999789238
128,136,56991,1,0,0:0:0:0:
256,264,57116,1,8,0:0:0:0:
224,8,57241,1,0,0:0:0:0:
36,264,57366,6,0,L|48:376,1,101.99999789238,4|0,0:0|0:0,0:0:0:0:
164,164,57616,2,0,L|176:276,1,101.99999789238,8|0,0:0|0:0,0:0:0:0:
284,72,57866,5,0,0:0:0:0:
232,344,57991,1,0,0:0:0:0:
428,164,58116,1,8,0:0:0:0:
84,220,58241,1,0,0:0:0:0:
384,368,58366,38,0,L|504:344,1,101.99999789238,12|0,0:0|0:0,0:0:0:0:
256,128,58616,1,8,0:0:0:0:
128,368,58741,2,0,L|8:344,1,101.99999789238,8|0,0:0|0:0,0:0:0:0:
160,64,58991,5,8,0:0:0:0:
256,316,59116,1,8,0:0:0:0:
352,64,59241,1,0,0:0:0:0:
168,268,59366,6,0,P|92:276|4:192,1,197.999998174667,4|0,0:0|0:0,0:0:0:0:
8,160,59616,1,8,0:0:0:0:
256,20,59741,2,0,L|396:40,1,131.999998783112,0|0,0:0|0:0,0:0:0:0:
340,384,59991,2,0,L|200:364,1,131.999998783112,0|8,0:0|0:0,0:0:0:0:
432,160,60241,38,0,P|468:228|456:308,1,131.999998783112
120,156,60491,2,0,P|84:88|96:8,1,131.999998783112,0|8,0:0|0:0,0:0:0:0:
400,336,60741,2,0,L|196:364,1,197.999998174667
152,348,60991,1,0,0:0:0:0:
212,80,61116,1,8,0:0:0:0:
260,272,61241,1,0,0:0:0:0:
60,372,61366,6,0,P|24:312|60:192,1,197.999998174667,4|0,0:0|0:0,0:0:0:0:
92,196,61616,1,8,0:0:0:0:
400,336,61741,2,0,L|256:352,1,131.999998783112,0|0,0:0|0:0,0:0:0:0:
112,48,61991,2,0,L|256:32,1,131.999998783112,0|8,0:0|0:0,0:0:0:0:
492,240,62241,6,0,B|512:304|512:304|492:376,1,131.999998783112,0|0,0:0|0:0,0:0:0:0:
176,256,62491,2,0,B|156:192|156:192|176:120,1,131.999998783112,0|8,0:0|0:0,0:0:0:0:
448,16,62741,2,0,P|484:88|448:208,1,197.999998174667,0|0,0:0|0:0,0:0:0:0:
408,220,62991,1,0,0:0:0:0:
196,44,63116,2,0,P|136:28|60:56,1,131.999998783112,8|0,0:0|0:0,0:0:0:0:
20,256,63366,37,4,0:0:0:0:
320,248,63491,1,0,0:0:0:0:
72,192,63616,1,8,0:0:0:0:
268,312,63741,1,0,0:0:0:0:
144,152,63866,1,0,0:0:0:0:
196,352,63991,1,0,0:0:0:0:
216,152,64116,1,8,0:0:0:0:
124,352,64241,1,0,0:0:0:0:
296,96,64366,5,4,0:0:0:0:
381,383,64491,1,0,0:0:0:0:
371,129,64616,1,8,0:0:0:0:
306,350,64741,1,0,0:0:0:0:
428,188,64866,1,0,0:0:0:0:
248,290,64991,1,0,0:0:0:0:
447,258,65116,1,8,0:0:0:0:
230,221,65241,1,0,0:0:0:0:
424,156,65366,5,4,0:0:0:0:
424,156,65428,1,0,0:0:0:0:
424,156,65491,1,0,0:0:0:0:
424,156,65553,1,0,0:0:0:0:
424,156,65616,2,0,B|436:96|436:96|412:24,1,131.999998783112,8|0,0:0|0:0,0:0:0:0:
216,100,65866,2,0,L|76:76,1,131.999998783112,0|0,0:0|0:0,0:0:0:0:
12,196,66116,1,8,0:0:0:0:
308,28,66241,1,0,0:0:0:0:
508,316,66366,38,0,L|372:368,1,131.999998783112,12|0,0:0|0:0,0:0:0:0:
256,112,66616,1,8,0:0:0:0:
4,316,66741,2,0,L|140:368,1,131.999998783112,8|0,0:0|0:0,0:0:0:0:
360,92,66991,5,8,0:0:0:0:
256,340,67116,1,8,0:0:0:0:
152,92,67241,1,0,0:0:0:0:
352,176,67366,6,0,L|373:312,1,131.999998783112,4|0,0:0|0:0,0:0:0:0:
184,24,67616,1,8,0:0:0:0:
448,104,67741,1,0,0:0:0:0:
139,306,67866,38,0,L|160:176,1,131.999998783112
328,24,68116,1,8,0:0:0:0:
256,240,68241,1,0,0:0:0:0:
184,24,68366,5,0,0:0:0:0:
368,148,68491,1,0,0:0:0:0:
200,308,68616,1,8,0:0:0:0:
256,80,68741,1,0,0:0:0:0:
424,252,68866,5,0,0:0:0:0:
144,148,68991,1,0,0:0:0:0:
368,148,69116,1,8,0:0:0:0:
88,252,69241,1,0,0:0:0:0:
256,360,69366,37,4,0:0:0:0:
332,376,69428,1,0,0:0:0:0:
408,348,69491,1,0,0:0:0:0:
464,292,69553,1,0,0:0:0:0:
476,212,69616,2,0,L|336:188,1,131.999998783112,8|0,0:0|0:0,0:0:0:0:
176,48,69866,6,0,P|252:8|400:104,1,263.999997566223,0|8,0:0|0:0,0:0:0:0:
256,300,70241,1,0,0:0:0:0:
40,192,70366,6,0,L|24:56,1,131.999998783112,0|0,0:0|0:0,0:0:0:0:
184,168,70616,1,8,0:0:0:0:
60,336,70741,1,0,0:0:0:0:
312,232,70866,37,0,0:0:0:0:
40,192,70991,1,8,0:0:0:0:
256,344,71116,1,8,0:0:0:0:
200,48,71241,1,8,0:0:0:0:
164,384,71366,5,4,0:0:0:0:
440,176,71616,5,8,0:0:0:0:
364,16,71741,1,0,0:0:0:0:
336,212,71866,1,0,0:0:0:0:
460,60,71991,1,0,0:0:0:0:
284,100,72116,37,8,0:0:0:0:
380,328,72241,1,0,0:0:0:0:
144,376,72366,6,0,P|91:369|24:320,1,131.999998783112,0|0,0:0|0:0,0:0:0:0:
368,8,72616,2,0,P|420:14|488:64,1,131.999998783112,8|0,0:0|0:0,0:0:0:0:
128,272,72866,2,0,P|85:240|52:163,1,131.999998783112,0|0,0:0|0:0,0:0:0:0:
384,112,73116,2,0,P|426:143|459:220,1,131.999998783112,8|0,0:0|0:0,0:0:0:0:
256,380,73366,5,4,0:0:0:0:
288,140,73491,1,0,0:0:0:0:
360,312,73616,1,8,0:0:0:0:
128,344,73741,1,0,0:0:0:0:
112,144,73866,37,0,0:0:0:0:
20,356,73991,1,0,0:0:0:0:
212,192,74116,1,8,0:0:0:0:
48,12,74241,1,0,0:0:0:0:
0,268,74366,6,0,L|148:292,1,131.999998783112,12|0,0:0|0:0,0:0:0:0:
256,96,74616,1,8,0:0:0:0:
512,268,74741,2,0,L|364:292,1,131.999998783112,8|0,0:0|0:0,0:0:0:0:
136,124,74991,53,8,0:0:0:0:
256,368,75116,1,8,0:0:0:0:
376,124,75241,1,0,0:0:0:0:
4,56,75366,6,0,L|32:188,1,131.999998783112,4|0,0:0|0:0,0:0:0:0:
508,328,75616,2,0,L|480:196,1,131.999998783112,8|0,0:0|0:0,0:0:0:0:
128,244,75866,2,0,B|104:296|104:296|116:376,1,131.999998783112,0|0,0:0|0:0,0:0:0:0:
384,140,76116,2,0,B|408:88|408:88|396:8,1,131.999998783112,8|0,0:0|0:0,0:0:0:0:
256,340,76366,54,0,L|396:368,1,131.999998783112
500,188,76616,1,8,0:0:0:0:
332,264,76741,1,0,0:0:0:0:
256,44,76866,22,0,L|116:16,1,131.999998783112
12,196,77116,1,8,0:0:0:0:
180,120,77241,1,0,0:0:0:0:
256,340,77366,38,0,L|116:368,1,131.999998783112,4|0,0:0|0:0,0:0:0:0:
360,192,77616,1,8,0:0:0:0:
488,368,77741,1,0,0:0:0:0:
472,40,77866,6,0,L|324:28,1,131.999998783112,0|0,0:0|0:0,0:0:0:0:
256,148,78116,1,8,0:0:0:0:
512,120,78241,1,0,0:0:0:0:
152,60,78366,6,0,L|144:216,1,131.999998783112
268,296,78616,1,8,0:0:0:0:
312,12,78741,1,0,0:0:0:0:
512,144,78866,38,0,L|356:152,1,131.999998783112
216,160,79116,1,8,0:0:0:0:
408,0,79241,1,0,0:0:0:0:
408,0,79303,1,0,0:0:0:0:
408,0,79366,6,0,P|448:120|360:312,1,263.999997566223,4|8,0:0|0:0,0:0:0:0:
104,384,79866,2,0,P|64:264|152:72,1,263.999997566223,0|8,0:0|0:0,0:0:0:0:
321,44,80366,5,0,0:0:0:0:
190,339,80491,1,0,0:0:0:0:
190,21,80616,1,8,0:0:0:0:
321,362,80741,1,0,0:0:0:0:
432,160,80866,37,0,0:0:0:0:
80,224,80991,1,0,0:0:0:0:
302,88,81116,1,8,0:0:0:0:
209,295,81241,1,0,0:0:0:0:
0,72,81366,6,0,L|132:64,1,131.999998783112,4|0,0:0|0:0,0:0:0:0:
256,192,81616,1,8,0:0:0:0:
48,288,81741,1,0,0:0:0:0:
252,376,81866,6,0,L|384:384,1,131.999998783112
512,256,82116,1,8,0:0:0:0:
392,80,82241,1,0,0:0:0:0:
176,140,82366,37,12,0:0:0:0:
320,172,82491,1,0,0:0:0:0:
280,32,82616,5,8,0:0:0:0:
168,296,82741,1,8,0:0:0:0:
384,264,82866,1,0,0:0:0:0:
256,96,82991,5,8,0:0:0:0:
72,360,83116,1,8,0:0:0:0:
440,360,83241,1,0,0:0:0:0:
153,176,83366,38,0,L|168:308,1,131.999998783112,4|0,0:0|0:0,0:0:0:0:
328,24,83616,1,8,0:0:0:0:
64,104,83741,1,0,0:0:0:0:
344,308,83866,6,0,L|359:176,1,131.999998783112,0|0,0:0|0:0,0:0:0:0:
184,24,84116,1,8,0:0:0:0:
256,240,84241,1,0,0:0:0:0:
448,104,84366,5,0,0:0:0:0:
416,376,84491,1,0,0:0:0:0:
256,336,84616,1,8,0:0:0:0:
512,256,84741,1,0,0:0:0:0:
224,64,84866,37,0,0:0:0:0:
256,336,84991,1,0,0:0:0:0:
416,296,85116,1,8,0:0:0:0:
160,216,85241,1,0,0:0:0:0:
416,8,85366,5,4,0:0:0:0:
472,60,85428,1,0,0:0:0:0:
480,140,85491,1,0,0:0:0:0:
440,204,85553,1,0,0:0:0:0:
364,224,85616,2,0,L|224:200,1,131.999998783112,8|0,0:0|0:0,0:0:0:0:
72,20,85866,6,0,P|28:96|52:268,1,263.999997566223,0|8,0:0|0:0,0:0:0:0:
256,368,86241,1,0,0:0:0:0:
356,144,86366,38,0,L|348:8,1,131.999998783112
200,112,86616,1,8,0:0:0:0:
316,284,86741,1,0,0:0:0:0:
160,360,86866,6,0,L|168:224,1,131.999998783112,0|0,0:0|0:0,0:0:0:0:
180,28,87116,1,8,0:0:0:0:
276,168,87241,1,0,0:0:0:0:
0,136,87366,5,4,0:0:0:0:
472,52,87616,37,8,0:0:0:0:
492,232,87741,1,0,0:0:0:0:
312,256,87866,1,0,0:0:0:0:
292,76,87991,1,0,0:0:0:0:
400,168,88116,5,8,0:0:0:0:
112,168,88241,1,0,0:0:0:0:
376,20,88366,6,0,P|427:32|492:76,1,131.999998783112,0|0,0:0|0:0,0:0:0:0:
136,364,88616,2,0,P|84:351|20:304,1,131.999998783112,8|0,0:0|0:0,0:0:0:0:
396,120,88866,2,0,P|423:165|420:244,1,131.999998783112,0|0,0:0|0:0,0:0:0:0:
116,264,89116,2,0,P|88:218|96:140,1,131.999998783112,8|0,0:0|0:0,0:0:0:0:
456,56,89366,37,12,0:0:0:0:
324,200,89491,1,0,0:0:0:0:
256,32,89616,1,0,0:0:0:0:
448,152,89741,1,8,0:0:0:0:
256,256,89866,5,0,0:0:0:0:
352,8,89991,1,0,0:0:0:0:
408,272,90116,1,8,0:0:0:0:
104,272,90241,1,0,0:0:0:0:
380,124,90366,6,0,L|512:104,1,131.999998783112,12|0,0:0|0:0,0:0:0:0:
256,372,90616,1,8,0:0:0:0:
132,124,90741,2,0,L|0:104,1,131.999998783112,8|0,0:0|0:0,0:0:0:0:
104,324,90991,37,8,0:0:0:0:
256,20,91116,1,8,0:0:0:0:
408,324,91241,1,0,0:0:0:0:
24,384,91366,6,0,L|8:240,1,131.999998783112,4|0,0:0|0:0,0:0:0:0:
160,8,91616,2,0,L|176:152,1,131.999998783112,8|0,0:0|0:0,0:0:0:0:
488,384,91866,2,0,L|504:240,1,131.999998783112,0|0,0:0|0:0,0:0:0:0:
352,8,92116,2,0,L|336:152,1,131.999998783112,8|0,0:0|0:0,0:0:0:0:
120,336,92366,6,0,L|252:320,1,131.999998783112,0|0,0:0|0:0,0:0:0:0:
364,300,92616,1,8,0:0:0:0:
12,188,92741,1,0,0:0:0:0:
380,164,92866,38,0,L|248:148,1,131.999998783112
136,128,93116,1,8,0:0:0:0:
488,16,93241,1,0,0:0:0:0:
180,260,93366,6,0,L|188:396,1,131.999998783112,4|0,0:0|0:0,0:0:0:0:
228,144,93616,1,8,0:0:0:0:
80,312,93741,1,0,0:0:0:0:
332,124,93866,6,0,L|324:-12,1,131.999998783112,0|0,0:0|0:0,0:0:0:0:
284,240,94116,1,8,0:0:0:0:
432,72,94241,1,0,0:0:0:0:
172,32,94366,38,0,L|32:40,1,131.999998783112
0,224,94616,1,8,0:0:0:0:
208,156,94741,1,0,0:0:0:0:
340,352,94866,6,0,L|480:344,1,131.999998783112,0|0,0:0|0:0,0:0:0:0:
512,160,95116,1,8,0:0:0:0:
304,228,95241,1,0,0:0:0:0:
256,40,95366,6,0,B|366:-17|396:92|511:40,1,263.999997566223,4|8,0:0|0:0,0:0:0:0:
256,344,95866,2,0,B|146:401|115:291|0:344,1,263.999997566223,0|8,0:0|0:0,0:0:0:0:
108,20,96366,37,0,0:0:0:0:
404,364,96491,1,0,0:0:0:0:
328,56,96616,1,8,0:0:0:0:
184,328,96741,1,0,0:0:0:0:
167,145,96866,5,0,0:0:0:0:
344,238,96991,1,0,0:0:0:0:
256,95,97116,1,8,0:0:0:0:
255,288,97241,1,0,0:0:0:0:
376,84,97366,5,4,0:0:0:0:
396,96,97428,1,0,0:0:0:0:
416,108,97491,1,0,0:0:0:0:
436,120,97553,1,0,0:0:0:0:
456,132,97616,2,0,P|472:184|444:276,1,131.999998783112,8|0,0:0|0:0,0:0:0:0:
300,376,97866,37,0,0:0:0:0:
328,248,97991,1,0,0:0:0:0:
424,348,98116,5,8,0:0:0:0:
168,292,98241,1,0,0:0:0:0:
396,200,98366,6,0,L|388:52,1,131.999998783112,12|0,0:0|0:0,0:0:0:0:
96,140,98616,1,8,0:0:0:0:
300,260,98741,2,0,L|292:116,1,131.999998783112,8|0,0:0|0:0,0:0:0:0:
0,200,98991,37,8,0:0:0:0:
272,364,99116,1,8,0:0:0:0:
260,32,99241,1,0,0:0:0:0:
108,308,99366,37,4,0:0:0:0:
56,48,99616,1,0,0:0:0:0:
20,352,99866,1,8,0:0:0:0:
120,112,99991,5,0,0:0:0:0:
252,376,100241,1,0,0:0:0:0:
392,112,100491,1,8,0:0:0:0:
201,285,100741,53,0,0:0:0:0:
349,246,100866,1,0,0:0:0:0:
310,98,100991,1,0,0:0:0:0:
162,137,101116,1,8,0:0:0:0:
408,40,101366,5,4,0:0:0:0:
504,288,101616,1,0,0:0:0:0:
256,192,101866,1,8,0:0:0:0:
504,120,101991,53,0,0:0:0:0:
380,356,102241,1,0,0:0:0:0:
340,92,102491,1,8,0:0:0:0:
56,40,102741,5,0,0:0:0:0:
0,160,102866,1,0,0:0:0:0:
92,256,102991,1,0,0:0:0:0:
36,376,103116,1,8,0:0:0:0:
36,376,103241,1,8,0:0:0:0:
340,348,103366,53,4,0:0:0:0:
152,164,103616,1,0,0:0:0:0:
388,44,103866,1,8,0:0:0:0:
124,44,103991,5,0,0:0:0:0:
360,164,104241,1,0,0:0:0:0:
172,348,104491,1,8,0:0:0:0:
220,92,104741,53,0,0:0:0:0:
292,292,104866,1,0,0:0:0:0:
129,212,104991,1,0,0:0:0:0:
382,171,105116,1,8,0:0:0:0:
188,12,105241,1,8,0:0:0:0:
188,12,105303,1,0,0:0:0:0:
188,12,105366,5,4,0:0:0:0:
200,276,105616,1,0,0:0:0:0:
376,76,105866,1,8,0:0:0:0:
136,76,105991,53,0,0:0:0:0:
312,276,106241,1,0,0:0:0:0:
324,12,106491,1,8,0:0:0:0:
0,280,106741,5,0,0:0:0:0:
132,360,106866,1,0,0:0:0:0:
256,232,106991,1,0,0:0:0:0:
380,360,107116,1,8,0:0:0:0:
512,280,107241,1,0,0:0:0:0:
360,72,107366,54,0,L|344:316,1,203.99999578476,4|0,0:0|0:0,0:0:0:0:
496,64,107866,1,8,0:0:0:0:
260,24,107991,2,0,P|188:24|80:136,1,203.99999578476
252,364,108491,1,8,0:0:0:0:
472,188,108741,5,0,0:0:0:0:
496,340,108866,1,0,0:0:0:0:
344,368,108991,1,0,0:0:0:0:
320,216,109116,1,8,0:0:0:0:
20,296,109366,54,0,B|84:352|152:256|220:320,1,203.99999578476,4|0,0:0|0:0,0:0:0:0:
404,64,109866,1,8,0:0:0:0:
136,56,109991,2,0,P|75:115|100:253,1,203.99999578476,0|0,0:0|0:0,0:0:0:0:
432,156,110491,1,8,0:0:0:0:
204,360,110741,5,0,0:0:0:0:
216,208,110866,1,0,0:0:0:0:
320,320,110991,1,0,0:0:0:0:
104,272,111116,1,8,0:0:0:0:
340,188,111241,1,8,0:0:0:0:
80,120,111366,54,0,P|120:64|248:52,1,203.99999578476,4|0,0:0|0:0,0:0:0:0:
500,288,111866,1,8,0:0:0:0:
368,368,111991,2,0,L|156:348,2,203.99999578476,0|0|8,0:0|0:0|0:0,0:0:0:0:
328,24,112741,5,0,0:0:0:0:
344,176,112866,1,0,0:0:0:0:
424,68,112991,1,0,0:0:0:0:
188,104,113116,1,8,0:0:0:0:
304,264,113241,1,8,0:0:0:0:
304,264,113303,1,0,0:0:0:0:
304,264,113366,54,0,P|392:272|488:196,1,203.99999578476,4|0,0:0|0:0,0:0:0:0:
252,72,113866,1,8,0:0:0:0:
208,264,113991,2,0,P|120:272|24:196,2,203.99999578476,0|0|8,0:0|0:0|0:0,0:0:0:0:
352,32,114741,5,0,0:0:0:0:
160,32,114866,1,0,0:0:0:0:
400,152,114991,1,0,0:0:0:0:
112,152,115116,1,8,0:0:0:0:
112,152,115241,1,8,0:0:0:0:
256,352,115366,53,4,0:0:0:0:
256,352,115491,1,0,0:0:0:0:
224,140,115616,1,0,0:0:0:0:
500,264,115866,1,8,0:0:0:0:
364,336,116241,5,0,0:0:0:0:
408,40,116491,1,8,0:0:0:0:
504,368,116741,1,0,0:0:0:0:
216,368,116991,53,0,0:0:0:0:
256,192,117116,1,8,0:0:0:0:
296,16,117241,1,0,0:0:0:0:
72,156,117366,5,4,0:0:0:0:
72,156,117491,1,0,0:0:0:0:
144,4,117616,1,0,0:0:0:0:
344,364,117866,1,8,0:0:0:0:
200,352,118241,53,0,0:0:0:0:
422,160,118491,1,8,0:0:0:0:
145,63,118741,1,0,0:0:0:0:
304,356,118866,5,8,0:0:0:0:
492,232,118991,1,8,0:0:0:0:
256,192,119116,1,8,0:0:0:0:
436,364,119241,1,8,0:0:0:0:
408,132,119366,54,0,L|416:16,1,101.99999789238,4|0,0:0|0:0,0:0:0:0:
508,140,119616,1,0,0:0:0:0:
312,24,119741,1,0,0:0:0:0:
324,248,119866,6,0,L|332:364,1,101.99999789238,8|0,0:0|0:0,0:0:0:0:
424,240,120116,1,0,0:0:0:0:
228,356,120241,1,0,0:0:0:0:
192,136,120366,54,8,L|200:20,1,101.99999789238,8|0,0:0|0:0,0:0:0:0:
292,144,120616,1,0,0:0:0:0:
96,28,120741,1,0,0:0:0:0:
96,256,120866,5,8,0:0:0:0:
224,356,120991,1,0,0:0:0:0:
80,116,121116,1,0,0:0:0:0:
8,376,121241,1,0,0:0:0:0:
308,272,121366,54,0,L|412:284,1,101.99999789238,4|0,0:0|0:0,0:0:0:0:
512,188,121616,1,0,0:0:0:0:
344,60,121741,1,0,0:0:0:0:
204,272,121866,6,0,L|100:284,1,101.99999789238,8|0,0:0|0:0,0:0:0:0:
0,188,122116,1,0,0:0:0:0:
168,60,122241,1,0,0:0:0:0:
256,240,122366,53,8,0:0:0:0:
12,44,122491,1,0,0:0:0:0:
12,44,122741,1,0,0:0:0:0:
72,352,122866,5,0,0:0:0:0:
232,184,122991,1,0,0:0:0:0:
0,236,123116,1,8,0:0:0:0:
208,324,123241,1,8,0:0:0:0:
92,112,123366,53,4,0:0:0:0:
92,112,123491,1,0,0:0:0:0:
256,20,123616,2,0,L|376:32,1,101.99999789238
496,280,123866,2,0,P|460:333|325:319,1,203.99999578476,8|0,0:0|0:0,0:0:0:0:
220,112,124241,5,0,0:0:0:0:
328,120,124366,2,0,L|440:128,1,101.99999789238,0|8,0:0|0:0,0:0:0:0:
192,368,124616,2,0,L|80:360,1,101.99999789238
88,144,124866,54,0,L|96:20,1,101.99999789238
200,20,125116,1,8,0:0:0:0:
4,168,125241,1,8,0:0:0:0:
256,248,125366,5,4,0:0:0:0:
256,248,125491,1,0,0:0:0:0:
352,128,125616,2,0,L|344:24,1,101.99999789238
152,208,125866,2,0,P|136:280|240:380,1,203.99999578476,8|0,0:0|0:0,0:0:0:0:
392,224,126241,1,0,0:0:0:0:
188,64,126366,54,0,L|80:84,1,101.99999789238,0|8,0:0|0:0,0:0:0:0:
324,320,126616,2,0,L|432:300,1,101.99999789238,0|0,0:0|0:0,0:0:0:0:
168,200,126866,5,8,0:0:0:0:
260,376,126991,1,0,0:0:0:0:
344,184,127116,1,8,0:0:0:0:
252,8,127241,1,8,0:0:0:0:
256,192,127366,53,4,0:0:0:0:
408,20,127616,5,2,0:0:0:0:
428,344,127866,1,2,0:0:0:0:
84,344,128241,53,2,0:0:0:0:
104,20,128491,1,2,0:0:0:0:
184,340,128741,1,2,0:0:0:0:
0,208,128991,5,0,0:0:0:0:
152,248,129116,1,8,0:0:0:0:
304,208,129241,1,8,0:0:0:0:
456,248,129366,1,12,0:0:0:0:
176,48,129616,54,0,L|164:184,1,101.99999789238,2|0,0:0|0:0,0:0:0:0:
148,356,129866,1,2,0:0:0:0:
464,56,130116,1,0,0:0:0:0:
504,208,130241,1,2,0:0:0:0:
504,208,130303,1,0,0:0:0:0:
504,208,130366,5,8,0:0:0:0:
336,252,130491,1,2,0:0:0:0:
388,80,130616,53,8,0:0:0:0:
444,320,130741,1,10,0:0:0:0:
256,192,130866,1,0,0:0:0:0:
512,160,130991,5,10,0:0:0:0:
336,368,131116,1,10,0:0:0:0:
296,16,131241,1,10,0:0:0:0:
136,260,131366,6,0,L|-4:248,1,131.999998783112,4|0,0:0|0:0,0:0:0:0:
216,144,131616,1,8,0:0:0:0:
264,360,131741,1,0,0:0:0:0:
384,152,131866,6,0,L|392:20,1,131.999998783112,0|0,0:0|0:0,0:0:0:0:
260,48,132116,1,8,0:0:0:0:
512,116,132241,1,0,0:0:0:0:
256,192,132366,6,0,L|120:176,1,131.999998783112,0|0,0:0|0:0,0:0:0:0:
0,156,132616,1,8,0:0:0:0:
220,72,132741,1,0,0:0:0:0:
64,296,132866,37,0,0:0:0:0:
96,32,132991,1,0,0:0:0:0:
196,336,133116,1,8,0:0:0:0:
196,336,133241,1,8,0:0:0:0:
488,188,133366,6,0,L|472:56,1,131.999998783112,4|0,0:0|0:0,0:0:0:0:
320,28,133616,1,8,0:0:0:0:
396,248,133741,1,0,0:0:0:0:
204,264,133866,6,0,L|220:132,1,131.999998783112,0|0,0:0|0:0,0:0:0:0:
372,104,134116,1,8,0:0:0:0:
296,324,134241,1,0,0:0:0:0:
160,40,134366,38,0,P|228:20|292:44,1,131.999998783112
392,184,134616,1,8,0:0:0:0:
108,128,134741,1,0,0:0:0:0:
200,272,134866,5,0,0:0:0:0:
372,8,134991,1,0,0:0:0:0:
140,8,135116,1,8,0:0:0:0:
316,272,135241,1,8,0:0:0:0:
316,272,135303,1,0,0:0:0:0:
316,272,135366,6,0,L|336:136,1,131.999998783112,4|0,0:0|0:0,0:0:0:0:
196,184,135616,1,8,0:0:0:0:
424,360,135741,1,0,0:0:0:0:
448,144,135866,37,0,0:0:0:0:
248,360,135991,1,0,0:0:0:0:
476,256,136116,1,8,0:0:0:0:
248,96,136241,1,0,0:0:0:0:
296,268,136366,5,0,0:0:0:0:
380,28,136491,1,0,0:0:0:0:
144,196,136616,1,8,0:0:0:0:
448,176,136741,1,0,0:0:0:0:
144,36,136866,5,0,0:0:0:0:
184,372,136991,1,0,0:0:0:0:
6,220,137116,1,8,0:0:0:0:
256,96,137241,1,0,0:0:0:0:
472,292,137366,37,4,0:0:0:0:
460,336,137428,1,0,0:0:0:0:
424,364,137491,1,0,0:0:0:0:
380,368,137553,1,0,0:0:0:0:
340,344,137616,2,0,B|332:296|332:296|316:272|316:272|308:204,1,131.999998783112,8|0,0:0|0:0,0:0:0:0:
412,28,137866,5,0,0:0:0:0:
512,224,137991,1,0,0:0:0:0:
252,88,138116,2,0,B|204:96|204:96|180:112|180:112|112:120,1,131.999998783112,8|0,0:0|0:0,0:0:0:0:
24,232,138366,5,8,0:0:0:0:
184,216,138491,1,0,0:0:0:0:
32,84,138616,1,0,0:0:0:0:
120,284,138741,37,8,0:0:0:0:
112,4,138866,1,0,0:0:0:0:
12,332,138991,1,0,0:0:0:0:
300,196,139116,5,8,0:0:0:0:
20,80,139241,1,8,0:0:0:0:
360,20,139366,5,4,0:0:0:0:
435,3,139449,1,0,0:0:0:0:
502,40,139532,1,0,0:0:0:0:
509,118,139616,1,8,0:0:0:0:
479,189,139699,1,0,0:0:0:0:
478,266,139782,1,0,0:0:0:0:
503,340,139866,37,0,0:0:0:0:
426,370,139949,1,0,0:0:0:0:
347,368,140032,1,0,0:0:0:0:
286,316,140116,1,8,0:0:0:0:
282,237,140199,1,0,0:0:0:0:
328,173,140282,1,0,0:0:0:0:
322,93,140366,5,0,0:0:0:0:
280,26,140449,1,0,0:0:0:0:
204,3,140532,1,0,0:0:0:0:
124,4,140616,1,8,0:0:0:0:
75,66,140699,1,0,0:0:0:0:
96,144,140782,1,0,0:0:0:0:
72,220,140866,5,0,0:0:0:0:
8,265,140949,1,0,0:0:0:0:
7,343,141032,1,0,0:0:0:0:
77,383,141116,1,8,0:0:0:0:
140,335,141199,1,0,0:0:0:0:
217,319,141282,1,0,0:0:0:0:
290,349,141366,38,0,B|338:351|338:351|376:338|376:338|427:343,1,131.999998783112,4|0,0:0|0:0,0:0:0:0:
500,200,141616,1,8,0:0:0:0:
324,260,141741,1,0,0:0:0:0:
192,136,141866,6,0,L|208:0,1,131.999998783112,0|0,0:0|0:0,0:0:0:0:
328,60,142116,1,8,0:0:0:0:
76,92,142241,1,0,0:0:0:0:
164,248,142366,6,0,P|176:312|148:384,1,131.999998783112
16,304,142616,1,8,0:0:0:0:
256,192,142741,1,0,0:0:0:0:
488,248,142866,38,0,P|500:312|472:384,1,131.999998783112
336,304,143116,1,8,0:0:0:0:
400,44,143241,1,0,0:0:0:0:
400,44,143303,1,0,0:0:0:0:
400,44,143366,5,4,0:0:0:0:
400,176,143491,1,0,0:0:0:0:
288,104,143616,5,8,0:0:0:0:
492,92,143741,1,0,0:0:0:0:
308,224,143866,37,0,0:0:0:0:
320,8,143991,1,0,0:0:0:0:
428,292,144116,1,8,0:0:0:0:
204,148,144241,5,0,0:0:0:0:
492,176,144366,1,0,0:0:0:0:
256,280,144491,1,0,0:0:0:0:
256,16,144616,5,8,0:0:0:0:
400,192,144741,1,0,0:0:0:0:
400,192,144803,1,0,0:0:0:0:
400,192,144866,2,0,L|384:332,1,131.999998783112,0|0,0:0|0:0,0:0:0:0:
148,240,145116,37,8,0:0:0:0:
364,80,145241,1,0,0:0:0:0:
112,44,145366,5,4,0:0:0:0:
112,176,145491,1,0,0:0:0:0:
224,104,145616,1,8,0:0:0:0:
20,92,145741,5,0,0:0:0:0:
204,224,145866,1,0,0:0:0:0:
192,8,145991,1,0,0:0:0:0:
84,292,146116,37,8,0:0:0:0:
356,192,146241,1,0,0:0:0:0:
256,40,146366,5,8,0:0:0:0:
228,244,146491,1,0,0:0:0:0:
424,108,146616,5,0,0:0:0:0:
168,112,146741,1,8,0:0:0:0:
388,284,146866,1,0,0:0:0:0:
332,28,146991,37,0,0:0:0:0:
224,332,147116,1,8,0:0:0:0:
512,276,147241,1,8,0:0:0:0:
480,24,147366,5,4,0:0:0:0:
404,36,147449,1,0,0:0:0:0:
348,92,147532,1,0,0:0:0:0:
276,128,147616,1,8,0:0:0:0:
200,104,147699,1,0,0:0:0:0:
160,36,147782,1,0,0:0:0:0:
84,8,147866,5,0,0:0:0:0:
12,36,147949,1,0,0:0:0:0:
4,116,148032,1,0,0:0:0:0:
64,168,148116,1,8,0:0:0:0:
128,212,148199,1,0,0:0:0:0:
132,292,148282,1,0,0:0:0:0:
72,348,148366,38,0,B|48:256,2,87.9999991887411
212,272,148616,2,0,L|224:184,2,87.9999991887411,8|0|0,0:0|0:0|0:0,0:0:0:0:
360,352,148866,2,0,B|336:260,2,87.9999991887411,0|0|0,0:0|0:0|0:0,0:0:0:0:
500,276,149116,2,0,L|512:188,2,87.9999991887411,8|0|0,0:0|0:0|0:0,0:0:0:0:
484,92,149366,5,4,0:0:0:0:
420,44,149449,1,0,0:0:0:0:
342,30,149532,1,0,0:0:0:0:
269,64,149616,1,8,0:0:0:0:
204,108,149699,1,0,0:0:0:0:
125,106,149782,1,0,0:0:0:0:
68,52,149866,5,0,0:0:0:0:
12,108,149949,1,0,0:0:0:0:
8,188,150032,1,0,0:0:0:0:
40,260,150116,1,8,0:0:0:0:
108,300,150199,1,0,0:0:0:0:
188,296,150282,1,0,0:0:0:0:
260,264,150366,38,0,L|356:280,2,87.9999991887411
164,192,150616,2,0,L|77:177,2,87.9999991887411,8|0|0,0:0|0:0|0:0,0:0:0:0:
324,184,150866,2,0,L|420:200,2,87.9999991887411,0|0|0,0:0|0:0|0:0,0:0:0:0:
228,112,151116,2,0,L|141:97,2,87.9999991887411,8|0|0,0:0|0:0|0:0,0:0:0:0:
384,48,151366,5,4,0:0:0:0:
480,44,151449,1,0,0:0:0:0:
488,140,151532,1,0,0:0:0:0:
392,144,151616,2,0,P|376:216|400:268,1,131.999998783112,8|0,0:0|0:0,0:0:0:0:
504,368,151866,5,0,0:0:0:0:
408,368,151949,1,0,0:0:0:0:
312,368,152032,1,0,0:0:0:0:
216,368,152116,2,0,P|191:307|208:245,1,131.999998783112,8|0,0:0|0:0,0:0:0:0:
200,32,152366,37,0,0:0:0:0:
104,24,152449,1,0,0:0:0:0:
140,112,152532,1,0,0:0:0:0:
44,104,152616,2,0,P|16:160|40:232,1,131.999998783112,8|0,0:0|0:0,0:0:0:0:
196,368,152866,5,0,0:0:0:0:
292,368,152949,1,0,0:0:0:0:
352,292,153032,1,0,0:0:0:0:
344,196,153116,2,0,L|484:208,1,131.999998783112,8|0,0:0|0:0,0:0:0:0:
392,16,153366,5,4,0:0:0:0:
346,80,153449,1,0,0:0:0:0:
269,104,153532,1,0,0:0:0:0:
188,93,153616,1,8,0:0:0:0:
108,87,153699,1,0,0:0:0:0:
41,131,153782,1,0,0:0:0:0:
16,211,153866,37,0,0:0:0:0:
25,289,153949,1,0,0:0:0:0:
81,346,154032,1,0,0:0:0:0:
159,366,154116,1,8,0:0:0:0:
237,358,154199,1,0,0:0:0:0:
301,312,154282,1,0,0:0:0:0:
323,235,154366,6,0,L|460:251,1,131.999998783112,8|0,0:0|0:0,0:0:0:0:
256,24,154616,1,0,0:0:0:0:
189,235,154741,2,0,L|52:251,1,131.999998783112,8|0,0:0|0:0,0:0:0:0:
112,48,154991,5,0,0:0:0:0:
400,48,155116,1,8,0:0:0:0:
256,304,155241,1,8,0:0:0:0:
244,136,155366,38,0,L|264:-4,1,131.999998783112,4|0,0:0|0:0,0:0:0:0:
380,140,155616,1,8,0:0:0:0:
132,224,155741,1,0,0:0:0:0:
344,356,155866,6,0,L|484:336,1,131.999998783112,0|0,0:0|0:0,0:0:0:0:
192,152,156116,1,8,0:0:0:0:
252,380,156241,1,0,0:0:0:0:
380,56,156366,6,0,L|240:76,1,131.999998783112,0|0,0:0|0:0,0:0:0:0:
372,256,156616,1,8,0:0:0:0:
484,24,156741,1,0,0:0:0:0:
256,176,156866,1,0,0:0:0:0:
504,192,156991,1,0,0:0:0:0:
324,24,157116,37,8,0:0:0:0:
352,376,157241,1,0,0:0:0:0:
84,328,157366,6,0,L|96:188,1,131.999998783112,4|0,0:0|0:0,0:0:0:0:
244,232,157616,1,8,0:0:0:0:
0,272,157741,1,0,0:0:0:0:
176,148,157866,6,0,L|164:8,1,131.999998783112,0|0,0:0|0:0,0:0:0:0:
20,92,158116,1,8,0:0:0:0:
180,308,158241,1,0,0:0:0:0:
408,120,158366,37,8,0:0:0:0:
272,72,158491,1,0,0:0:0:0:
288,216,158616,1,0,0:0:0:0:
420,20,158741,5,8,0:0:0:0:
184,148,158866,1,0,0:0:0:0:
460,268,158991,1,0,0:0:0:0:
312,12,159116,5,8,0:0:0:0:
200,372,159241,1,8,0:0:0:0:
0,120,159366,37,4,0:0:0:0:
168,48,159491,1,0,0:0:0:0:
200,220,159616,2,0,B|160:240|160:240|44:232,1,153.599993896484,8|0,0:0|0:0,0:0:0:0:
312,164,159866,2,0,B|352:144|352:144|468:152,1,153.599993896484,0|0,0:0|0:0,0:0:0:0:
472,340,160116,1,8,0:0:0:0:
312,164,160241,6,0,L|296:4,1,153.599993896484,0|0,0:0|0:0,0:0:0:0:
72,208,160491,2,0,L|88:364,1,153.599993896484,0|8,0:0|0:0,0:0:0:0:
452,220,160741,2,0,L|436:64,1,153.599993896484,0|0,0:0|0:0,0:0:0:0:
216,164,160991,5,0,0:0:0:0:
340,364,161116,1,8,0:0:0:0:
384,16,161241,1,0,0:0:0:0:
128,88,161366,37,4,0:0:0:0:
224,372,161491,1,0,0:0:0:0:
356,100,161616,2,0,P|320:92|212:132,1,153.599993896484,8|0,0:0|0:0,0:0:0:0:
24,336,161866,2,0,P|60:344|168:304,1,153.599993896484,0|0,0:0|0:0,0:0:0:0:
444,192,162116,1,8,0:0:0:0:
144,20,162241,6,0,B|128:44|128:44|136:168,1,153.599993896484,0|0,0:0|0:0,0:0:0:0:
368,364,162491,2,0,B|384:340|384:340|376:216,1,153.599993896484,0|8,0:0|0:0,0:0:0:0:
40,132,162741,2,0,L|48:308,1,153.599993896484,0|0,0:0|0:0,0:0:0:0:
224,352,162991,5,0,0:0:0:0:
496,272,163116,1,8,0:0:0:0:
180,192,163241,1,8,0:0:0:0:
512,104,163366,1,4,2:0:0:0:
196,44,167366,5,0,0:0:0:0:
220,54,167428,1,0,0:0:0:0:
247,59,167491,1,0,0:0:0:0:
274,59,167553,1,0,0:0:0:0:
300,55,167616,1,0,0:0:0:0:
327,49,167678,1,0,0:0:0:0:
352,40,167741,1,0,0:0:0:0:
378,34,167803,1,0,0:0:0:0:
405,33,167866,1,0,0:0:0:0:
432,39,167928,1,0,0:0:0:0:
456,50,167991,1,0,0:0:0:0:
476,68,168053,1,0,0:0:0:0:
491,91,168116,1,0,0:0:0:0:
498,116,168178,1,0,0:0:0:0:
500,140,168241,6,0,L|428:132,3,59.9999976158143
408,216,168491,2,0,L|336:224,3,59.9999976158143
304,136,168741,2,0,L|232:128,3,59.9999976158143
156,124,168991,54,0,L|148:44,1,59.9999976158143
116,200,169116,2,0,L|121:259,1,59.9999976158143
56,136,169241,2,0,L|48:56,1,59.9999976158143
20,214,169366,5,0,0:0:0:0:
13,240,169428,1,0,0:0:0:0:
13,267,169491,1,0,0:0:0:0:
20,292,169553,1,0,0:0:0:0:
35,315,169616,1,0,0:0:0:0:
55,333,169678,1,0,0:0:0:0:
79,344,169741,1,0,0:0:0:0:
106,350,169803,1,0,0:0:0:0:
133,349,169866,1,0,0:0:0:0:
159,343,169928,1,0,0:0:0:0:
184,334,169991,1,0,0:0:0:0:
211,328,170053,1,0,0:0:0:0:
240,324,170116,2,0,P|276:328|304:340,3,59.9999976158143
368,368,170366,53,0,0:0:0:0:
406,383,170428,1,0,0:0:0:0:
447,377,170491,1,0,0:0:0:0:
480,352,170553,1,0,0:0:0:0:
500,316,170616,1,0,0:0:0:0:
495,273,170678,1,0,0:0:0:0:
480,236,170741,1,0,0:0:0:0:
437,216,170803,1,0,0:0:0:0:
394,220,170866,1,0,0:0:0:0:
352,242,170928,1,0,0:0:0:0:
310,270,170990,1,0,0:0:0:0:
261,280,171053,1,0,0:0:0:0:
213,274,171116,1,0,0:0:0:0:
165,252,171178,1,0,0:0:0:0:
127,215,171240,1,0,0:0:0:0:
104,170,171303,1,0,0:0:0:0:
95,120,171366,21,4,0:0:0:0:
312,172,171491,1,0,0:0:0:0:
156,352,171616,2,0,B|104:364|104:364|24:328,1,131.999998783112,8|0,0:0|0:0,0:0:0:0:
356,32,171866,2,0,B|408:20|408:20|488:56,1,131.999998783112,0|0,0:0|0:0,0:0:0:0:
436,292,172116,1,8,0:0:0:0:
196,160,172241,6,0,L|212:12,1,131.999998783112,0|0,0:0|0:0,0:0:0:0:
316,224,172491,2,0,L|300:372,1,131.999998783112,0|8,0:0|0:0,0:0:0:0:
64,212,172741,2,0,L|48:64,1,131.999998783112,0|0,0:0|0:0,0:0:0:0:
300,136,172991,1,0,0:0:0:0:
192,356,173116,1,8,0:0:0:0:
152,40,173241,1,0,0:0:0:0:
492,196,173366,5,4,0:0:0:0:
252,236,173491,1,0,0:0:0:0:
392,32,173616,2,0,P|416:112|384:188,1,131.999998783112,8|0,0:0|0:0,0:0:0:0:
128,360,173866,2,0,P|112:336|104:216,1,131.999998783112,0|0,0:0|0:0,0:0:0:0:
144,40,174116,1,8,0:0:0:0:
468,304,174241,38,0,L|332:328,1,131.999998783112
196,92,174491,2,0,L|332:116,1,131.999998783112,0|8,0:0|0:0,0:0:0:0:
168,304,174741,2,0,L|32:328,1,131.999998783112,0|0,0:0|0:0,0:0:0:0:
152,128,174991,1,0,0:0:0:0:
256,368,175116,1,8,0:0:0:0:
20,188,175241,1,0,0:0:0:0:
20,188,175303,1,0,0:0:0:0:
20,188,175366,5,4,0:0:0:0:
216,228,175491,1,0,0:0:0:0:
172,24,175616,2,0,L|36:48,1,131.999998783112,8|0,0:0|0:0,0:0:0:0:
340,360,175866,2,0,L|476:336,1,131.999998783112,0|0,0:0|0:0,0:0:0:0:
504,72,176116,1,8,0:0:0:0:
192,232,176241,6,0,P|184:304|216:360,1,131.999998783112,0|0,0:0|0:0,0:0:0:0:
324,48,176491,2,0,P|265:5|201:4,1,131.999998783112,0|8,0:0|0:0,0:0:0:0:
408,248,176741,2,0,P|474:218|506:163,1,131.999998783112,0|0,0:0|0:0,0:0:0:0:
256,132,176991,1,0,0:0:0:0:
340,352,177116,1,8,0:0:0:0:
388,20,177241,1,0,0:0:0:0:
124,20,177366,37,4,0:0:0:0:
172,352,177491,1,0,0:0:0:0:
444,256,177616,2,0,B|460:188|460:188|440:124,1,131.999998783112,8|0,0:0|0:0,0:0:0:0:
68,128,177866,2,0,B|52:196|52:196|72:260,1,131.999998783112,0|0,0:0|0:0,0:0:0:0:
376,192,178116,1,8,0:0:0:0:
188,16,178241,1,0,0:0:0:0:
136,192,178366,5,8,0:0:0:0:
344,96,178491,1,0,0:0:0:0:
168,96,178616,1,0,0:0:0:0:
168,288,178741,5,8,0:0:0:0:
376,192,178866,1,0,0:0:0:0:
120,24,178991,1,0,0:0:0:0:
256,360,179116,37,8,0:0:0:0:
392,24,179241,1,0,0:0:0:0:
60,96,179366,5,4,0:0:0:0:
60,96,179428,1,0,0:0:0:0:
60,96,179491,1,0,0:0:0:0:
60,96,179553,1,0,0:0:0:0:
60,96,179616,2,0,B|32:156|32:156|44:240,1,131.999998783112,8|0,0:0|0:0,0:0:0:0:
352,376,179866,2,0,B|380:316|380:316|368:232,1,131.999998783112,0|0,0:0|0:0,0:0:0:0:
320,40,180116,1,8,0:0:0:0:
80,328,180241,6,0,L|220:344,1,131.999998783112,0|0,0:0|0:0,0:0:0:0:
211,41,180491,2,0,L|80:56,1,131.999998783112,0|8,0:0|0:0,0:0:0:0:
336,192,180741,2,0,B|392:196|392:196|408:188|408:188|468:192,1,131.999998783112,0|0,0:0|0:0,0:0:0:0:
320,64,180991,1,0,0:0:0:0:
376,332,181116,1,8,0:0:0:0:
428,16,181241,1,0,0:0:0:0:
184,228,181366,37,4,0:0:0:0:
184,228,181428,1,0,0:0:0:0:
184,228,181491,1,0,0:0:0:0:
184,228,181553,1,0,0:0:0:0:
184,228,181616,2,0,B|128:240|128:240|40:204,1,131.999998783112,8|0,0:0|0:0,0:0:0:0:
364,32,181866,2,0,L|352:168,1,131.999998783112,0|0,0:0|0:0,0:0:0:0:
256,360,182116,1,8,0:0:0:0:
203,102,182241,6,0,B|226:37|226:37|278:-2,1,131.999998783112,0|0,0:0|0:0,0:0:0:0:
204,282,182491,2,0,B|137:294|137:294|75:269,1,131.999998783112,0|8,0:0|0:0,0:0:0:0:
360,191,182741,2,0,B|404:243|404:243|413:309,1,131.999998783112,0|0,0:0|0:0,0:0:0:0:
152,192,182991,1,0,0:0:0:0:
356,24,183116,1,8,0:0:0:0:
256,364,183241,1,8,0:0:0:0:
84,60,183366,5,4,0:0:0:0:
256,192,183491,1,0,0:0:0:0:
16,256,183616,2,0,B|4:196|4:196|20:124,1,131.999998783112,8|0,0:0|0:0,0:0:0:0:
360,200,183866,2,0,B|372:260|372:260|356:332,1,131.999998783112,0|0,0:0|0:0,0:0:0:0:
192,384,184116,1,8,0:0:0:0:
256,20,184241,38,0,P|328:44|368:96,1,131.999998783112
107,278,184491,2,0,P|91:203|116:143,1,131.999998783112,0|8,0:0|0:0,0:0:0:0:
404,278,184741,2,0,P|348:328|283:336,1,131.999998783112,0|0,0:0|0:0,0:0:0:0:
256,112,184991,1,0,0:0:0:0:
496,192,185116,1,8,0:0:0:0:
196,264,185241,1,0,0:0:0:0:
408,24,185366,5,4,0:0:0:0:
428,156,185491,1,0,0:0:0:0:
296,172,185616,1,8,0:0:0:0:
276,40,185741,1,0,0:0:0:0:
44,104,185866,5,0,0:0:0:0:
24,236,185991,1,0,0:0:0:0:
156,252,186116,1,8,0:0:0:0:
176,120,186241,1,0,0:0:0:0:
52,320,186366,37,12,0:0:0:0:
288,260,186491,1,0,0:0:0:0:
96,172,186616,1,0,0:0:0:0:
384,352,186741,5,12,0:0:0:0:
204,328,186866,1,0,0:0:0:0:
452,252,186991,1,0,0:0:0:0:
220,56,187116,5,8,0:0:0:0:
292,328,187241,1,12,0:0:0:0:
