osu file format v14

[General]
AudioFilename: Undertale Megalovania Dual Mix.mp3
AudioLeadIn: 0
PreviewTime: 22195
Countdown: 0
SampleSet: Normal
StackLeniency: 0.7
Mode: 0
LetterboxInBreaks: 0
WidescreenStoryboard: 0

[Editor]
DistanceSpacing: 1.1
BeatDivisor: 4
GridSize: 4
TimelineZoom: 2.5

[Metadata]
Title:Megalovania (Dual Mix)
TitleUnicode:Megalovania (Dual Mix)
Artist:Toby Fox
ArtistUnicode:Toby Fox
Creator:luxoDeh
Version:Insane
Source:
Tags:
BeatmapID:878368
BeatmapSetID:403957

[Difficulty]
HPDrainRate:6
CircleSize:4
OverallDifficulty:7
ApproachRate:9
SliderMultiplier:1.6
SliderTickRate:1

[Events]
//Background and Video events
0,0,"megalovania_by_hydra014-d9icjo0.jpg",0,0
//Break Periods
//Storyboard Layer 0 (Background)
//Storyboard Layer 1 (Fail)
//Storyboard Layer 2 (Pass)
//Storyboard Layer 3 (Foreground)
//Storyboard Sound Samples

[TimingPoints]
5195,250,4,2,0,50,1,0
6195,-125,4,2,0,50,0,0
22195,-100,4,1,0,50,0,1
38195,-100,4,1,0,50,0,0
150195,-133.333333333333,4,1,0,50,0,0
158195,-83.3333333333333,4,1,0,50,0,1
174070,-166.666666666667,4,1,0,50,0,0

[Colours]
Combo1 : 0,0,160
Combo2 : 128,128,192
Combo3 : 18,124,255
Combo4 : 255,255,0

[HitObjects]
361,119,6195,6,0,L|374:38,2,64
425,286,6695,2,0,P|390:328|316:343,1,128
247,291,7070,2,0,P|192:268|109:286,1,114.749996498108
284,139,7570,2,0,P|264:90|188:47,1,128
113,55,7945,2,0,L|45:79,1,64
146,174,8195,6,0,L|227:201,2,64
303,260,8695,2,0,P|349:234|360:144,1,128
340,78,9070,2,0,B|413:91|413:91|478:82,1,128
253,41,9570,2,0,P|203:39|131:88,1,128
106,163,9945,2,0,L|126:237,1,64
248,329,10195,6,0,L|262:254,2,64
375,202,10695,2,0,P|341:156|273:138,1,128
189,164,11070,2,0,P|146:155|92:88,1,128
263,35,11570,2,0,B|351:30|351:30|397:42,1,128
463,91,11945,2,0,P|484:136|493:170,1,64
403,297,12195,6,0,L|331:309,2,64
246,209,12695,2,0,P|193:241|167:314,1,128
246,209,13070,2,0,L|107:212,1,128
9,68,13570,2,0,L|136:65,1,128
216,108,13945,2,0,L|286:106,1,64
451,190,14195,5,0,0:0:0:0:
451,190,14320,1,0,0:0:0:0:
451,190,14445,1,0,0:0:0:0:
323,316,14695,2,0,B|233:327|233:327|188:316,1,128
140,248,15070,2,0,B|138:194|138:194|166:114,1,128
316,32,15570,2,0,P|401:23|453:43,1,128
432,125,15945,2,0,P|451:159|458:194,1,64
327,314,16195,5,0,0:0:0:0:
327,314,16320,1,0,0:0:0:0:
327,314,16445,1,0,0:0:0:0:
252,151,16695,2,0,B|241:119|241:85|241:85|168:67,1,128
103,113,17070,2,0,B|89:172|89:172|119:187|142:211,1,128
257,350,17570,2,0,L|118:362,1,128
55,309,17945,2,0,L|-20:296,1,64
142,211,18195,5,0,0:0:0:0:
142,211,18320,1,0,0:0:0:0:
142,211,18445,1,0,0:0:0:0:
317,248,18695,2,0,P|378:239|427:187,1,128
423,104,19070,2,0,P|400:72|302:51,1,128
159,131,19570,2,0,P|102:153|36:141,1,128
60,55,19945,2,0,P|97:51|137:55,1,64
227,189,20195,5,0,0:0:0:0:
227,189,20320,1,0,0:0:0:0:
227,189,20445,1,0,0:0:0:0:
327,337,20695,2,0,P|338:277|407:231,1,128
473,209,21070,1,0,0:0:0:0:
415,39,21320,1,0,0:0:0:0:
255,120,21570,1,0,0:0:0:0:
255,120,21695,2,0,L|178:128,1,64
79,212,21945,2,0,L|152:223,1,64
284,329,22195,6,0,P|328:316|362:282,1,80,4|0,0:0|0:0,0:0:0:0:
324,85,22445,2,0,P|280:98|246:132,1,80
408,173,22695,2,0,P|438:128|427:20,1,160
322,167,23070,2,0,L|292:254,1,80
163,118,23320,6,0,L|189:42,1,80
213,196,23570,1,0,0:0:0:0:
125,205,23695,2,0,L|35:220,1,80
243,117,23945,2,0,L|321:103,1,80
446,220,24195,6,0,P|449:262|431:311,1,80,4|0,0:0|0:0,0:0:0:0:
248,337,24445,2,0,P|245:295|263:246,1,80
342,65,24695,2,0,L|176:94,1,160
97,107,25070,1,0,0:0:0:0:
86,242,25195,6,0,L|3:224,1,80
136,318,25445,1,0,0:0:0:0:
222,301,25570,2,0,L|305:283,1,80
389,166,25820,1,0,0:0:0:0:
302,182,25945,2,0,L|223:198,1,80
424,243,26195,6,0,P|460:212|472:164,1,80,4|0,0:0|0:0,0:0:0:0:
353,36,26445,2,0,P|317:67|305:115,1,80
424,243,26695,2,0,B|445:285|485:320|485:320|402:344,1,160
243,303,27070,6,0,B|296:332|296:332|293:279|307:234,1,160
341,153,27445,1,0,0:0:0:0:
382,75,27570,1,0,0:0:0:0:
426,149,27695,2,0,L|505:140,1,80
294,77,27945,2,0,L|203:87,1,80
160,258,28195,6,0,P|204:224|219:183,1,80,4|0,0:0|0:0,0:0:0:0:
123,71,28445,2,0,P|79:105|64:146,1,80
74,287,28695,2,0,P|119:337|219:330,1,160
283,293,29070,2,0,P|328:288|384:297,1,80
479,194,29320,6,0,P|434:199|378:190,1,80
323,151,29570,1,0,0:0:0:0:
445,287,29695,2,0,P|456:337|452:379,1,80
310,139,29945,2,0,P|299:89|303:47,1,80
257,224,30195,6,0,B|203:245|203:245|171:244,1,80,4|0,0:0|0:0,0:0:0:0:
50,110,30445,2,0,B|104:89|104:89|136:90,1,80
329,178,30695,2,0,P|343:238|263:312,1,160
199,335,31070,2,0,L|119:324,1,80
29,186,31320,6,0,L|109:197,1,80
196,203,31570,1,0,0:0:0:0:
261,143,31695,2,0,P|270:92|266:45,1,80
296,231,31945,2,0,P|287:282|291:329,1,80
426,126,32195,5,4,0:0:0:0:
426,126,32320,1,0,0:0:0:0:
428,38,32445,2,0,P|379:32|329:46,1,80
312,227,32695,2,0,P|379:236|476:225,1,160
320,141,33070,2,0,L|221:155,1,80
106,230,33320,6,0,L|193:237,1,80
265,296,33570,1,0,0:0:0:0:
241,152,33695,2,0,L|223:48,1,80
265,296,33945,2,0,P|306:323|363:331,1,80
421,198,34195,5,4,0:0:0:0:
421,198,34320,1,0,0:0:0:0:
396,113,34445,2,0,L|378:9,1,80
344,234,34695,2,0,P|400:279|494:242,1,160,0|0,0:2|0:2,0:2:0:0:
274,172,35070,2,0,P|228:170|181:174,1,80
69,314,35320,6,0,P|115:316|162:312,1,80
235,294,35570,1,0,0:0:0:0:
135,223,35695,2,0,L|48:166,1,80
270,314,35945,2,0,B|311:318|311:318|365:309,1,80
400,141,36195,6,0,L|425:227,1,80,4|0,0:0|0:0,0:0:0:0:
320,33,36445,2,0,L|293:129,1,80
172,36,36695,2,0,P|172:90|61:125,1,160
33,205,37070,2,0,P|28:266|39:314,1,80
180,354,37320,6,0,P|185:293|174:245,1,80
157,190,37570,1,0,0:0:0:0:
267,297,37695,2,0,P|312:324|361:333,1,80
456,201,37945,2,0,P|411:174|362:165,1,80
217,127,38195,6,0,P|249:176|308:112,1,160,4|0,0:0|0:0,0:0:0:0:
160,49,38570,2,0,P|128:86|118:131,1,80
184,277,38820,2,0,P|216:240|226:195,1,80
100,280,39070,6,0,P|117:328|219:351,1,160
299,327,39445,2,0,P|350:318|405:340,1,80
474,225,39695,2,0,P|480:173|386:178,1,160
395,252,40070,1,0,0:0:0:0:
474,122,40195,6,0,B|394:44|394:44|332:29,1,160
274,83,40570,2,0,P|228:89|135:79,1,120
132,45,40820,2,0,L|162:178,1,120
186,196,41070,6,0,P|127:198|147:289,1,160
162,309,41382,1,0,0:0:0:0:
162,309,41445,2,0,L|68:325,1,80
246,359,41695,2,0,L|333:368,1,80
407,239,41945,1,0,0:0:0:0:
407,239,42070,1,0,0:0:0:0:
418,326,42195,6,0,P|469:351|460:262,1,160
407,239,42570,2,0,L|309:228,1,80
421,148,42820,2,0,L|506:135,1,80
340,83,43070,2,0,L|252:71,1,80
460,41,43320,6,0,L|547:30,1,80
258,37,43570,2,0,P|208:71|171:182,1,160
211,238,43945,2,0,P|225:292|224:331,1,80
76,195,44195,6,0,B|70:141|70:141|80:93,1,80
2,197,44445,2,0,B|-4:143|-4:143|6:95,1,80
216,60,44695,2,0,P|260:64|308:56,2,80
132,28,45070,1,0,0:0:0:0:
174,142,45195,6,0,B|170:176|181:194|181:194|200:210|215:233|215:233|210:267|245:307,1,160,4|0,0:0|0:0,0:0:0:0:
444,347,45570,2,0,B|448:313|437:295|437:295|418:279|403:256|403:256|408:222|373:182,1,160,4|0,0:0|0:0,0:0:0:0:
337,133,45945,1,0,0:0:0:0:
352,46,46070,1,0,0:0:0:0:
390,205,46195,6,0,P|349:222|305:215,1,80,4|0,0:0|0:0,0:0:0:0:
197,90,46445,2,0,P|238:73|282:80,1,80
163,172,46695,1,0,0:0:0:0:
110,101,46820,2,0,P|120:50|151:17,1,80
248,178,47070,6,0,P|226:227|107:239,1,160
41,246,47445,2,0,B|0:284|0:284|-14:323,1,80
143,358,47695,2,0,B|184:320|184:320|198:281,1,80
227,150,47945,2,0,P|231:197|259:249,1,80
371,339,48195,5,0,0:0:0:0:
396,254,48320,1,0,0:0:0:0:
355,175,48445,2,0,P|340:137|338:97,1,80
459,208,48695,2,0,P|411:248|369:259,1,80
307,250,48945,1,0,0:0:0:0:
248,78,49070,6,0,P|234:143|145:130,1,160
81,88,49445,1,0,0:0:0:0:
248,78,49570,2,0,L|272:247,1,160
286,323,49945,1,0,0:0:0:0:
286,323,50070,1,0,0:0:0:0:
295,210,50195,6,0,P|341:172|382:162,1,80
485,299,50445,2,0,P|439:337|398:347,1,80
286,323,50695,2,0,P|235:312|189:316,1,80
31,369,50945,2,0,P|79:327|101:289,1,80
176,48,51195,6,0,P|193:89|234:116,1,80
83,132,51445,2,0,P|61:181|28:211,1,80
178,210,51695,2,0,P|195:251|236:278,1,80
309,285,51945,1,0,0:0:0:0:
309,285,52070,1,0,0:0:0:0:
422,198,52195,6,0,L|438:241,3,40
467,266,52445,2,0,L|462:324,3,40
456,349,52695,1,0,0:0:0:0:
368,357,52820,1,0,0:0:0:0:
280,365,52945,1,0,0:0:0:0:
192,371,53070,1,0,0:0:0:0:
111,335,53195,6,0,L|14:328,1,80
169,271,53445,1,0,0:0:0:0:
235,213,53570,2,0,L|332:206,1,80
161,168,53820,1,0,0:0:0:0:
95,110,53945,2,0,L|-2:103,1,80
235,213,54195,6,0,P|283:195|307:84,1,160,4|0,0:0|0:0,0:0:0:0:
61,26,54695,2,0,L|75:114,1,80
144,157,54945,2,0,L|134:254,1,80
80,304,55195,5,0,0:0:0:0:
80,304,55320,1,0,0:0:0:0:
161,336,55445,2,0,P|216:346|268:338,1,80
352,223,55695,2,0,P|297:213|245:221,1,80
381,338,55945,2,0,P|417:303|442:258,1,80
411,62,56195,5,0,0:0:0:0:
414,93,56257,1,0,0:0:0:0:
427,122,56320,1,0,0:0:0:0:
451,142,56382,1,0,0:0:0:0:
481,152,56445,2,0,L|320:176,1,160
235,190,56820,1,0,0:0:0:0:
284,263,56945,2,0,P|321:295|363:310,1,80
235,190,57195,6,0,P|198:158|156:143,1,80
68,341,57445,2,0,P|125:346|172:338,1,80
207,274,57695,1,0,0:0:0:0:
314,130,57820,2,0,P|332:192|415:171,1,160
261,58,58195,6,0,B|212:53|212:53|162:58,1,80
67,183,58445,2,0,B|116:188|116:188|166:183,1,80
297,136,58695,1,0,0:0:0:0:
297,136,58820,1,0,0:0:0:0:
265,218,58945,2,0,L|232:313,1,80
374,165,59195,6,0,L|400:89,1,80
414,244,59445,2,0,P|464:249|515:235,1,80
287,103,59695,2,0,P|237:98|186:112,1,80
338,278,59945,2,0,L|357:375,1,80
208,103,60195,6,0,L|192:24,1,80
150,169,60445,1,0,0:0:0:0:
150,169,60570,1,0,0:0:0:0:
182,250,60695,2,0,P|192:301|192:338,1,80
30,384,60945,2,0,P|20:333|20:296,1,80
149,140,61195,6,0,B|196:140|196:140|234:163|234:163|268:137|268:137|326:137,1,160,4|0,0:0|0:0,0:0:0:0:
442,274,61570,2,0,B|395:274|395:274|357:251|357:251|323:277|323:277|265:277,1,160,4|0,0:0|0:0,0:0:0:0:
396,71,61945,1,0,0:0:0:0:
396,71,62070,1,0,0:0:0:0:
467,122,62195,6,0,P|429:153|378:154,1,80,4|0,0:0|0:0,0:0:0:0:
235,70,62445,2,0,P|273:39|324:38,1,80
269,256,62695,2,0,P|231:287|180:288,1,80
37,204,62945,2,0,P|75:173|126:172,1,80
263,166,63195,6,0,P|314:176|360:273,1,160
350,352,63570,1,0,0:0:0:0:
263,166,63695,2,0,L|424:169,1,160
203,107,64070,1,0,0:0:0:0:
180,265,64195,6,0,L|20:262,1,160
203,107,64570,1,0,0:0:0:0:
314,37,64695,2,0,L|475:40,1,160
263,166,65070,1,0,0:0:0:0:
162,297,65195,6,0,L|2:294,1,160
263,166,65695,2,0,P|305:205|308:312,1,160
255,370,66070,1,0,0:0:0:0:
204,105,66195,6,0,B|333:121|333:121|388:108,1,160,4|0,0:0|0:0,0:0:0:0:
444,80,66570,1,0,0:0:0:0:
469,164,66695,2,0,B|481:220|481:220|480:252,1,80
361,350,66945,2,0,B|349:294|349:294|350:262,1,80
343,66,67195,5,0,0:0:0:0:
343,66,67320,1,0,0:0:0:0:
307,146,67445,2,0,P|274:189|238:207,1,80
108,221,67695,2,0,P|131:258|171:281,1,80
296,341,67945,1,0,0:0:0:0:
296,341,68070,1,0,0:0:0:0:
208,353,68195,6,0,L|129:365,1,80
335,258,68445,2,0,L|414:246,1,80
171,183,68695,2,0,L|78:174,1,80
288,96,68945,2,0,L|377:74,1,80
87,77,69195,6,0,B|91:182|91:182|71:247,1,160,4|0,0:0|0:0,0:0:0:0:
263,351,69570,2,0,B|259:246|259:246|279:181,1,160,4|0,0:0|0:0,0:0:0:0:
332,125,69945,2,0,P|379:122|428:136,1,80
477,186,70195,5,4,0:0:0:0:
381,333,70445,1,0,0:0:0:0:
275,193,70695,2,0,P|219:189|175:197,1,80
102,319,70945,2,0,P|158:323|202:315,1,80
354,152,71195,5,0,0:0:0:0:
291,89,71320,1,0,0:0:0:0:
349,243,71445,2,0,P|388:245|442:239,1,80
291,89,71695,2,0,P|252:87|198:93,1,80
354,152,71945,2,0,L|395:67,1,80
205,177,72195,5,0,0:0:0:0:
197,207,72257,1,0,0:0:0:0:
194,239,72320,1,0,0:0:0:0:
198,270,72382,1,0,0:0:0:0:
208,300,72445,2,0,B|76:277|76:277|24:253,1,160
27,180,72820,1,0,0:0:0:0:
35,92,72945,2,0,P|52:45|85:17,1,80
242,109,73195,6,0,P|225:156|192:184,1,80
193,37,73445,1,0,0:0:0:0:
279,23,73570,1,0,0:0:0:0:
347,78,73695,2,0,L|376:162,1,80
280,324,73945,2,0,L|298:219,1,80
444,227,74195,6,0,P|410:177|487:138,1,160
476,306,74570,1,0,0:0:0:0:
394,338,74695,2,0,B|352:346|352:346|292:334,1,80
146,220,74945,2,0,B|188:212|188:212|248:224,1,80
109,301,75195,6,0,P|68:264|55:219,1,80
252,138,75445,2,0,P|293:175|306:220,1,80
160,112,75695,2,0,P|189:70|227:49,1,80
385,221,75945,2,0,P|356:263|318:284,1,80
365,133,76195,6,0,P|396:112|457:204,1,160
385,221,76570,1,0,0:0:0:0:
365,132,76695,2,0,L|380:36,1,80
385,221,76945,2,0,L|372:300,1,80
139,229,77195,6,0,B|146:183|146:183|130:123|130:123|141:56,1,160,4|0,0:0|0:0,0:0:0:0:
285,233,77570,2,0,B|243:263|243:263|213:317|213:317|176:346,1,160,4|0,0:0|0:0,0:0:0:0:
262,147,77945,1,0,0:0:0:0:
348,164,78070,1,0,0:0:0:0:
181,98,78195,6,0,P|221:66|279:60,1,80,4|0,0:0|0:0,0:0:0:0:
418,214,78445,2,0,P|378:246|320:252,1,80
389,75,78695,2,0,L|480:88,1,80
250,226,78945,2,0,L|170:214,1,80
421,213,79195,6,0,P|449:254|373:324,1,160
302,299,79570,1,0,0:0:0:0:
190,112,79695,2,0,P|233:78|322:125,1,160
299,203,80070,1,0,0:0:0:0:
108,86,80195,6,0,P|151:128|95:202,1,160
23,234,80570,1,0,0:0:0:0:
179,279,80695,2,0,L|355:310,1,160
422,325,81070,1,0,0:0:0:0:
491,177,81195,6,0,P|478:138|351:138,1,160
298,162,81570,1,0,0:0:0:0:
213,185,81695,2,0,P|215:134|244:95,1,80
351,231,81945,2,0,P|353:271|336:307,1,80
37,293,82195,6,0,B|67:274|115:291|158:307|223:280,1,160,4|0,0:0|0:0,0:0:0:0:
273,249,82570,1,0,0:0:0:0:
315,171,82695,2,0,L|334:72,1,80
189,29,82945,2,0,L|204:107,1,80
273,249,83195,5,0,0:0:0:0:
360,257,83320,1,0,0:0:0:0:
440,221,83445,1,0,0:0:0:0:
471,138,83570,1,0,0:0:0:0:
420,65,83695,2,0,L|343:40,1,80
360,257,83945,2,0,L|436:281,1,80
308,148,84195,6,0,P|262:124|232:224,1,160
248,279,84570,1,0,0:0:0:0:
182,338,84695,2,0,P|133:345|88:331,1,80
49,179,84945,2,0,P|98:172|143:186,1,80
248,279,85195,6,0,B|300:276|340:306|340:306|366:275|416:270,1,160,4|0,0:0|0:0,0:0:0:0:
228,73,85570,2,0,B|176:76|136:46|136:46|110:77|60:82,1,160,4|0,0:0|0:0,0:0:0:0:
286,159,85945,2,0,L|373:142,1,80
199,173,86195,5,4,0:0:0:0:
364,232,86445,1,0,0:0:0:0:
199,173,86695,2,0,L|120:188,1,80
34,207,86945,1,0,0:0:0:0:
231,260,87070,6,0,P|279:214|271:122,1,160
216,58,87445,2,0,P|158:65|110:49,1,80
308,19,87695,2,0,P|375:19|445:108,1,160
445,169,88070,1,0,0:0:0:0:
437,256,88195,6,0,P|426:310|407:347,1,80
289,247,88445,2,0,P|300:193|319:156,1,80
326,333,88695,2,0,P|260:341|160:330,1,160
86,296,89070,1,0,0:0:0:0:
39,221,89195,6,0,L|26:136,1,80
146,35,89445,2,0,L|133:129,1,80
173,241,89695,2,0,B|258:253|258:253|346:238,1,160
417,221,90070,1,0,0:0:0:0:
463,70,90195,6,0,B|378:58|378:58|290:73,1,160
137,126,90695,2,0,P|86:136|35:124,1,80
162,38,90945,1,0,0:0:0:0:
162,38,91070,6,0,P|206:67|214:175,1,160
166,239,91445,2,0,P|149:287|144:333,1,80
332,327,91695,2,0,P|349:279|354:233,1,80
303,99,91945,1,0,0:0:0:0:
303,99,92007,1,0,0:0:0:0:
303,99,92070,1,0,0:0:0:0:
371,154,92195,6,0,P|410:170|444:70,1,160
377,50,92570,1,0,0:0:0:0:
289,44,92695,2,0,L|181:42,1,80
72,153,92945,1,0,0:0:0:0:
159,156,93070,6,0,L|326:158,2,160
72,153,93695,2,0,P|58:204|66:264,1,80
183,351,93945,2,0,P|197:300|189:240,1,80
39,82,94195,6,0,P|69:129|134:65,1,160
306,32,94695,2,0,P|353:41|390:71,1,80
438,123,94945,1,0,0:0:0:0:
468,205,95070,1,0,0:0:0:0:
431,285,95195,6,0,B|387:315|387:315|354:322,1,80
222,252,95445,2,0,B|266:222|266:222|299:215,1,80
218,340,95695,2,0,P|157:313|138:226,1,160
167,144,96070,1,0,0:0:0:0:
338,74,96195,6,0,P|340:128|246:113,1,160
252,42,96570,1,0,0:0:0:0:
338,74,96695,2,0,L|441:108,1,80
425,282,96945,2,0,L|349:256,1,80
485,220,97195,6,0,P|504:301|458:362,1,160
373,357,97570,1,0,0:0:0:0:
290,327,97695,2,0,L|214:301,1,80
203,119,97945,2,0,L|306:153,1,80
125,163,98195,6,0,P|115:107|182:35,1,160
355,51,98695,2,0,P|387:80|411:139,1,80
418,199,98945,1,0,0:0:0:0:
326,299,99070,6,0,L|166:319,1,160
256,215,99445,2,0,L|343:204,1,80
169,176,99695,2,0,P|132:156|95:96,1,80
252,60,99945,1,0,0:0:0:0:
252,60,100007,1,0,0:0:0:0:
252,60,100070,1,0,0:0:0:0:
335,204,100195,6,0,P|383:238|428:165,1,160
254,147,100695,2,0,L|167:162,1,80
88,174,100945,1,0,0:0:0:0:
41,248,101070,1,0,0:0:0:0:
148,318,101195,6,0,B|201:324|201:324|247:313,1,80
370,221,101445,2,0,B|317:215|317:215|271:226,1,80
407,302,101695,2,0,P|441:270|457:223,1,80
341,114,101945,1,0,0:0:0:0:
341,114,102070,1,0,0:0:0:0:
407,302,102195,6,0,P|441:270|457:223,1,80
321,79,102445,2,0,L|338:187,1,80
387,32,102695,2,0,P|341:2|246:53,1,160
236,127,103070,2,0,P|182:146|141:146,1,80
14,62,103320,6,0,P|68:43|109:43,1,80
177,59,103570,1,0,0:0:0:0:
261,145,103695,2,0,L|236:246,1,80
53,202,103945,2,0,L|72:124,1,80
286,115,104195,6,0,L|370:107,1,80
448,136,104445,1,0,0:0:0:0:
448,136,104570,1,0,0:0:0:0:
241,222,104695,2,0,L|66:241,1,160
256,142,105070,2,0,P|294:160|322:197,1,80
235,356,105320,6,0,P|197:338|169:301,1,80
252,271,105570,1,0,0:0:0:0:
379,250,105695,2,0,L|475:245,1,80
252,271,105945,2,0,L|172:275,1,80
328,124,106195,5,0,0:0:0:0:
328,124,106320,1,0,0:0:0:0:
415,121,106445,2,0,L|495:117,1,80
273,184,106695,2,0,P|250:142|311:44,1,160
273,184,107070,2,0,L|183:161,1,80
28,114,107320,6,0,L|124:70,1,80
108,193,107570,1,0,0:0:0:0:
132,277,107695,2,0,P|133:328|121:362,1,80
108,193,107945,2,0,P|104:141|115:104,1,80
272,238,108195,6,0,L|366:254,1,80
437,268,108445,1,0,0:0:0:0:
437,268,108570,1,0,0:0:0:0:
189,257,108695,2,0,P|194:206|286:155,1,160
189,257,109070,2,0,L|169:158,1,80
296,76,109320,6,0,L|280:154,1,80
231,18,109570,1,0,0:0:0:0:
296,76,109695,2,0,P|355:91|401:83,1,80
231,18,109945,2,0,P|172:3|126:11,1,80
75,120,110195,5,0,0:0:0:0:
75,120,110320,1,0,0:0:0:0:
90,206,110445,2,0,L|98:299,1,80
6,73,110695,2,0,P|55:42|148:89,1,160
190,152,111070,2,0,P|244:157|285:146,1,80
398,43,111320,6,0,P|344:38|303:49,1,80
371,138,111570,1,0,0:0:0:0:
402,220,111695,2,0,L|424:308,1,80
268,151,111945,2,0,L|248:73,1,80
242,310,112195,6,0,B|203:317|203:317|144:306,1,80
81,276,112445,1,0,0:0:0:0:
81,276,112570,1,0,0:0:0:0:
269,230,112695,2,0,P|311:262|301:369,1,160
269,230,113070,2,0,L|359:235,1,80
215,155,113320,6,0,L|129:167,1,80
260,64,113570,1,0,0:0:0:0:
347,74,113695,2,0,L|442:86,1,80
260,64,113945,2,0,L|180:53,1,80
48,117,114195,5,0,0:0:0:0:
48,117,114320,1,0,0:0:0:0:
28,202,114445,2,0,B|21:251|21:251|28:289,1,80
208,243,114695,2,0,B|215:194|215:194|208:156,1,80
143,314,114945,1,0,0:0:0:0:
229,331,115070,2,0,B|282:340|282:340|326:332,1,80
426,220,115320,6,0,B|373:211|373:211|329:219,1,80
468,295,115570,1,0,0:0:0:0:
468,145,115695,2,0,P|458:92|427:50,1,80
292,111,115945,2,0,L|206:132,1,80
74,235,116195,5,0,0:0:0:0:
74,235,116320,1,0,0:0:0:0:
159,253,116445,2,0,L|255:272,1,80
121,114,116695,2,0,B|74:125|74:125|26:122,1,80
178,43,116945,1,0,0:0:0:0:
265,31,117070,2,0,P|307:27|361:36,1,80
440,143,117320,6,0,P|398:147|344:138,1,80
472,53,117570,1,0,0:0:0:0:
433,175,117695,2,0,L|407:269,1,80
304,348,117945,2,0,L|278:251,1,80
104,171,118195,6,0,P|141:216|217:148,1,160,4|0,0:0|0:0,0:0:0:0:
162,103,118570,1,0,0:0:0:0:
74,96,118695,2,0,P|36:123|20:165,1,80
81,299,118945,2,0,P|119:272|135:230,1,80
162,103,119195,6,0,P|197:139|267:63,1,160
263,163,119570,2,0,P|312:153|342:54,1,160
381,127,119945,2,0,P|414:93|421:48,1,80
402,216,120195,6,0,P|387:267|473:304,1,160
402,216,120570,1,0,0:0:0:0:
314,226,120695,2,0,L|226:239,1,80
125,334,120945,2,0,L|212:344,1,80
106,251,121195,6,0,P|62:276|49:378,1,160
170,192,121570,2,0,P|194:148|123:62,1,160
187,272,121945,2,0,L|286:240,1,80
291,62,122195,6,0,P|289:107|318:148,1,80
460,62,122445,2,0,P|404:55|365:77,1,80
405,219,122695,2,0,P|424:173|417:128,1,80
324,271,122945,2,0,P|369:308|419:312,1,80
238,203,123195,6,0,L|142:198,1,80
60,331,123445,2,0,L|158:321,1,80
122,115,123695,2,0,P|75:165|69:208,1,80
277,285,123945,2,0,P|310:257|328:205,1,80
258,52,124195,6,0,L|272:115,3,40
290,128,124445,2,0,L|269:187,3,40
239,189,124695,1,0,0:0:0:0:
190,262,124820,1,0,0:0:0:0:
322,329,124945,2,0,B|373:335|373:335|415:325,1,80
190,262,125195,6,0,B|139:256|139:256|97:266,1,80
35,308,125445,1,0,0:0:0:0:
242,324,125570,2,0,P|269:269|222:186,1,160
152,138,125945,2,0,L|56:147,1,80
250,79,126195,5,0,0:0:0:0:
250,79,126320,1,0,0:0:0:0:
335,59,126445,2,0,P|382:45|413:20,1,80
250,79,126695,1,0,0:0:0:0:
247,110,126757,1,0,0:0:0:0:
246,142,126820,1,0,0:0:0:0:
254,172,126882,1,0,0:0:0:0:
263,202,126945,2,0,L|247:255,3,40
259,271,127195,6,0,L|274:366,2,80
346,159,127570,1,0,0:0:0:0:
177,266,127695,1,0,0:0:0:0:
146,273,127757,1,0,0:0:0:0:
113,275,127820,1,0,0:0:0:0:
81,269,127882,1,0,0:0:0:0:
51,255,127945,2,0,P|4:209|-8:165,1,80
148,77,128195,6,0,L|149:159,1,80
65,50,128445,2,0,P|89:15|127:-6,1,80
227,183,128695,2,0,P|203:218|165:239,1,80
258,99,128945,1,0,0:0:0:0:
258,99,129070,1,0,0:0:0:0:
343,77,129195,6,0,P|388:74|455:160,1,160
443,243,129570,1,0,0:0:0:0:
387,311,129695,2,0,B|344:329|344:329|290:334,1,80
174,232,129945,2,0,B|217:214|217:214|271:209,1,80
208,334,130195,5,0,0:0:0:0:
120,323,130320,2,0,L|29:316,1,80
250,210,130570,1,0,0:0:0:0:
338,199,130695,2,0,L|429:192,1,80
183,90,130945,1,0,0:0:0:0:
95,79,131070,2,0,L|4:72,1,80
279,249,131320,5,0,0:0:0:0:
367,238,131445,2,0,L|458:231,1,80
226,321,131695,2,0,P|200:286|192:228,1,80
312,88,131945,2,0,P|301:126|277:157,1,80
119,196,132195,6,0,L|35:192,1,80
192,145,132445,1,0,0:0:0:0:
289,255,132570,1,0,0:0:0:0:
362,204,132695,2,0,L|446:208,1,80
180,312,132945,1,0,0:0:0:0:
92,317,133070,2,0,L|5:324,1,80
204,228,133320,6,0,L|288:232,1,80
131,156,133570,2,0,L|47:160,1,80
208,81,133820,2,0,L|292:85,1,80
129,27,134070,1,0,0:0:0:0:
367,54,134195,6,0,P|366:117|283:170,1,160
203,169,134570,1,0,0:0:0:0:
84,210,134695,2,0,L|71:261,3,40
89,290,134945,2,0,L|106:346,3,40
141,346,135195,5,0,0:0:0:0:
296,292,135320,2,0,L|302:251,3,40
326,215,135570,1,0,0:0:0:0:
401,169,135695,2,0,P|401:106|389:61,1,80
257,34,135945,2,0,P|257:97|269:142,1,80
326,318,136195,6,0,P|369:332|492:308,1,160
263,246,136570,1,0,0:0:0:0:
176,259,136695,2,0,L|91:275,1,80
286,162,136945,2,0,L|382:165,1,80
409,166,137132,1,0,0:0:0:0:
409,166,137195,6,0,P|383:130|456:32,1,160
286,162,137570,1,0,0:0:0:0:
246,83,137695,2,0,P|237:37|253:-8,1,80
286,162,137945,2,0,P|295:208|279:253,1,80
263,277,138132,1,0,0:0:0:0:
263,277,138195,6,0,L|429:305,1,160
194,221,138570,1,0,0:0:0:0:
107,235,138695,2,0,B|46:247|46:247|7:243,1,80
78,85,138945,2,0,B|139:73|139:73|178:77,1,80
199,85,139132,1,0,0:0:0:0:
238,105,139195,6,0,B|255:106|255:106|316:94,1,80
468,28,139445,2,0,L|457:115,1,80
375,211,139695,2,0,L|355:160,2,40
451,298,139945,2,0,L|445:350,2,40
299,264,140195,5,0,0:0:0:0:
267,257,140257,1,0,0:0:0:0:
234,256,140320,1,0,0:0:0:0:
202,261,140382,1,0,0:0:0:0:
171,272,140445,2,0,L|182:168,1,80
79,64,140695,2,0,L|83:170,1,80
120,338,140945,2,0,P|167:353|216:344,1,80
240,342,141132,1,0,0:0:0:0:
283,335,141195,6,0,P|324:330|374:338,2,80
120,338,141570,1,0,0:0:0:0:
53,280,141695,2,0,P|20:229|20:187,1,80
123,92,141945,2,0,P|156:143|156:185,1,80
37,90,142195,6,0,P|58:38|160:14,1,160
235,39,142570,1,0,0:0:0:0:
318,68,142695,2,0,B|370:79|370:79|407:75,1,80
482,208,142945,2,0,B|430:219|430:219|393:215,1,80
278,296,143195,6,0,P|224:306|174:301,1,80
90,183,143445,2,0,P|144:173|194:178,1,80
46,267,143695,2,0,P|9:228|-5:185,1,80
196,85,143945,1,0,0:0:0:0:
196,85,144070,1,0,0:0:0:0:
294,221,144195,6,0,P|339:237|365:141,1,160
289,139,144570,1,0,0:0:0:0:
213,183,144695,2,0,P|160:190|110:176,1,80
29,57,144945,2,0,P|82:50|132:64,1,80
247,208,145195,6,0,L|229:308,1,80
178,355,145445,1,0,0:0:0:0:
318,155,145570,1,0,0:0:0:0:
372,86,145695,2,0,L|387:8,1,80
390,208,145945,2,0,P|355:241|310:248,1,80
438,137,146195,6,0,P|477:155|510:185,1,80,4|0,0:0|0:0,0:0:0:0:
440,356,146445,2,0,P|401:338|368:308,1,80
203,189,146695,2,0,P|240:141|296:210,1,160
151,256,147070,2,0,P|124:219|123:173,1,80
236,269,147320,6,0,P|220:309|184:337,1,80
36,223,147570,1,0,0:0:0:0:
52,136,147695,2,0,L|69:45,1,80
217,110,147945,2,0,L|202:188,1,80
190,332,148195,6,0,P|138:337|104:327,1,80,4|0,0:0|0:0,0:0:0:0:
257,257,148445,2,0,P|309:252|343:262,1,80
202,189,148695,2,0,P|212:142|307:176,1,160
129,223,149070,2,0,P|123:171|130:128,1,80
377,115,149320,6,0,P|383:167|376:210,1,80
312,50,149570,1,0,0:0:0:0:
398,36,149695,2,0,L|491:26,1,80
379,194,149945,2,0,L|299:202,1,80
231,252,150195,5,4,0:0:0:0:
125,120,150445,1,0,0:0:0:0:
59,274,150695,1,0,0:0:0:0:
258,120,151070,6,0,L|382:122,1,120.000004577637
230,41,151570,2,0,L|102:45,1,120.000004577637
48,101,151945,2,0,P|40:132|41:170,1,60.0000022888184
57,241,152195,5,0,0:0:0:0:
166,368,152445,1,0,0:0:0:0:
274,239,152695,1,0,0:0:0:0:
437,47,153070,6,0,P|410:83|431:162,1,120.000004577637
474,313,153570,2,0,P|424:256|365:242,1,120.000004577637
303,268,153945,2,0,L|242:282,1,60.0000022888184
256,192,154195,12,0,157945,0:0:0:0:
256,272,158195,6,0,L|363:279,1,95.9999970703126,4|0,0:0|0:0,0:0:0:0:
214,181,158445,2,0,L|110:187,1,95.9999970703126
310,154,158695,2,0,P|317:101|202:38,1,191.999994140625
310,154,159070,2,0,P|384:145|429:119,1,95.9999970703126
155,93,159320,6,0,P|81:102|36:128,1,95.9999970703126
234,223,159570,1,0,0:0:0:0:
310,153,159695,2,0,L|328:52,1,95.9999970703126
145,280,159945,2,0,L|127:381,1,95.9999970703126
310,252,160195,6,0,B|369:258|369:258|422:250,1,95.9999970703126,4|0,0:0|0:0,0:0:0:0:
186,135,160445,2,0,B|127:129|127:129|74:137,1,95.9999970703126
247,197,160695,2,0,P|270:144|194:45,1,191.999994140625
247,197,161070,2,0,L|322:126,1,95.9999970703126
157,224,161320,6,0,L|87:289,1,95.9999970703126
295,277,161570,1,0,0:0:0:0:
295,277,161695,2,0,P|360:283|401:272,1,95.9999970703126
217,107,161945,2,0,P|152:101|111:112,1,95.9999970703126
374,176,162195,5,4,0:0:0:0:
374,176,162320,1,0,0:0:0:0:
450,102,162445,2,0,B|430:63|430:63|399:62|361:33,1,95.9999970703126
281,162,162695,2,0,P|246:210|340:252,1,191.999994140625
296,129,163070,2,0,L|180:131,1,95.9999970703126
354,277,163320,6,0,L|449:275,1,95.9999970703126
311,102,163570,1,0,0:0:0:0:
418,166,163695,2,0,P|424:104|417:55,1,95.9999970703126
211,217,163945,2,0,P|205:279|212:328,1,95.9999970703126
226,124,164195,5,4,0:0:0:0:
226,124,164320,1,0,0:0:0:0:
131,77,164445,2,0,B|73:85|73:85|21:78,1,95.9999970703126
225,32,164695,2,0,P|277:47|293:185,1,191.999994140625
237,248,165070,2,0,P|188:280|164:328,1,95.9999970703126
358,309,165320,6,0,L|466:318,1,95.9999970703126
316,201,165570,1,0,0:0:0:0:
229,139,165695,2,0,L|133:131,1,95.9999970703126
423,206,165945,2,0,P|410:141|364:100,1,95.9999970703126
129,222,166195,6,0,P|97:266|80:315,1,95.9999970703126,4|0,0:0|0:0,0:0:0:0:
256,325,166445,2,0,L|256:225,1,95.9999970703126
314,68,166695,2,0,P|320:136|425:127,1,191.999994140625
294,44,167070,2,0,L|195:35,1,95.9999970703126
393,204,167320,6,0,L|488:212,1,95.9999970703126
279,145,167570,1,0,0:0:0:0:
194,208,167695,2,0,P|167:271|164:329,1,95.9999970703126
361,328,167945,2,0,P|388:265|391:207,1,95.9999970703126
185,173,168195,6,0,L|77:166,1,95.9999970703126,4|0,0:0|0:0,0:0:0:0:
14,91,168445,1,0,0:0:0:0:
14,91,168570,1,0,0:0:0:0:
271,136,168695,2,0,P|260:228|139:245,1,191.999994140625
271,136,169070,2,0,L|376:153,1,95.9999970703126
179,295,169320,6,0,L|84:279,1,95.9999970703126
262,230,169570,1,0,0:0:0:0:
346,293,169695,2,0,P|350:347|340:391,1,95.9999970703126
186,169,169945,2,0,P|182:115|192:71,1,95.9999970703126
432,33,170195,6,0,P|436:87|426:131,1,95.9999970703126,4|0,0:0|0:0,0:0:0:0:
384,225,170445,1,0,0:0:0:0:
384,225,170570,1,0,0:0:0:0:
239,157,170695,2,0,P|177:144|161:254,1,191.999994140625
314,186,171070,2,0,P|315:130|292:92,1,95.9999970703126
73,277,171320,6,0,P|109:319|152:332,1,95.9999970703126
156,139,171570,1,0,0:0:0:0:
75,70,171695,2,0,L|-24:58,1,95.9999970703126
218,226,171945,2,0,L|313:237,1,95.9999970703126
444,55,172195,6,0,L|337:70,1,95.9999970703126,4|0,0:0|0:0,0:0:0:0:
245,88,172445,1,0,0:0:0:0:
245,88,172570,1,0,0:0:0:0:
139,182,172695,2,0,P|132:235|137:299,1,95.9999970703126
172,375,172945,1,0,0:0:0:0:
157,100,173070,2,0,P|97:91|43:98,1,95.9999970703126
234,183,173320,5,0,0:0:0:0:
317,247,173445,2,0,P|377:256|431:249,1,95.9999970703126
429,45,173695,1,0,0:0:0:0:
367,166,173820,1,0,0:0:0:0:
252,68,173945,1,0,0:0:0:0:
99,148,174070,6,0,B|77:203|115:245|115:245|189:238|234:308,1,239.999992675781,4|0,0:0|0:0,0:0:0:0:
