osu file format v14

[General]
AudioFilename: audio.mp3
AudioLeadIn: 0
PreviewTime: 23438
Countdown: 0
SampleSet: Normal
StackLeniency: 0.7
Mode: 0
LetterboxInBreaks: 0
EpilepsyWarning: 1
WidescreenStoryboard: 1

[Editor]
DistanceSpacing: 0.7
BeatDivisor: 4
GridSize: 16
TimelineZoom: 1.2

[Metadata]
Title:Last Goodbye
TitleUnicode:Last Goodbye
Artist:Toby Fox
ArtistUnicode:Toby Fox
Creator:Sluggo1000
Version:Insane
Source:Undertale
Tags:undertale outro ending avoidallbackers
BeatmapID:1372775
BeatmapSetID:647955

[Difficulty]
HPDrainRate:5
CircleSize:4
OverallDifficulty:8
ApproachRate:9.5
SliderMultiplier:1.4
SliderTickRate:2

[Events]
//Background and Video events
0,0,"BGpic.jpg",0,0
//Break Periods
2,45636,67131
//Storyboard Layer 0 (Background)
//Storyboard Layer 1 (Fail)
//Storyboard Layer 2 (Pass)
//Storyboard Layer 3 (Foreground)
//Storyboard Sound Samples

[TimingPoints]
2771,333.333333333333,4,1,0,50,1,0
2771,-100,4,3,1,100,0,0
18771,-66.6666666666667,4,3,1,100,0,0
24104,-57.1428571428571,4,3,1,100,0,0
44104,-100,4,3,1,100,0,0
44770,-142.857142857143,4,3,1,100,0,0
67656,200,4,3,1,100,1,0
68456,333.333333333333,4,1,0,100,1,0
68456,-57.1428571428571,4,3,1,100,0,1
100455,-111.111111111111,4,3,1,100,0,0
105789,324.324324324324,4,1,0,100,1,0
108869,-111.111111111111,4,1,0,100,0,0
109355,-142.857142857143,4,1,0,100,0,0
109842,-125,4,1,0,100,0,0
110978,495.867768595041,4,3,0,75,1,0
111472,521.739130434783,4,3,0,70,1,0
111993,582.52427184466,4,3,0,65,1,0
112575,631.578947368421,4,3,0,60,1,0
113206,458.015267175573,4,3,0,55,1,0
113664,500,4,3,0,50,1,0
114164,1016.94915254237,4,1,0,45,1,0
115180,1071.42857142857,4,1,0,40,1,0
116251,2083.33333333333,4,1,0,35,1,0
118334,1052.63157894737,4,1,0,30,1,0
119386,983.606557377049,4,1,0,30,1,0
120369,3116.88311688312,4,1,0,30,1,0
123485,3658.53658536585,4,1,0,30,1,0
123485,-50,4,1,1,30,0,0
126533,-50,4,1,1,0,0,0
127143,3278.68852459016,4,1,1,30,1,0
127143,-50,4,1,1,30,0,0
129875,-50,4,1,1,0,0,0
130425,3260.86956521739,4,1,1,30,1,0
130425,-52.6315789473684,4,1,1,30,0,0
133142,-100,4,1,1,0,0,0

[HitObjects]
152,162,2771,6,0,L|96:242,1,70,4|0,0:0|0:0,0:0:0:0:
236,265,3104,1,8,0:0:0:0:
266,169,3271,1,0,0:0:0:0:
174,94,3438,6,0,L|78:70,1,70,4|0,0:0|0:0,0:0:0:0:
236,265,3771,2,0,L|284:345,1,70,8|0,0:0|0:0,0:0:0:0:
351,120,4104,2,0,L|383:48,1,70,4|0,0:0|0:0,0:0:0:0:
174,94,4438,2,0,L|90:115,1,70,8|0,0:0|0:0,0:0:0:0:
55,251,4771,1,4,0:0:0:0:
167,210,4938,2,0,P|209:206|238:226,1,70,0|8,0:0|0:0,0:0:0:0:
79,313,5271,5,4,0:0:0:0:
79,313,5438,2,0,P|56:278|65:227,1,70,4|0,0:0|0:0,0:0:0:0:
151,116,5771,1,8,0:0:0:0:
55,251,5938,1,0,0:0:0:0:
151,116,6104,6,0,B|183:108|183:108|223:116,1,70,4|0,0:0|0:0,0:0:0:0:
383,163,6438,1,8,0:0:0:0:
272,232,6604,1,4,0:0:0:0:
272,232,6688,1,4,0:0:0:0:
272,232,6771,1,4,0:0:0:0:
352,96,6938,1,4,0:0:0:0:
352,240,7104,2,0,P|368:272|416:288,1,70,8|0,0:0|0:0,0:0:0:0:
400,112,7438,5,8,0:0:0:0:
191,220,7604,1,8,0:0:0:0:
368,224,7770,1,8,0:0:0:0:
223,108,7938,1,8,0:0:0:0:
368,224,8104,6,0,P|349:267|312:304,1,70,4|0,0:0|0:0,0:0:0:0:
234,310,8438,1,8,0:0:0:0:
279,216,8604,1,0,0:0:0:0:
384,336,8771,6,0,P|414:322|442:276,1,70,4|0,0:0|0:0,0:0:0:0:
276,151,9104,2,0,P|284:183|326:217,1,70,8|0,0:0|0:0,0:0:0:0:
456,216,9438,2,0,P|461:183|436:135,1,70,4|0,0:0|0:0,0:0:0:0:
276,268,9771,2,0,P|281:300|320:338,1,70,8|0,0:0|0:0,0:0:0:0:
440,320,10104,1,4,0:0:0:0:
335,221,10271,2,0,P|302:199|265:193,1,70,0|8,0:0|0:0,0:0:0:0:
112,192,10604,5,4,0:0:0:0:
232,128,10771,2,0,P|266:119|312:128,1,70,4|0,0:0|0:0,0:0:0:0:
399,209,11104,1,8,0:0:0:0:
375,336,11271,1,0,0:0:0:0:
237,332,11438,2,0,P|201:324|164:296,1,70,4|0,0:0|0:0,0:0:0:0:
120,184,11771,1,8,0:0:0:0:
198,80,11938,1,0,0:0:0:0:
353,48,12104,6,0,P|362:80|364:146,1,70,4|0,0:0|0:0,0:0:0:0:
312,256,12438,2,0,P|304:216|304:168,1,70,8|0,0:0|0:0,0:0:0:0:
245,57,12771,2,0,P|262:90|309:129,1,70,4|0,0:0|0:0,0:0:0:0:
404,255,13104,2,0,P|395:219|370:171,1,70,8|0,0:0|0:0,0:0:0:0:
192,132,13438,6,0,L|132:245,1,70,4|0,0:0|0:0,0:0:0:0:
192,307,13771,1,8,0:0:0:0:
305,264,13938,1,0,0:0:0:0:
371,148,14104,6,0,L|407:84,1,70,4|0,0:0|0:0,0:0:0:0:
177,104,14438,2,0,L|78:112,1,70,8|0,0:0|0:0,0:0:0:0:
305,264,14771,2,0,L|374:319,1,70,4|0,0:0|0:0,0:0:0:0:
272,98,15104,2,0,L|241:20,1,70,8|0,0:0|0:0,0:0:0:0:
96,144,15438,1,4,0:0:0:0:
240,199,15604,2,0,P|253:243|233:281,1,70,0|8,0:0|0:0,0:0:0:0:
73,217,15938,5,4,0:0:0:0:
73,217,16104,2,0,P|109:212|153:233,1,70,4|0,0:0|0:0,0:0:0:0:
225,336,16438,1,8,0:0:0:0:
99,286,16604,1,0,0:0:0:0:
130,109,16771,6,0,B|167:108|167:108|198:124,1,70,4|0,0:0|0:0,0:0:0:0:
316,223,17104,1,8,0:0:0:0:
158,191,17271,1,4,0:0:0:0:
158,191,17354,1,4,0:0:0:0:
158,191,17438,5,4,0:0:0:0:
229,314,17604,1,4,0:0:0:0:
295,186,17771,2,0,P|229:171|203:181,1,70,8|0,0:0|0:0,0:0:0:0:
248,244,18104,5,8,0:0:0:0:
282,73,18271,1,8,0:0:0:0:
131,204,18438,1,8,0:0:0:0:
353,191,18604,1,8,0:0:0:0:
128,80,18771,5,6,0:0:0:0:
176,320,18938,1,0,0:0:0:0:
240,80,19104,1,14,0:0:0:0:
288,320,19271,1,0,0:0:0:0:
405,70,19438,6,0,L|318:145,1,105.000004005432,6|0,0:0|0:0,0:0:0:0:
216,345,19771,1,14,0:0:0:0:
403,239,19938,1,0,0:0:0:0:
146,153,20104,2,0,L|239:227,1,105.000004005432,6|0,0:0|0:0,0:0:0:0:
444,327,20438,2,0,P|438:276|389:228,1,105.000004005432,14|4,0:0|0:0,0:0:0:0:
378,221,20688,1,4,0:0:0:0:
348,206,20771,1,6,0:0:0:0:
192,336,20938,6,0,P|256:320|264:272,1,105.000004005432,0|14,0:0|0:0,0:0:0:0:
226,100,21271,2,0,P|137:58|140:140,1,210.000008010865,4|0,0:0|0:0,0:0:0:0:
208,208,21771,2,0,P|256:184|312:208,1,105.000004005432,10|0,0:0|0:0,0:0:0:0:
397,284,22104,5,4,0:0:0:0:
363,113,22271,2,0,L|295:207,1,105.000004005432,0|10,0:0|0:0,0:0:0:0:
207,299,22604,5,4,0:0:0:0:
96,204,22771,2,0,P|124:109|183:166,1,210.000008010865,4|10,0:0|0:0,0:0:0:0:
207,299,23271,1,0,0:0:0:0:
296,336,23438,5,14,0:0:0:0:
358,298,23604,1,10,0:0:0:0:
398,236,23771,1,10,0:0:0:0:
417,164,23938,1,10,0:0:0:0:
364,96,24104,6,0,P|300:88|220:121,1,122.500001168251,4|0,0:0|0:0,0:0:0:0:
208,229,24438,1,8,0:0:0:0:
301,171,24604,1,0,0:0:0:0:
134,184,24771,6,0,P|134:248|198:328,1,122.500001168251,4|0,0:0|0:0,0:0:0:0:
311,258,25104,1,8,0:0:0:0:
208,229,25271,1,0,0:0:0:0:
301,347,25438,6,0,P|365:323|405:243,1,122.500001168251,4|0,0:0|0:0,0:0:0:0:
360,152,25771,1,8,0:0:0:0:
248,106,25938,2,0,P|191:129|165:223,1,122.500001168251,4|0,0:0|0:0,0:0:0:0:
318,269,26271,2,0,P|283:205|196:178,1,122.500001168251,4|8,0:0|0:0,0:0:0:0:
89,177,26604,1,0,0:0:0:0:
207,277,26771,6,0,P|282:292|330:248,1,122.500001168251,4|0,0:0|0:0,0:0:0:0:
257,136,27104,1,8,0:0:0:0:
145,200,27271,1,0,0:0:0:0:
279,256,27438,6,0,L|353:117,1,122.500001168251,4|0,0:0|0:0,0:0:0:0:
389,282,27771,1,8,0:0:0:0:
448,151,27938,2,0,P|392:127|328:159,1,122.500001168251,0|4,0:0|0:0,0:0:0:0:
209,266,28271,2,0,P|266:289|318:263,1,122.500001168251,0|8,0:0|0:0,0:0:0:0:
200,147,28604,2,0,P|144:123|80:155,1,122.500001168251,0|4,0:0|0:0,0:0:0:0:
91,265,28938,1,0,0:0:0:0:
106,299,29021,1,0,0:0:0:0:
130,315,29104,2,0,P|186:339|250:339,1,122.500001168251,8|0,0:0|0:0,0:0:0:0:
403,314,29438,6,0,L|339:154,1,122.500001168251,4|0,0:0|0:0,0:0:0:0:
199,207,29771,1,8,0:0:0:0:
320,309,29938,1,0,0:0:0:0:
421,152,30104,2,0,P|362:126|278:174,1,122.500001168251,4|0,0:0|0:0,0:0:0:0:
200,289,30438,2,0,P|264:249|280:201,1,122.500001168251,8|0,0:0|0:0,0:0:0:0:
200,104,30771,6,0,L|48:152,1,122.500001168251,4|0,0:0|0:0,0:0:0:0:
200,289,31104,1,8,0:0:0:0:
244,159,31271,1,4,0:0:0:0:
156,73,31438,2,0,P|93:90|82:140,1,122.500001168251,4|0,0:0|0:0,0:0:0:0:
93,170,31688,1,0,0:0:0:0:
118,191,31771,1,8,0:0:0:0:
246,207,31938,1,0,0:0:0:0:
318,306,32104,6,4,P|261:355|218:292,1,122.500001168251,4|0,0:3|0:3,0:3:0:0:
170,136,32438,2,0,P|227:87|270:150,1,122.500001168251,8|0,0:3|0:3,0:3:0:0:
238,334,32771,2,4,P|177:288|176:204,1,122.500001168251,4|0,0:3|0:3,0:3:0:0:
254,96,33104,2,4,P|315:142|316:226,1,122.500001168251,8|0,0:3|0:3,0:3:0:0:
320,315,33438,5,4,0:0:0:0:
190,194,33604,1,4,0:0:0:0:
338,217,33771,1,8,0:0:0:0:
204,331,33938,1,4,0:0:0:0:
338,217,34104,2,8,B|402:250|380:349,1,122.500001168251
224,265,34438,2,8,P|175:213|194:124,1,122.500001168251
320,80,34771,6,0,P|256:192|224:208,1,122.500001168251,4|0,0:0|0:0,0:0:0:0:
160,240,35104,1,8,0:0:0:0:
80,128,35271,2,0,P|128:64|176:48,1,122.500001168251,0|4,0:0|0:0,0:0:0:0:
289,131,35604,5,0,0:0:0:0:
187,231,35771,1,8,0:0:0:0:
64,111,35938,2,0,P|112:47|160:31,1,122.500001168251,0|4,0:0|0:0,0:0:0:0:
273,121,36271,5,0,0:0:0:0:
172,221,36438,1,8,0:0:0:0:
47,97,36604,2,0,P|95:33|143:17,1,122.500001168251,0|4,0:0|0:0,0:0:0:0:
256,115,36938,5,0,0:0:0:0:
158,215,37104,1,8,0:0:0:0:
149,32,37271,1,0,0:0:0:0:
310,79,37438,6,0,L|425:164,1,122.500001168251,4|0,0:0|0:0,0:0:0:0:
397,275,37771,2,0,L|275:185,1,122.500001168251,8|0,0:0|0:0,0:0:0:0:
151,97,38104,2,0,P|106:67|38:55,2,122.500001168251,4|0|8,0:0|0:0|0:0,0:0:0:0:
166,201,38604,2,0,P|78:182|61:147,1,122.500001168251,0|4,0:0|0:0,0:0:0:0:
242,74,38938,5,0,0:0:0:0:
264,101,39021,1,0,0:0:0:0:
277,127,39104,1,8,0:0:0:0:
197,267,39271,1,0,0:0:0:0:
129,147,39438,2,0,P|147:88|236:83,1,122.500001168251,4|0,0:0|0:0,0:0:0:0:
360,119,39771,2,0,P|353:174|276:161,1,122.500001168251,8|0,0:0|0:0,0:0:0:0:
135,148,40104,6,0,P|96:178|150:235,1,122.500001168251,4|0,0:0|0:0,0:0:0:0:
356,218,40438,1,8,0:0:0:0:
215,122,40604,1,0,0:0:0:0:
207,301,40771,2,0,P|283:308|321:261,1,122.500001168251,4|0,0:0|0:0,0:0:0:0:
353,140,41104,2,0,L|218:197,1,122.500001168251,8|0,0:0|0:0,0:0:0:0:
72,218,41438,6,0,L|61:78,1,122.500001168251,4|0,0:0|0:0,0:0:0:0:
227,171,41771,1,8,0:0:0:0:
72,218,41938,1,4,0:0:0:0:
164,99,42104,2,0,P|236:99|325:121,1,122.500001168251,4|0,0:0|0:0,0:0:0:0:
315,123,42354,1,0,0:0:0:0:
336,144,42438,1,8,0:0:0:0:
165,182,42604,1,0,0:0:0:0:
40,239,42771,6,4,P|76:303|147:297,1,122.500001168251,4|0,0:0|0:0,0:0:0:0:
269,198,43104,2,0,P|225:164|163:185,1,122.500001168251,8|0,0:0|0:0,0:0:0:0:
231,311,43438,1,4,0:0:0:0:
138,136,43604,1,0,0:0:0:0:
119,309,43770,1,8,0:0:0:0:
221,207,43937,1,0,0:0:0:0:
288,80,44104,6,0,P|312:52|392:151,1,210,2|0,0:0|0:0,0:0:0:0:
395,212,44770,2,0,B|362:210|274:150|348:106|353:195|245:157|224:113,1,195.999994018555,2|0,0:0|0:0,0:0:0:0:
320,128,67656,5,10,3:0:0:0:
320,256,67856,1,4,3:0:0:0:
192,256,68056,1,4,3:0:0:0:
192,128,68256,1,4,3:0:0:0:
457,172,68456,6,0,P|392:152|307:204,1,122.500001168251,4|0,3:0|3:0,3:0:0:0:
84,211,68789,2,0,P|144:249|228:227,1,122.500001168251,8|0,3:0|3:0,3:0:0:0:
342,168,69122,2,0,P|357:104|303:51,1,122.500001168251,4|0,3:0|3:0,3:0:0:0:
168,145,69456,2,0,P|165:224|244:246,1,122.500001168251,8|0,3:0|3:0,3:0:0:0:
336,288,69789,5,4,3:0:0:0:
336,288,69956,2,0,B|289:348|192:320,1,122.500001168251,0|8,3:0|3:0,3:0:0:0:
113,184,70289,2,0,B|147:99|263:134,1,122.500001168251,4|4,3:0|3:0,3:0:0:0:
386,123,70622,1,0,3:0:0:0:
403,147,70706,1,0,3:0:0:0:
404,183,70789,2,0,P|381:239|314:271,1,122.500001168251,8|0,3:0|3:0,3:0:0:0:
178,132,71122,6,0,P|115:123|64:170,1,122.500001168251,4|0,3:0|3:0,3:0:0:0:
98,303,71456,2,0,P|140:216|119:159,1,122.500001168251,8|0,3:0|3:0,3:0:0:0:
0,310,71789,1,4,3:0:0:0:
148,228,71956,2,0,L|288:137,1,122.500001168251,0|8,3:0|3:0,3:0:0:0:
193,304,72289,6,4,P|137:279|168:218,1,122.500001168251,4|4,3:0|3:0,3:0:0:0:
267,116,72622,1,0,3:0:0:0:
305,111,72706,1,0,3:0:0:0:
341,126,72789,1,8,3:0:0:0:
273,294,72956,1,0,3:0:0:0:
113,212,73122,2,0,P|111:150|193:103,1,122.500001168251,4|0,3:3|3:0,3:0:0:0:
287,173,73456,2,0,P|290:237|196:276,1,122.500001168251,8|0,3:0|3:0,3:0:0:0:
204,104,73789,6,0,B|175:44|96:62,1,122.500001168251,4|0,3:0|3:0,3:0:0:0:
48,224,74122,2,0,P|77:293|163:282,1,122.500001168251,8|0,3:0|3:0,3:0:0:0:
227,178,74456,2,0,P|154:199|115:240,1,122.500001168251,4|0,3:0|3:0,3:0:0:0:
266,328,74789,2,0,P|323:311|374:251,1,122.500001168251,8|0,3:0|3:0,3:0:0:0:
220,199,75122,5,4,3:0:0:0:
220,199,75289,2,0,B|174:246|174:246|105:265,1,122.500001168251,0|8,3:0|3:0,3:0:0:0:
209,123,75622,2,4,P|260:128|297:192,1,122.500001168251,4|4,3:0|3:0,3:0:0:0:
192,323,75955,1,0,3:0:0:0:
158,303,76039,1,0,3:0:0:0:
140,270,76122,2,0,P|125:163|131:136,1,122.500001168251,8|0,3:0|3:0,3:0:0:0:
365,199,76455,6,0,P|367:261|304:305,1,122.500001168251,4|0,3:0|3:0,3:0:0:0:
186,225,76789,2,0,B|245:273|315:224,1,122.500001168251,8|0,3:0|3:0,3:0:0:0:
236,88,77122,1,4,3:0:0:0:
144,160,77289,2,0,P|113:213|125:271,1,122.500001168251,0|8,0:0|0:0,0:0:0:0:
285,334,77622,2,0,P|314:281|301:223,1,122.500001168251,0|4,0:0|0:0,0:0:0:0:
253,62,77955,5,0,3:0:0:0:
203,207,78122,1,8,3:0:0:0:
104,182,78289,2,0,P|64:136|136:114,1,122.500001168251,0|4,3:0|3:0,3:0:0:0:
304,64,78622,1,0,3:0:0:0:
240,208,78789,1,8,3:0:0:0:
144,80,78955,1,0,3:0:0:0:
368,128,79122,6,0,P|368:240|336:272,1,122.500001168251,4|0,3:0|3:0,3:0:0:0:
192,336,79455,2,0,P|191:267|240:208,1,122.500001168251,8|0,3:0|3:0,3:0:0:0:
380,280,79789,2,0,P|348:296|236:280,1,122.500001168251,4|0,3:0|3:0,3:0:0:0:
129,149,80122,2,0,P|191:178|218:223,1,122.500001168251,8|0,3:0|3:0,3:0:0:0:
297,323,80455,5,4,3:0:0:0:
297,323,80622,2,0,L|352:207,1,122.500001168251,0|8,3:0|3:0,3:0:0:0:
211,115,80955,2,4,B|144:85|96:140,1,122.500001168251,4|4,3:0|3:0,3:0:0:0:
102,282,81289,1,0,3:0:0:0:
127,296,81372,1,0,3:0:0:0:
157,307,81455,2,0,P|210:312|284:284,1,122.500001168251,8|0,3:0|3:0,3:0:0:0:
378,168,81789,6,4,P|341:119|266:109,1,122.500001168251,4|0,3:0|3:0,3:0:0:0:
117,128,82122,2,0,P|151:196|226:215,1,122.500001168251,8|0,3:0|3:0,3:0:0:0:
202,129,82455,1,4,3:0:0:0:
208,286,82622,2,0,P|279:296|337:249,1,122.500001168251,0|8,3:0|3:0,3:0:0:0:
384,148,82955,6,0,P|349:126|266:138,1,122.500001168251,4|4,3:0|3:0,3:0:0:0:
128,179,83289,1,0,3:0:0:0:
104,199,83372,1,0,3:0:0:0:
95,234,83455,1,8,3:0:0:0:
179,327,83622,1,0,3:0:0:0:
318,288,83789,2,0,B|368:247|380:180,1,122.500001168251,4|0,3:0|3:0,3:0:0:0:
322,60,84122,2,0,P|260:79|192:151,1,122.500001168251,8|0,3:0|3:0,3:0:0:0:
143,291,84455,6,0,P|198:230|215:163,1,122.500001168251,4|0,3:0|3:0,3:0:0:0:
275,52,84789,2,0,L|336:170,1,122.500001168251,8|0,3:0|3:0,3:0:0:0:
225,316,85122,2,0,L|261:190,1,122.500001168251,4|0,3:0|3:0,3:0:0:0:
420,170,85455,2,0,P|424:270|382:319,1,122.500001168251,8|0,3:0|3:0,3:0:0:0:
206,323,85789,5,4,3:0:0:0:
206,323,85955,2,0,P|157:288|142:225,1,122.500001168251,0|8,3:0|3:0,3:0:0:0:
206,78,86289,2,4,P|268:59|343:112,1,122.500001168251,4|4,3:0|3:0,3:0:0:0:
342,258,86622,1,0,3:0:0:0:
306,272,86705,1,0,3:0:0:0:
274,272,86789,2,0,P|207:235|194:171,1,122.500001168251,8|0,3:0|3:0,3:0:0:0:
326,77,87122,6,0,L|251:232,1,122.500001168251,4|0,0:0|0:0,0:0:0:0:
80,312,87455,2,0,L|196:268,1,122.500001168251,8|0,0:0|0:0,0:0:0:0:
335,221,87789,1,4,0:0:0:0:
404,161,87955,2,0,P|441:110|451:34,1,122.500001168251,0|8,3:0|3:0,3:0:0:0:
307,52,88289,2,4,P|230:142|229:187,1,122.500001168251,4|4,3:0|3:0,3:0:0:0:
280,343,88622,5,0,3:0:0:0:
381,242,88789,1,8,3:0:0:0:
247,200,88955,2,0,P|130:247|120:285,1,122.500001168251,0|4,3:0|3:0,3:0:0:0:
216,290,89289,1,0,3:0:0:0:
137,233,89455,2,0,L|39:135,1,122.500001168251,8|0,3:0|3:0,3:0:0:0:
96,64,89789,5,4,3:0:0:0:
176,144,89955,1,0,3:0:0:0:
256,64,90122,1,8,3:0:0:0:
336,144,90289,1,0,3:0:0:0:
448,256,90455,5,4,3:0:0:0:
368,336,90622,1,0,3:0:0:0:
288,256,90789,1,8,3:0:0:0:
208,336,90955,1,0,3:0:0:0:
80,224,91122,5,4,3:0:0:0:
205,238,91289,1,0,3:0:0:0:
208,111,91455,1,8,3:0:0:0:
328,139,91622,1,0,3:0:0:0:
368,336,91789,5,4,3:0:0:0:
304,208,91955,1,0,3:0:0:0:
176,272,92122,1,8,3:0:0:0:
144,128,92289,1,0,3:0:0:0:
304,64,92455,6,0,L|432:160,1,122.500001168251,4|0,3:0|3:0,3:0:0:0:
384,256,92789,1,8,3:0:0:0:
288,320,92955,1,0,3:0:0:0:
144,304,93122,6,0,L|80:192,1,122.500001168251,4|0,3:0|3:0,3:0:0:0:
112,80,93455,1,8,3:0:0:0:
240,80,93622,1,0,3:0:0:0:
368,160,93789,6,0,L|368:304,1,122.500001168251,4|0,3:0|3:0,3:0:0:0:
240,320,94122,1,8,3:0:0:0:
128,256,94289,1,0,3:0:0:0:
208,112,94455,5,4,3:0:0:0:
288,272,94622,1,0,3:0:0:0:
112,272,94789,1,8,3:0:0:0:
224,96,94955,1,0,3:0:0:0:
112,272,95122,6,0,L|240:368,1,122.500001168251,4|0,3:0|3:0,3:0:0:0:
368,313,95455,1,8,3:0:0:0:
157,215,95622,1,0,3:0:0:0:
320,256,95789,2,0,P|368:192|368:144,1,122.500001168251,4|0,3:0|3:0,3:0:0:0:
455,144,96122,2,0,P|421:83|343:64,1,122.500001168251,8|0,3:0|3:0,3:0:0:0:
226,210,96455,6,0,L|116:144,1,122.500001168251,4|0,3:0|3:0,3:0:0:0:
223,117,96789,1,8,3:0:0:0:
64,272,96955,1,0,3:0:0:0:
223,117,97122,2,0,P|298:141|321:178,1,122.500001168251,4|0,3:0|3:0,3:0:0:0:
382,122,97455,2,0,P|398:197|380:237,1,122.500001168251,8|0,3:0|3:0,2:2:0:0:
144,304,97789,6,0,P|80:320|16:304,2,122.500001168251,4|0|8,3:0|3:0|3:0,3:0:0:0:
242,239,98289,1,8,0:0:0:0:
407,243,98455,1,4,3:0:0:0:
257,164,98622,1,0,3:0:0:0:
424,137,98789,1,8,3:0:0:0:
272,91,98955,1,0,3:0:0:0:
153,72,99122,6,0,P|86:75|21:116,2,122.500001168251,4|0|8,3:0|3:0|3:0,3:0:0:0:
311,135,99622,1,8,3:0:0:0:
384,288,99789,1,4,3:0:0:0:
224,240,99955,1,0,3:0:0:0:
384,208,100122,1,8,3:0:0:0:
288,320,100289,1,0,3:0:0:0:
144,304,100455,6,4,B|112:256|112:256|160:224|160:176|112:144|112:144|128:80,1,251.999992309571,4|8,3:0|3:0,3:0:0:0:
226,201,101455,1,4,3:0:0:0:
335,310,101789,2,0,P|395:321|372:215,1,188.999994232178,8|8,3:0|3:0,0:0:0:0:
318,230,102455,2,4,B|277:223|250:247|223:272|170:234,1,125.999996154785,4|4,3:0|3:0,3:0:0:0:
133,134,102955,1,8,3:0:0:0:
264,40,103122,6,0,B|333:38|301:90|296:148|296:148|355:138|393:203,1,251.999992309571,4|8,3:0|0:0,0:0:0:0:
301,231,104122,1,4,3:0:0:0:
84,155,104455,2,0,P|45:83|123:78,1,188.999994232178,8|8,0:0|3:0,3:0:0:0:
211,90,105122,2,4,B|213:134|213:134|165:146|149:197,1,125.999996154785,4|4,3:0|3:0,3:0:0:0:
445,270,105789,5,4,0:0:0:0:
293,78,105951,1,0,0:0:0:0:
281,86,106275,5,4,0:0:0:0:
138,285,106437,1,0,0:0:0:0:
149,294,106761,5,4,0:0:0:0:
405,342,106924,1,0,0:0:0:0:
404,325,107248,5,4,0:0:0:0:
231,118,107410,1,0,0:0:0:0:
115,178,107734,5,4,0:0:0:0:
284,313,107897,1,0,0:0:0:0:
115,178,108059,2,0,P|137:239|161:252,1,70,4|0,0:0|0:0,0:0:0:0:
284,313,108383,6,0,P|339:271|343:187,1,140,4|0,3:0|0:0,0:0:0:0:
264,226,108869,2,0,P|215:186|206:114,1,125.999996154785,4|0,3:0|3:0,3:0:0:0:
284,140,109355,2,0,P|282:87|237:50,1,97.9999970092774,4|0,3:0|3:0,3:0:0:0:
204,126,109842,2,0,P|155:154|97:153,1,112,4|0,3:0|3:0,3:0:0:0:
243,218,110329,6,0,L|293:181,1,56,4|0,3:0|3:0,3:0:0:0:
394,156,110653,2,0,L|370:228,1,56,4|0,3:0|3:0,3:0:0:0:
350,310,110978,5,2,0:0:0:0:
142,346,111472,1,4,0:0:0:0:
194,160,111993,1,4,0:0:0:0:
301,298,112575,2,0,P|360:284|369:196,1,140,8|4,0:0|0:0,0:0:0:0:
257,106,113664,1,4,0:0:0:0:
149,268,114164,5,2,2:0:0:0:
223,47,115180,1,4,2:0:0:0:
402,192,116251,1,2,3:0:0:0:
156,308,118334,5,2,3:0:0:0:
363,67,119386,1,4,2:0:0:0:
103,192,120369,1,2,3:0:0:0:
276,266,123485,6,0,B|262:203|269:130|307:164|342:201|402:89|351:44,1,233.333333333333
289,84,127143,6,0,B|223:116|133:67|253:156|171:205|107:206,1,233.333333333333
117,124,130425,6,0,B|13:132|8:288|123:293,1,221.666660747528
